<?xml version="1.0" standalone="no"?>
<!DOCTYPE svg PUBLIC "-//W3C//DTD SVG 1.1//EN" "http://www.w3.org/Graphics/SVG/1.1/DTD/svg11.dtd" >
<svg xmlns="http://www.w3.org/2000/svg" xmlns:xlink="http://www.w3.org/1999/xlink" version="1.1">
<metadata></metadata>
<defs>
<font id="freesetcttregular" horiz-adv-x="1163" >
<font-face units-per-em="2048" ascent="1638" descent="-410" />
<missing-glyph horiz-adv-x="718" />
<glyph horiz-adv-x="0" />
<glyph horiz-adv-x="682" />
<glyph horiz-adv-x="0" />
<glyph horiz-adv-x="0" />
<glyph unicode="&#xd;" horiz-adv-x="718" />
<glyph unicode=" "  horiz-adv-x="718" />
<glyph unicode="&#x09;" horiz-adv-x="718" />
<glyph unicode="&#xa0;" horiz-adv-x="718" />
<glyph unicode="!" horiz-adv-x="577" d="M205 0v176h168v-176h-168zM205 1434h168l-25 -1076h-119z" />
<glyph unicode="&#x22;" horiz-adv-x="671" d="M102 1434h193l-45 -355h-105zM377 1434h192l-45 -355h-104z" />
<glyph unicode="#" horiz-adv-x="1337" d="M115 410l24 118h234l67 406h-231l24 119h232l57 323h94l-55 -323h334l55 323h97l-58 -323h234l-25 -119h-233l-68 -406h231l-24 -118h-232l-57 -324h-94l57 324h-336l-55 -324h-96l57 324h-233zM467 528h336l67 406h-333z" />
<glyph unicode="$" horiz-adv-x="1054" d="M102 1094q0 162 109 254q107 94 262 94v168h90v-164q168 0 314 -51l-19 -127q-142 61 -295 61v-532q209 -104 291 -189q98 -101 98 -264q0 -174 -143 -268q-101 -67 -246 -82v-170h-90v164q-107 0 -186 13.5t-174 49.5l14 133q162 -78 346 -78v584q-184 81 -270 164 q-101 98 -101 240zM248 1094q0 -78 59 -140q55 -55 166 -106v475q-129 -21 -184 -94q-41 -56 -41 -135zM563 115q244 59 244 233q0 106 -64 176q-54 57 -180 117v-526z" />
<glyph unicode="%" horiz-adv-x="2017" d="M205 1063q0 172 94 276q94 107 246 107q149 0 243 -107q97 -108 97 -276q0 -172 -94 -279q-94 -104 -246 -104t-246 104q-94 107 -94 279zM334 1063q0 -147 61 -217q55 -64 150 -64q94 0 147 62q64 70 64 219q0 141 -56.5 210.5t-154.5 69.5q-96 0 -148 -61 q-63 -69 -63 -219zM463 55l1003 1391l88 -57l-1009 -1401zM1133 371q0 172 94 276q94 107 246 107q149 0 243 -107q96 -107 96 -276q0 -172 -94 -279q-94 -104 -245 -104q-152 0 -246 104q-94 107 -94 279zM1262 371q0 -147 61 -217q55 -64 150 -64q94 0 147 62 q63 69 63 219q0 141 -56 210.5t-154 69.5q-96 0 -148 -61q-63 -69 -63 -219z" />
<glyph unicode="&#x26;" horiz-adv-x="1490" d="M143 344q0 160 52 254q78 148 292 213q-112 112 -143 160q-53 77 -53 170q0 129 84 213q101 96 280 96q157 0 252 -74q109 -83 109 -235q0 -133 -96 -223q-73 -67 -242 -136l395 -409q54 82 83.5 198.5t29.5 225.5h135q0 -200 -64 -355q-45 -105 -108 -184l240 -258h-185 l-143 160q-88 -94 -185.5 -135t-232.5 -41q-227 0 -362 100q-138 102 -138 260zM289 350q0 -116 98 -183t256 -67q122 0 213 52q73 40 133 112l-440 465q-106 -34 -176 -119q-84 -107 -84 -260zM426 1141q0 -75 68 -164q47 -63 112 -117q140 54 213 133q62 71 62 148 q0 81 -52 133q-59 59 -174 59q-229 0 -229 -192z" />
<glyph unicode="'" horiz-adv-x="397" d="M102 1434h193l-45 -355h-105z" />
<glyph unicode="(" horiz-adv-x="864" d="M205 672q0 235 92 479q75 196 246 471l116 2q-309 -511 -309 -952q0 -59 17 -166q24 -140 82 -301q74 -211 188 -408l-100 -2q-181 271 -263 512q-69 195 -69 365z" />
<glyph unicode=")" horiz-adv-x="864" d="M205 1624l117 -2q162 -262 243 -471q94 -248 94 -479q0 -170 -69 -365q-83 -244 -262 -512l-101 2q121 216 189 408q54 154 80 299q18 105 18 168q0 441 -309 952z" />
<glyph unicode="*" horiz-adv-x="1032" d="M164 926l248 131l-248 139l59 102l240 -149l4 4l-8 281h116l-8 -281l4 -4l240 147l57 -100l-247 -133l247 -139l-57 -103l-240 150l-6 -2l8 -283h-116l10 283l-6 2l-240 -148z" />
<glyph unicode="+" horiz-adv-x="1548" d="M143 674v114h574v574h114v-574h574v-114h-574v-574h-114v574h-574z" />
<glyph unicode="," horiz-adv-x="641" d="M174 -264l113 446h180l-152 -446h-141z" />
<glyph unicode="-" horiz-adv-x="860" d="M205 492v108h450v-108h-450z" />
<glyph unicode="." horiz-adv-x="577" d="M205 0v176h168v-176h-168z" />
<glyph unicode="/" horiz-adv-x="1120" d="M102 -483l826 1953l90 -36l-825 -1954z" />
<glyph unicode="0" horiz-adv-x="1208" d="M123 717q0 176 24 299q41 193 134 299q120 135 323 135q202 0 322 -135q92 -105 133 -297q26 -127 26 -301q0 -176 -24 -299q-41 -194 -133 -299q-120 -135 -324 -135q-201 0 -321 135q-92 105 -133 297q-27 132 -27 301zM268 717q0 -274 51 -408q77 -209 285 -209 q159 0 242 123q94 143 94 494q0 273 -51 407q-77 209 -285 209q-160 0 -242 -123q-94 -143 -94 -493z" />
<glyph unicode="1" horiz-adv-x="735" d="M82 1174l324 260h124v-1434h-135v1276l-239 -197z" />
<glyph unicode="2" horiz-adv-x="1071" d="M102 0v125q234 248 363 395q155 180 227 309q80 145 80 265q0 145 -106 202q-67 37 -177 37q-180 0 -325 -82l-25 117q167 82 350 82q238 0 345 -119q84 -93 84 -235q0 -156 -117 -355q-93 -161 -269 -352q-137 -149 -280 -270l131 -2h586v-117h-867z" />
<glyph unicode="3" horiz-adv-x="1118" d="M72 49l20 125q152 -74 369 -74q130 0 225 62q123 79 123 235q0 147 -102 224q-86 65 -220 65h-211v117h213q141 0 224 86q84 87 84 207q0 108 -87.5 172.5t-228.5 64.5q-188 0 -340 -71l-12 124q159 64 352 64q198 0 320 -88q135 -94 135 -266q0 -111 -45 -185 q-67 -116 -225 -163q123 -27 196 -103q92 -95 92 -248q0 -188 -137 -301q-133 -112 -356 -112q-224 0 -389 65z" />
<glyph unicode="4" horiz-adv-x="1214" d="M82 342v123l651 969h180v-975h220v-117h-220v-342h-135v342h-696zM213 461l111 -2h454v725l4 127l-73 -117l-433 -645z" />
<glyph unicode="5" horiz-adv-x="1142" d="M164 35v133q165 -68 334 -68q166 0 261 95t95 260q0 105 -53 182q-89 127 -303 127q-205 0 -332 -37v707h766v-117h-631v-457q89 21 193 21q245 0 383 -129q122 -116 122 -297q0 -187 -114 -316q-137 -155 -387 -155q-181 0 -334 51z" />
<glyph unicode="6" horiz-adv-x="1175" d="M123 541q0 465 139 692q132 217 395 217q206 0 338 -31l-12 -121q-119 35 -324 35q-193 0 -301 -159q-106 -156 -106 -426l-2 -46q50 83 121 136q94 67 223 67q194 0 317 -108q142 -124 142 -355q0 -185 -105 -311q-123 -147 -346 -147q-268 0 -391 200q-88 143 -88 357z M276 444q0 -155 85.5 -249.5t230.5 -94.5t230 94.5t85 249.5t-85 249.5t-230 94.5t-230.5 -94.5t-85.5 -249.5z" />
<glyph unicode="7" horiz-adv-x="962" d="M41 1317v117h881v-123l-553 -1311h-154l563 1317h-737z" />
<glyph unicode="8" horiz-adv-x="1255" d="M143 362q0 150 113 254q93 84 236 121q-173 75 -242 187q-53 83 -53 182q0 138 106 235q118 109 311 109q182 0 304 -78q139 -89 139 -266q0 -109 -60 -197q-70 -102 -233 -172q204 -60 285 -172q63 -84 63 -213q0 -172 -126.5 -270t-346.5 -98q-237 0 -373 118 q-123 108 -123 260zM289 365q0 -118 97 -191.5t251 -73.5q148 0 239 69t91 179q0 100 -68 174q-81 90 -297 156q-137 -41 -213 -105q-100 -84 -100 -208zM342 1106q0 -117 82 -193q75 -68 217 -125q165 70 229 168q41 65 41 150q0 108 -80 167.5t-213 59.5 q-123 0 -199.5 -64.5t-76.5 -162.5z" />
<glyph unicode="9" horiz-adv-x="1185" d="M123 985q0 194 108 320q124 145 347 145q278 0 401 -203q84 -141 84 -352q0 -490 -150 -715q-132 -196 -376 -196q-156 0 -213 8q-68 6 -131 26l8 119q115 -37 331 -37q224 0 326 197q76 143 76 362l2 74q-78 -117 -176 -164q-77 -39 -170 -39q-196 0 -322 105 q-145 121 -145 350zM268 985q0 -153 87.5 -245.5t234.5 -92.5q134 0 225 98q94 101 94 250q0 142 -88 236q-95 102 -243 102q-116 0 -197 -69q-113 -94 -113 -279z" />
<glyph unicode=":" horiz-adv-x="577" d="M205 0v176h168v-176h-168zM205 874v177h168v-177h-168z" />
<glyph unicode=";" horiz-adv-x="641" d="M174 -264l113 446h180l-152 -446h-141zM270 874v177h168v-177h-168z" />
<glyph unicode="&#x3c;" horiz-adv-x="1325" d="M115 723l1044 659v-116l-852 -543l852 -545v-115z" />
<glyph unicode="=" horiz-adv-x="1548" d="M143 487v115h1262v-115h-1262zM143 860v115h1262v-115h-1262z" />
<glyph unicode="&#x3e;" horiz-adv-x="1325" d="M166 63v115l852 545l-852 543v116l1044 -659z" />
<glyph unicode="?" horiz-adv-x="911" d="M102 1280v127q125 43 265 43q209 0 325.5 -90.5t116.5 -251.5q0 -111 -47 -203q-37 -73 -121 -166l-129 -143q-68 -89 -68 -176v-62h-116v62q0 132 104 260l117 133q115 139 115 295q0 107 -79.5 166t-215.5 59q-151 0 -267 -53zM301 0v176h168v-176h-168z" />
<glyph unicode="@" horiz-adv-x="1644" d="M102 680q0 318 203 539q211 231 543 231q306 0 500 -170t194 -463q0 -247 -129 -397q-115 -133 -272 -133q-69 0 -113.5 41.5t-44.5 107.5q0 27 2 33q-53 -79 -131 -130.5t-154 -51.5q-117 0 -196 67q-92 77 -92 224q0 239 129 395q130 157 307 157q157 0 213 -151 l24 137h103l-107 -614q-4 -50 -4 -53q0 -39 14.5 -58.5t49.5 -19.5q119 0 211 102q112 124 112 346q0 258 -176 408q-176 153 -438 153q-257 0 -451 -176q-219 -201 -219 -524q0 -277 176 -453q177 -174 457 -174q117 0 203 13q81 15 184 55v-78q-101 -34 -186.5 -46.5 t-200.5 -12.5q-369 0 -559 239q-152 193 -152 457zM520 582q0 -108 66 -162q52 -43 129 -43q85 0 166 72q100 87 135 256q1 4 8 131q0 95 -56 151.5t-134 56.5q-120 0 -211 -120q-103 -133 -103 -342z" />
<glyph unicode="A" horiz-adv-x="1411" d="M31 0l569 1434h176l604 -1434h-145l-166 395h-733l-160 -395h-145zM379 512h641l-279 653l-51 135l-51 -135z" />
<glyph unicode="B" horiz-adv-x="1181" d="M205 0v1434h383q214 0 321 -107q99 -95 99 -254q0 -109 -54 -188q-65 -93 -194 -135q131 -29 210 -123.5t79 -223.5q0 -194 -127 -298.5t-347 -104.5h-370zM340 117h217q138 0 217 43q129 70 129 241q0 130 -91 205.5t-241 75.5h-231v-565zM340 799h229q135 0 214 74.5 t79 197.5q0 121 -78 183.5t-211 62.5h-233v-518z" />
<glyph unicode="C" horiz-adv-x="1251" d="M113 694q0 297 151 504q188 252 545 252q118 0 198 -11.5t169 -43.5l-13 -123q-149 61 -342 61q-253 0 -409 -182q-154 -183 -154 -459q0 -247 152 -422q153 -170 403 -170q206 0 377 68v-129q-171 -55 -397 -55q-341 0 -525 233q-155 195 -155 477z" />
<glyph unicode="D" horiz-adv-x="1409" d="M205 0v1434h350q145 0 264 -29q201 -52 322 -191q155 -180 155 -503q0 -329 -198 -521q-196 -190 -543 -190h-350zM340 117h201q275 0 434 141q176 156 176 459q0 271 -125 420q-99 117 -262 157q-97 23 -223 23h-201v-1200z" />
<glyph unicode="E" horiz-adv-x="1042" d="M205 0v1434h696v-117h-561v-518h534v-117h-534v-565h600v-117h-735z" />
<glyph unicode="F" horiz-adv-x="972" d="M205 0v1434h686v-117h-551v-518h520v-117h-520v-682h-135z" />
<glyph unicode="G" horiz-adv-x="1456" d="M113 717q0 336 204 534q205 199 555 199q166 0 371 -78l-20 -127q-78 37 -131 53q-116 35 -220 35q-268 0 -436 -155q-178 -166 -178 -461q0 -267 160 -438q170 -179 454 -179q143 0 285 50v483h-348v117h483v-687q-207 -79 -420 -79q-330 0 -538 190q-221 200 -221 543z " />
<glyph unicode="H" horiz-adv-x="1425" d="M205 0v1434h135v-633h745v633h136v-1434h-136v684h-745v-684h-135z" />
<glyph unicode="I" horiz-adv-x="544" d="M205 0v1434h135v-1434h-135z" />
<glyph unicode="J" horiz-adv-x="718" d="M31 4l12 119q62 -23 137 -23q128 0 174 107q25 58 25 151v1076h135v-1090q0 -180 -85.5 -270t-246.5 -90q-81 0 -151 20z" />
<glyph unicode="K" horiz-adv-x="1294" d="M205 0v1434h135v-580v-82l51 51l613 611h172l-697 -678l774 -756h-190l-686 686l-35 39l-2 -70v-655h-135z" />
<glyph unicode="L" horiz-adv-x="966" d="M205 0v1434h135v-1317h586v-117h-721z" />
<glyph unicode="M" horiz-adv-x="1916" d="M205 0v1434h213l477 -1115l59 -190h9l59 190l477 1115h213v-1434h-135v1110l4 195h-8l-70 -189l-475 -1116h-139l-475 1116l-70 189h-8l4 -195v-1110h-135z" />
<glyph unicode="N" horiz-adv-x="1480" d="M205 0v1434h174l698 -1160l64 -131v166v1125h135v-1434h-174l-688 1137l-76 153l2 -166v-1124h-135z" />
<glyph unicode="O" horiz-adv-x="1523" d="M113 715q0 309 159 512q174 223 490 223q315 0 489 -223q160 -201 160 -512q0 -345 -186 -543q-179 -188 -463 -188q-282 0 -461 188q-188 200 -188 543zM258 715q0 -300 158 -469q140 -146 346 -146t346 146q158 169 158 469q0 299 -158 471q-138 147 -346 147 t-346 -147q-158 -172 -158 -471z" />
<glyph unicode="P" horiz-adv-x="1089" d="M205 0v1434h373q197 0 313.5 -113.5t116.5 -300.5t-116.5 -300.5t-313.5 -113.5h-238v-606h-135zM340 723h211q151 0 231 77.5t80 219.5q0 144 -85 220.5t-226 76.5h-211v-594z" />
<glyph unicode="Q" horiz-adv-x="1523" d="M113 715q0 309 159 512q174 223 490 223q310 0 487 -223q162 -201 162 -512q0 -198 -74 -369q-101 -236 -321 -313l332 -301h-189l-289 260q-44 -8 -108 -8q-282 0 -461 188q-188 200 -188 543zM258 715q0 -300 158 -469q140 -146 346 -146t346 146q158 169 158 469 q0 299 -158 471q-138 147 -346 147t-346 -147q-158 -172 -158 -471z" />
<glyph unicode="R" horiz-adv-x="1228" d="M205 0v1434h368q245 0 357 -136q82 -101 82 -249q0 -132 -88 -226q-87 -93 -222 -108q52 -9 82 -39q30 -24 74 -119l248 -557h-150l-235 530q-26 63 -62 91q-50 41 -139 41h-180v-662h-135zM340 778h199q140 0 233 78q94 79 94 191q0 113 -59 184q-74 86 -223 86h-244 v-539z" />
<glyph unicode="S" horiz-adv-x="1013" d="M102 47l15 133q75 -36 161.5 -58t157.5 -22q123 0 211 52q119 67 119 198q0 125 -82 201q-48 45 -242 149q-151 79 -219 140q-110 104 -110 254q0 148 86 237q113 119 356 119q162 0 311 -51l-18 -127q-142 61 -293 61q-177 0 -248 -86q-49 -58 -49 -153q0 -120 131 -205 q3 -2 28 -16t61.5 -34.5t78.5 -43.5q189 -106 248 -168q106 -109 106 -283q0 -120 -80 -215q-124 -145 -395 -145q-179 0 -334 63z" />
<glyph unicode="T" horiz-adv-x="1054" d="M31 1317v117h993v-117h-428v-1317h-135v1317h-430z" />
<glyph unicode="U" horiz-adv-x="1458" d="M205 477v957h135v-953q0 -200 133 -303q107 -78 256 -78q147 0 254 78q135 102 135 303v953h135v-957q0 -226 -143 -360q-142 -133 -381 -133q-236 0 -381 133q-143 131 -143 360z" />
<glyph unicode="V" horiz-adv-x="1333" d="M41 1434h149l449 -1139l43 -166l55 166l420 1139h135l-532 -1434h-152z" />
<glyph unicode="W" horiz-adv-x="1980" d="M41 1434h147l342 -1160l37 -157l37 159l322 1158h147l342 -1160l37 -157l37 159l321 1158h129l-401 -1434h-170l-336 1090l-43 159l-47 -162l-289 -1087h-170z" />
<glyph unicode="X" horiz-adv-x="1316" d="M41 0l528 760l-497 674h168l368 -519l45 -67l49 67l367 519h156l-486 -674l537 -760h-168l-371 526l-84 138l-90 -144l-360 -520h-162z" />
<glyph unicode="Y" horiz-adv-x="1275" d="M20 1434h158l400 -635l49 -84l63 98l400 621h165l-563 -836v-598h-135v598z" />
<glyph unicode="Z" horiz-adv-x="1150" d="M102 0v127l684 1053l91 137h-164h-594v117h899v-138l-670 -1040l-92 -137l139 -2h654v-117h-947z" />
<glyph unicode="[" horiz-adv-x="675" d="M205 -449v1883h368v-117h-225v-1649h225v-117h-368z" />
<glyph unicode="\" horiz-adv-x="1243" d="M164 1434l90 36l825 -1953l-90 -37z" />
<glyph unicode="]" horiz-adv-x="675" d="M102 -332h226v1649h-226v117h369v-1883h-369v117z" />
<glyph unicode="^" horiz-adv-x="1081" d="M115 887l426 575l426 -575h-111l-315 422l-314 -422h-112z" />
<glyph unicode="_" horiz-adv-x="1443" d="M164 -350h1188v-99h-1188v99z" />
<glyph unicode="`" horiz-adv-x="702" d="M164 1548h192l183 -272h-105z" />
<glyph unicode="a" horiz-adv-x="1060" d="M92 281q0 226 221 309q131 51 381 51h68v37q0 145 -59 212.5t-183 67.5q-169 0 -313 -79v122q148 66 313 66q226 0 314 -141q57 -89 57 -250v-447l6 -229h-115v178q-66 -113 -164 -158q-76 -36 -182 -36q-164 0 -258 88q-86 80 -86 209zM227 289q0 -87 57.5 -142 t149.5 -55q153 0 240.5 97t87.5 268v75h-117q-238 0 -338 -71q-80 -59 -80 -172z" />
<glyph unicode="b" d="M164 0l8 203v1358h129v-699q56 107 152 162q76 43 165 43q195 0 314 -125q139 -145 139 -418q0 -275 -137 -415q-119 -125 -316 -125q-107 0 -191.5 63t-133.5 170l-8 -217h-121zM301 524q0 -221 113 -340q89 -92 204 -92q116 0 205 92q113 116 113 340q0 223 -113 342 q-89 92 -205 92q-117 0 -204 -90q-113 -116 -113 -344z" />
<glyph unicode="c" horiz-adv-x="942" d="M92 524q0 225 129 375q143 168 400 168q122 0 251 -41l-6 -115q-117 50 -243 50q-180 0 -289 -121q-107 -119 -107 -316q0 -215 123 -329q111 -105 287 -105q118 0 231 45l13 -110q-102 -41 -244 -41q-255 0 -399 147q-146 149 -146 393z" />
<glyph unicode="d" d="M92 524q0 273 137 416q124 127 316 127q91 0 162 -41q92 -53 155 -164v699h129v-1358l8 -203h-120l-2 217q-49 -101 -123 -160q-91 -73 -209 -73q-197 0 -316 122q-137 140 -137 418zM227 524q0 -221 113 -340q89 -92 205 -92t205 92q112 115 112 340q0 224 -112 342 q-89 92 -205 92q-118 0 -205 -90q-113 -116 -113 -344z" />
<glyph unicode="e" horiz-adv-x="1040" d="M82 543q0 246 125 383q126 141 332 141q253 0 356 -201q63 -123 63 -338v-41h-741q0 -142 62 -245q89 -150 286 -150q101 0 170 14t144 54v-119q-133 -57 -316 -57q-228 0 -354.5 146t-126.5 413zM217 596h606q0 173 -74 267.5t-210 94.5q-151 0 -240 -114 q-82 -104 -82 -248z" />
<glyph unicode="f" horiz-adv-x="901" d="M143 942v109h219v215q0 163 93 241q67 58 155 58q100 0 148 -19v-106q-53 16 -131 16q-79 0 -113 -61q-22 -46 -22 -119v-225h247v-109h-247v-942h-130v942h-219z" />
<glyph unicode="g" d="M92 526q0 276 137 416q119 125 316 125q109 0 198 -68q82 -63 127 -165l9 217h120l-8 -203v-846q0 -165 -71 -274q-126 -187 -447 -187q-151 0 -283 58v127q158 -76 308 -76q168 0 266 96.5t98 267.5v174q-56 -107 -151 -161q-76 -43 -166 -43q-195 0 -314 125 q-139 145 -139 417zM227 526q0 -223 113 -342q89 -92 205 -92q118 0 205 90q112 115 112 344q0 222 -112 340q-89 92 -205 92t-205 -92q-113 -116 -113 -340z" />
<glyph unicode="h" horiz-adv-x="1153" d="M164 0v1561h129v-498l-10 -229q46 103 129 165q92 68 211 68q221 0 309 -147q57 -92 57 -267v-653h-129v647q0 139 -31 203q-55 108 -227 108q-127 0 -217 -100q-92 -103 -92 -246v-612h-129z" />
<glyph unicode="i" horiz-adv-x="468" d="M164 1352v164h141v-164h-141zM170 0v1051h129v-1051h-129z" />
<glyph unicode="j" horiz-adv-x="456" d="M-61 -326q40 -12 98 -12q57 0 84 27q43 40 43 147v1215h129v-1203q0 -126 -33 -188q-54 -106 -201 -106q-45 0 -64.5 2.5t-55.5 13.5v104zM164 1356v164h129v-164h-129z" />
<glyph unicode="k" horiz-adv-x="1042" d="M164 0v1561h129v-973h10l477 463h168l-518 -486l571 -565h-182l-516 516h-10v-516h-129z" />
<glyph unicode="l" horiz-adv-x="456" d="M164 0v1561h129v-1561h-129z" />
<glyph unicode="m" horiz-adv-x="1753" d="M164 1051h127v-205q45 104 123.5 162.5t179.5 58.5q131 0 211.5 -58t105.5 -163q49 103 137.5 162t192.5 59q221 0 303 -149q45 -80 45 -218v-700h-129v694q0 108 -30 166q-52 98 -189 98q-141 0 -219 -100q-78 -104 -78 -246v-612h-129v694q0 130 -55.5 197t-165.5 67 q-128 0 -211 -102q-84 -104 -84 -244v-612h-129v852z" />
<glyph unicode="n" horiz-adv-x="1159" d="M164 1051h115v-217q49 110 142 171.5t206 61.5q225 0 311 -145q57 -92 57 -269v-653h-129v647q0 147 -30 205q-54 106 -228 106q-133 0 -221 -102q-88 -101 -88 -244v-612h-129v809z" />
<glyph unicode="o" horiz-adv-x="1155" d="M92 524q0 243 133 394q131 149 353 149q220 0 352 -147q133 -148 133 -396q0 -245 -133 -393q-132 -147 -352 -147q-221 0 -353 147q-133 148 -133 393zM227 524q0 -174 82 -293q95 -139 269 -139q171 0 266 139q84 122 84 293q0 174 -82 293q-95 141 -268 141 q-172 0 -267 -139q-84 -125 -84 -295z" />
<glyph unicode="p" d="M164 1051h123v-217q40 93 104 151q91 82 227 82q216 0 334.5 -143t118.5 -398q0 -272 -137 -415q-121 -127 -316 -127q-100 0 -182 54.5t-133 149.5l-2 -100v-537h-129v1297zM301 526q0 -223 113 -342q89 -92 204 -92q118 0 205 90q113 116 113 344q0 221 -113 340 q-89 92 -205 92q-115 0 -204 -92q-113 -116 -113 -340z" />
<glyph unicode="q" d="M92 526q0 276 137 416q119 125 316 125q117 0 207 -72q70 -56 118 -161l9 217h120l-8 -203v-1297h-129v637q-47 -80 -112 -133q-89 -71 -205 -71q-195 0 -314 125q-139 145 -139 417zM227 526q0 -223 113 -342q89 -92 205 -92q118 0 205 90q112 115 112 344 q0 222 -112 340q-89 92 -205 92t-205 -92q-113 -116 -113 -340z" />
<glyph unicode="r" horiz-adv-x="720" d="M164 1051h123v-226q24 101 80 166q64 76 153 76q84 0 139 -18v-123q-44 20 -122 20q-116 0 -179 -112q-57 -96 -57 -230v-604h-129v858z" />
<glyph unicode="s" horiz-adv-x="858" d="M102 31l9 123q130 -62 272 -62q110 0 174 50.5t64 140.5q0 89 -64 141q-38 30 -168 86q-134 58 -188 106q-84 78 -84 195t97.5 186.5t254.5 69.5q72 0 128 -12t122 -43l-8 -103q-116 49 -248 49q-90 0 -148 -28q-71 -38 -71 -119q0 -99 104 -154q2 -3 166 -73 q133 -59 191 -135q51 -68 51 -166q0 -122 -84 -203q-104 -96 -293 -96q-145 0 -277 47z" />
<glyph unicode="t" horiz-adv-x="733" d="M41 942v109h215v262l129 47v-309h250v-109h-250v-645q0 -121 27.5 -163t97.5 -42q79 0 131 23v-109q-67 -22 -145 -22q-152 0 -207 108q-33 62 -33 197v653h-215z" />
<glyph unicode="u" horiz-adv-x="1142" d="M164 371v680h129v-691q0 -100 35 -165q56 -103 194 -103q135 0 226 98q94 101 94 252v609h129v-811l8 -240h-121v209q-43 -106 -131 -165.5t-205 -59.5q-143 0 -231 67q-127 95 -127 320z" />
<glyph unicode="v" horiz-adv-x="960" d="M41 1051h133l283 -858l20 -82l27 82l282 858h134l-363 -1051h-154z" />
<glyph unicode="w" horiz-adv-x="1619" d="M41 1051h131l234 -801l32 -141l39 141l252 801h162l252 -801l33 -141l38 141l234 801h131l-315 -1051h-162l-266 844l-23 98l-29 -98l-266 -844h-162z" />
<glyph unicode="x" horiz-adv-x="1019" d="M61 0l365 561l-340 490h164l199 -306l57 -98l59 101l185 303h151l-321 -490l378 -561h-167l-234 379l-51 94l-55 -94l-240 -379h-150z" />
<glyph unicode="y" horiz-adv-x="1003" d="M61 1051h138l276 -801l33 -105l35 103l266 803h133l-448 -1289q-38 -107 -82 -151q-60 -60 -150 -60q-80 0 -137 17l12 115q38 -15 107 -15q58 0 91 36.5t60 123.5l45 137z" />
<glyph unicode="z" horiz-adv-x="970" d="M92 0v106l541 730l84 106h-615v109h750v-123l-537 -719l-82 -100h646v-109h-787z" />
<glyph unicode="{" horiz-adv-x="704" d="M102 512v86q119 15 164 107q31 67 31 192q0 26 -6 272q0 150 45 230q75 141 266 162v-93q-106 -9 -147 -77q-29 -50 -29 -136l6 -360q0 -111 -24 -176q-40 -103 -152 -144l-53 -18l53 -22q110 -35 150 -144q26 -68 26 -176l-6 -360q0 -86 29 -136q41 -68 147 -77v-93 q-190 21 -264 160q-47 89 -47 232q0 123 2 178q1 24 2 46.5t1.5 34t0.5 13.5q0 167 -49 225q-47 59 -146 74z" />
<glyph unicode="|" horiz-adv-x="344" d="M115 -573v2156h114v-2156h-114z" />
<glyph unicode="}" horiz-adv-x="704" d="M102 -358q107 9 148 77q29 50 29 136l-7 360q0 107 25 174q41 111 152 146l53 16l-53 24q-110 38 -150 142q-27 67 -27 178l7 360q0 86 -29 136q-41 68 -148 77v93q191 -21 265 -160q47 -89 47 -232q0 -68 -4 -178q-2 -55 -2 -94q0 -166 51 -229q46 -55 143 -70v-86 q-119 -15 -164 -106q-30 -64 -30 -193q0 -26 6 -272q0 -150 -45 -230q-75 -141 -267 -162v93z" />
<glyph unicode="~" horiz-adv-x="1099" d="M164 483q31 67 69 105q59 59 140 59q64 0 155 -31q76 -28 95 -34q55 -21 102 -21q34 0 68 17q41 20 69 71l74 -49q-42 -84 -91.5 -122t-121.5 -38q-48 0 -98 13l-148 53q-50 20 -112 20q-36 0 -72 -22t-60 -68z" />
<glyph unicode="&#xa2;" horiz-adv-x="1003" d="M61 1051h138l276 -801l33 -105l35 103l266 803h133l-448 -1289q-38 -107 -82 -151q-60 -60 -150 -60q-80 0 -137 17l12 115l56 -13l51 -2q58 0 91 36.5t60 123.5l45 137zM186 1452l62 72q61 -73 131 -99q47 -18 106 -18q57 0 107 18q72 27 131 99l61 -72 q-56 -75 -134.5 -117.5t-164.5 -42.5q-85 0 -163 42t-136 118z" />
<glyph unicode="&#xa3;" horiz-adv-x="718" d="M31 4l12 119q62 -23 137 -23q128 0 174 107q25 58 25 151v1076h135v-1090q0 -180 -85.5 -270t-246.5 -90q-81 0 -151 20z" />
<glyph unicode="&#xa5;" horiz-adv-x="960" d="M205 0v1434h600v307h135v-424h-600v-1317h-135z" />
<glyph unicode="&#xa8;" horiz-adv-x="1042" d="M205 0v1434h696v-117h-561v-518h534v-117h-534v-565h600v-117h-735zM217 1565v164h141v-164h-141zM686 1565v164h141v-164h-141z" />
<glyph unicode="&#xa9;" horiz-adv-x="1818" d="M164 717q0 307 219 526t526 219q303 0 525 -219q221 -218 221 -526q0 -310 -217 -527q-219 -219 -529 -219q-307 0 -526 219t-219 527zM246 717q0 -279 192 -471q193 -193 471 -193q276 0 469 193q195 195 195 471q0 274 -195 469q-194 194 -469 194q-277 0 -471 -194 q-192 -192 -192 -469zM528 715q0 194 107 313q108 123 283 123q135 0 241 -33l-4 -92q-93 35 -229 35q-116 0 -193 -80q-92 -95 -92 -266q0 -164 94 -258q84 -84 211 -84q112 0 205 39l10 -93q-85 -36 -217 -36q-190 0 -303 116q-113 119 -113 316z" />
<glyph unicode="&#xab;" horiz-adv-x="1044" d="M115 629l286 422h117l-268 -424l268 -424h-117zM477 629l287 422h117l-269 -424l269 -424h-117z" />
<glyph unicode="&#xad;" horiz-adv-x="860" d="M205 492v108h450v-108h-450z" />
<glyph unicode="&#xae;" horiz-adv-x="1900" d="M205 721q0 307 219 526t526 219q308 0 527 -219t219 -526t-219 -526q-220 -220 -527 -220q-306 0 -526 220q-219 219 -219 526zM287 721q0 -279 192 -471q193 -193 471 -193q276 0 469 193q195 195 195 471q0 274 -195 469q-194 194 -469 194q-277 0 -471 -194 q-192 -192 -192 -469zM688 281v870h246q129 0 199.5 -59.5t70.5 -173.5q0 -81 -59 -140q-53 -50 -131 -59q38 -12 59.5 -33t40.5 -65l148 -340h-105l-145 323q-22 48 -47 64t-70 16h-111v-403h-96zM784 766h119q86 0 142.5 42t56.5 110q0 96 -76 133q-40 18 -96 18h-146 v-303z" />
<glyph unicode="&#xb4;" horiz-adv-x="800" d="M164 0v1051h500v204h116v-313h-487v-942h-129z" />
<glyph unicode="&#xb8;" horiz-adv-x="1040" d="M82 543q0 246 125 383q126 141 332 141q253 0 356 -201q63 -123 63 -338v-41h-741q0 -142 62 -245q89 -150 286 -150q101 0 170 14t144 54v-119q-133 -57 -316 -57q-228 0 -354.5 146t-126.5 413zM217 596h606q0 173 -74 267.5t-210 94.5q-151 0 -240 -114 q-82 -104 -82 -248zM225 1352v164h142v-164h-142zM674 1352v164h141v-164h-141z" />
<glyph unicode="&#xbb;" horiz-adv-x="1044" d="M164 203l268 424l-268 424h117l286 -422l-286 -426h-117zM526 203l269 424l-269 424h117l287 -422l-287 -426h-117z" />
<glyph unicode="&#x401;" horiz-adv-x="1042" d="M205 0v1434h696v-117h-561v-518h534v-117h-534v-565h600v-117h-735zM217 1565v164h141v-164h-141zM686 1565v164h141v-164h-141z" />
<glyph unicode="&#x404;" horiz-adv-x="1234" d="M113 694q0 297 135 494q182 262 561 262q121 0 197 -12q81 -9 170 -47l-15 -127q-141 69 -340 69q-244 0 -397 -159q-139 -145 -160 -373h707l-2 -117h-711q0 -236 143 -401q157 -183 412 -183q87 0 170 11q105 15 207 61l4 -129q-171 -59 -401 -59q-339 0 -523 231 q-157 201 -157 479z" />
<glyph unicode="&#x406;" horiz-adv-x="544" d="M205 0v1434h135v-1434h-135z" />
<glyph unicode="&#x407;" horiz-adv-x="536" d="M31 1565v164h143v-164h-143zM201 0v1434h135v-1434h-135zM362 1565v164h144v-164h-144z" />
<glyph unicode="&#x410;" horiz-adv-x="1411" d="M31 0l569 1434h176l604 -1434h-145l-166 395h-733l-160 -395h-145zM379 512h641l-279 653l-51 135l-51 -135z" />
<glyph unicode="&#x411;" horiz-adv-x="1175" d="M205 0v1434h766v-117h-631v-510h246q274 0 391 -156q76 -101 76 -245q0 -191 -128.5 -298.5t-349.5 -107.5h-370zM340 117h209q201 0 291 96q67 70 67 193q0 125 -69 194q-90 90 -287 90h-211v-573z" />
<glyph unicode="&#x412;" horiz-adv-x="1181" d="M205 0v1434h383q214 0 321 -107q99 -95 99 -254q0 -109 -54 -188q-65 -93 -194 -135q131 -29 210 -123.5t79 -223.5q0 -194 -127 -298.5t-347 -104.5h-370zM340 117h217q138 0 217 43q129 70 129 241q0 130 -91 205.5t-241 75.5h-231v-565zM340 799h229q135 0 214 74.5 t79 197.5q0 121 -78 183.5t-211 62.5h-233v-518z" />
<glyph unicode="&#x413;" horiz-adv-x="960" d="M205 0v1434h735v-117h-600v-1317h-135z" />
<glyph unicode="&#x414;" horiz-adv-x="1429" d="M41 117h121q137 207 178 440q22 141 22 483v394h820v-1317h166v-428h-136v311h-1036v-311h-135v428zM315 117h732v1200h-549v-293q0 -225 -6 -342q-6 -119 -43 -252q-42 -151 -134 -313z" />
<glyph unicode="&#x415;" horiz-adv-x="1042" d="M205 0v1434h696v-117h-561v-518h534v-117h-534v-565h600v-117h-735z" />
<glyph unicode="&#x416;" horiz-adv-x="1773" d="M4 0l672 762l-604 672h164l577 -654l6 654h135v-654l584 654h164l-604 -672l671 -762h-194l-614 725l-7 -725h-135v725l-620 -725h-195z" />
<glyph unicode="&#x417;" horiz-adv-x="1040" d="M41 74l18 127q193 -101 369 -101q160 0 272 74q113 73 113 201q0 135 -72 213q-94 102 -307 102h-174v117h168q198 0 281 102q57 69 57 191q0 108 -92.5 170.5t-243.5 62.5q-160 0 -344 -80l-10 129q185 68 354 68q225 0 353 -97t128 -259q0 -129 -61.5 -219t-171.5 -119 q135 -29 207.5 -129.5t72.5 -251.5q0 -191 -172 -299q-148 -92 -358 -92q-202 0 -387 90z" />
<glyph unicode="&#x418;" horiz-adv-x="1468" d="M205 0v1434h135v-1078l-8 -174l86 146l692 1106h154v-1434h-136v1077l9 174l-78 -135l-701 -1116h-153z" />
<glyph unicode="&#x419;" horiz-adv-x="1468" d="M205 0v1434h135v-1078l-8 -174l84 146l694 1106h154v-1434h-136v1077l9 174l-78 -135l-701 -1116h-153zM434 1696l62 78q61 -73 131 -99q47 -18 106 -18q57 0 107 18q72 27 131 99l61 -78q-56 -75 -134.5 -117.5t-164.5 -42.5q-85 0 -163 42t-136 118z" />
<glyph unicode="&#x41a;" horiz-adv-x="1294" d="M205 0v1434h135v-656l664 656h172l-697 -678l774 -756h-190l-717 723l-6 -723h-135z" />
<glyph unicode="&#x41b;" horiz-adv-x="1368" d="M41 -2l8 113q49 -11 82 -11q131 0 180 224q33 141 33 432v26v23q0 25 -1 71.5t-1 67.5v490h821v-1434h-135v1317h-551v-379q0 -323 -10 -463q-21 -241 -84 -352q-80 -139 -242 -139q-43 0 -100 14z" />
<glyph unicode="&#x41c;" horiz-adv-x="1916" d="M205 0v1434h213l477 -1115l59 -190h9l59 190l477 1115h213v-1434h-135v1110l4 195h-8l-70 -189l-475 -1116h-139l-475 1116l-70 189h-8l4 -195v-1110h-135z" />
<glyph unicode="&#x41d;" horiz-adv-x="1425" d="M205 0v1434h135v-633h745v633h136v-1434h-136v684h-745v-684h-135z" />
<glyph unicode="&#x41e;" horiz-adv-x="1523" d="M113 715q0 309 159 512q174 223 490 223q315 0 489 -223q160 -201 160 -512q0 -345 -186 -543q-179 -188 -463 -188q-282 0 -461 188q-188 200 -188 543zM258 715q0 -300 158 -469q140 -146 346 -146t346 146q158 169 158 469q0 299 -158 471q-138 147 -346 147 t-346 -147q-158 -172 -158 -471z" />
<glyph unicode="&#x41f;" horiz-adv-x="1427" d="M205 0v1434h1018v-1434h-136v1317h-747v-1317h-135z" />
<glyph unicode="&#x420;" horiz-adv-x="1089" d="M205 0v1434h373q197 0 313.5 -113.5t116.5 -300.5t-116.5 -300.5t-313.5 -113.5h-238v-606h-135zM340 723h211q151 0 231 77.5t80 219.5q0 144 -85 220.5t-226 76.5h-211v-594z" />
<glyph unicode="&#x421;" horiz-adv-x="1251" d="M113 694q0 297 151 504q188 252 545 252q118 0 198 -11.5t169 -43.5l-13 -123q-149 61 -342 61q-253 0 -409 -182q-154 -183 -154 -459q0 -247 152 -422q153 -170 403 -170q206 0 377 68v-129q-171 -55 -397 -55q-341 0 -525 233q-155 195 -155 477z" />
<glyph unicode="&#x422;" horiz-adv-x="1054" d="M31 1317v117h993v-117h-428v-1317h-135v1317h-430z" />
<glyph unicode="&#x423;" horiz-adv-x="1253" d="M61 1434h152l369 -762l73 -180l70 172l319 770h148l-508 -1207q-54 -129 -90 -168q-66 -75 -184 -75q-54 0 -82 4q-10 1 -64 20l6 115q45 -23 121 -23q94 0 158 162l35 86z" />
<glyph unicode="&#x424;" horiz-adv-x="1748" d="M113 729q0 253 161 426q180 195 469 195h64v170h135v-170h64q289 0 467 -193q163 -178 163 -428q0 -253 -161 -426q-179 -194 -469 -194h-64v-175h-135v175h-64q-290 0 -467 192q-163 178 -163 428zM258 729q0 -236 137 -373q131 -131 348 -131h64v1008h-64 q-212 0 -350 -135q-135 -132 -135 -369zM942 225h64q212 0 348 133q137 134 137 371t-135 369q-132 135 -350 135h-64v-1008z" />
<glyph unicode="&#x425;" horiz-adv-x="1316" d="M41 0l528 760l-497 674h168l368 -519l45 -67l49 67l367 519h156l-486 -674l537 -760h-168l-371 526l-84 138l-90 -144l-360 -520h-162z" />
<glyph unicode="&#x426;" horiz-adv-x="1488" d="M205 0v1434h135v-1317h762v1317h135v-1317h170v-428h-135v311h-1067z" />
<glyph unicode="&#x427;" horiz-adv-x="1298" d="M123 956v478h135v-476q0 -168 141 -227q76 -31 207 -31q128 0 271 19l81 10v705h136v-1434h-136v612l-81 -8q-187 -20 -287 -20q-282 0 -395 137q-72 90 -72 235z" />
<glyph unicode="&#x428;" horiz-adv-x="2109" d="M205 0v1434h135v-1317h647v1317h135v-1317h647v1317h136v-1434h-1700z" />
<glyph unicode="&#x429;" horiz-adv-x="2140" d="M205 0v1434h135v-1317h647v1317h135v-1317h647v1317h136v-1317h153v-428h-135v311h-1718z" />
<glyph unicode="&#x42a;" horiz-adv-x="1376" d="M41 1317v117h471v-588h229q242 0 377 -107t135 -313q0 -174 -118 -295q-125 -131 -324 -131h-434v1317h-336zM512 117h258q165 0 256 94q82 82 82 211q0 186 -139 260q-89 47 -230 47h-227v-612z" />
<glyph unicode="&#x42b;" horiz-adv-x="1650" d="M205 0v1434h135v-588h229q242 0 377 -107t135 -313q0 -174 -118 -295q-125 -131 -324 -131h-434zM340 117h258q165 0 256 94q82 82 82 211q0 186 -139 260q-89 47 -230 47h-227v-612zM1311 0v1434h135v-1434h-135z" />
<glyph unicode="&#x42c;" horiz-adv-x="1204" d="M205 0v1434h135v-588h229q242 0 377 -107t135 -313q0 -174 -118 -295q-125 -131 -324 -131h-434zM340 117h258q165 0 256 94q82 82 82 211q0 186 -139 260q-89 47 -230 47h-227v-612z" />
<glyph unicode="&#x42d;" horiz-adv-x="1296" d="M72 1364q182 86 395 86q328 0 522 -197q195 -195 195 -524q0 -339 -201 -543q-199 -202 -557 -202q-100 0 -175 11.5t-161 45.5v135q151 -76 334 -76q298 0 463 174q151 160 151 412h-764v117h764q0 217 -143 366q-156 164 -420 164q-222 0 -389 -98z" />
<glyph unicode="&#x42e;" horiz-adv-x="1992" d="M205 0v1434h135v-633h246q0 261 164 446q182 203 481 203q315 0 489 -223q160 -201 160 -512q0 -345 -186 -543q-179 -188 -463 -188q-313 0 -490 219q-157 195 -157 481h-244v-684h-135zM729 715q0 -300 158 -469q140 -146 344 -146q206 0 346 146q158 169 158 469 q0 299 -158 471q-138 147 -346 147q-204 0 -342 -147q-160 -171 -160 -471z" />
<glyph unicode="&#x42f;" horiz-adv-x="1247" d="M133 0l348 639q-135 41 -210.5 143t-75.5 238q0 173 108 287q121 127 338 127h401v-1434h-135v612h-289l-319 -612h-166zM340 1020q0 -138 90 -219q81 -72 199 -72h278v588h-278q-132 0 -210.5 -83t-78.5 -214z" />
<glyph unicode="&#x430;" horiz-adv-x="1060" d="M92 281q0 226 221 309q131 51 381 51h68v37q0 145 -59 212.5t-183 67.5q-169 0 -313 -79v122q148 66 313 66q226 0 314 -141q57 -89 57 -250v-447l6 -229h-115v178q-66 -113 -164 -158q-76 -36 -182 -36q-164 0 -258 88q-86 80 -86 209zM227 289q0 -87 57.5 -142 t149.5 -55q153 0 240.5 97t87.5 268v75h-117q-238 0 -338 -71q-80 -59 -80 -172z" />
<glyph unicode="&#x431;" horiz-adv-x="1206" d="M102 776q0 251 39 375q52 172 195 279q118 89 307 110l381 45v-121l-444 -49q-107 -20 -189 -84.5t-123 -163.5q-49 -116 -49 -338v-49q50 131 156 209t241 78q213 0 349 -133q149 -146 149 -418q0 -267 -162 -410q-137 -122 -338 -122q-294 0 -417 245q-95 188 -95 547z M258 516q0 -202 109 -317q101 -107 251 -107q153 0 252 105q109 115 109 319q0 211 -109 332q-101 110 -252 110q-150 0 -249 -108q-111 -123 -111 -334z" />
<glyph unicode="&#x432;" horiz-adv-x="1089" d="M164 0v1051h416q157 0 245 -82q80 -77 80 -197q0 -77 -35 -128t-110 -87q86 -20 141 -93.5t55 -170.5q0 -143 -95 -218t-259 -75h-438zM293 109h299q116 0 176 57q53 50 53 127q0 87 -55 139q-66 60 -195 60h-278v-383zM293 600h278q62 0 109 18q96 41 96 144 q0 72 -39 117q-51 63 -166 63h-278v-342z" />
<glyph unicode="&#x433;" horiz-adv-x="808" d="M164 0v1051h643v-109h-514v-942h-129z" />
<glyph unicode="&#x434;" horiz-adv-x="1191" d="M10 109h115q84 125 117.5 247.5t33.5 292.5v402h701v-942h153v-392h-129v283h-862v-283h-129v392zM272 109h576v833h-442v-295q0 -177 -27 -291q-26 -106 -107 -247z" />
<glyph unicode="&#x435;" horiz-adv-x="1040" d="M82 543q0 246 125 383q126 141 332 141q253 0 356 -201q63 -123 63 -338v-41h-741q0 -142 62 -245q89 -150 286 -150q101 0 170 14t144 54v-119q-133 -57 -316 -57q-228 0 -354.5 146t-126.5 413zM217 596h606q0 173 -74 267.5t-210 94.5q-151 0 -240 -114 q-82 -104 -82 -248z" />
<glyph unicode="&#x436;" horiz-adv-x="1517" d="M10 0l541 561l-481 490h157l461 -476l6 476h129v-476l467 476h158l-481 -490l540 -561h-184l-494 528l-6 -528h-129v528l-499 -528h-185z" />
<glyph unicode="&#x437;" horiz-adv-x="917" d="M61 53l15 119q142 -80 303 -80q114 0 188 45q92 53 92 156q0 115 -86 162q-70 37 -206 37h-103v108h103q247 0 247 182q0 86 -65.5 131t-183.5 45q-135 0 -256 -59l-5 113q137 55 273 55q184 0 280 -84q86 -77 86 -199q0 -84 -42 -142.5t-113 -82.5q85 -24 135 -74 q72 -72 72 -192q0 -133 -99 -215q-113 -94 -319 -94q-154 0 -316 69z" />
<glyph unicode="&#x438;" horiz-adv-x="1216" d="M164 0v1051h129v-770l-2 -111l76 113l542 768h144v-1051h-129v770l2 111l-76 -111l-543 -770h-143z" />
<glyph unicode="&#x439;" horiz-adv-x="1216" d="M164 0v1051h129v-770l-2 -111l76 113l542 768h144v-1051h-129v770l2 111l-76 -111l-543 -770h-143zM309 1452l62 72q61 -73 131 -99q46 -18 106 -18q58 0 107 18q72 27 131 99l61 -72q-56 -75 -134.5 -117.5t-164.5 -42.5t-163.5 42t-135.5 118z" />
<glyph unicode="&#x43a;" horiz-adv-x="1011" d="M164 0v1051h129v-463l487 463h166l-516 -490l571 -561h-182l-520 520l-6 -520h-129z" />
<glyph unicode="&#x43b;" horiz-adv-x="1105" d="M14 -4v104q24 -8 45 -8q121 0 162 127q31 98 31 328v24v23q0 23 -1 72t-1 75v21v289h692v-1051h-129v942h-434v-194v-170q0 -304 -35 -420q-52 -174 -213 -174q-70 0 -117 12z" />
<glyph unicode="&#x43c;" horiz-adv-x="1456" d="M164 0v1051h182l336 -777l41 -141h8l60 141l339 777h162v-1051h-129v748l11 170l-64 -170l-328 -748h-110l-320 748l-63 170l4 -170v-748h-129z" />
<glyph unicode="&#x43d;" horiz-adv-x="1155" d="M164 0v1051h129v-451h569v451h129v-1051h-129v492h-569v-492h-129z" />
<glyph unicode="&#x43e;" horiz-adv-x="1155" d="M92 524q0 243 133 394q131 149 353 149q220 0 352 -147q133 -148 133 -396q0 -245 -133 -393q-132 -147 -352 -147q-221 0 -353 147q-133 148 -133 393zM227 524q0 -174 82 -293q95 -139 269 -139q171 0 266 139q84 122 84 293q0 174 -82 293q-95 141 -268 141 q-172 0 -267 -139q-84 -125 -84 -295z" />
<glyph unicode="&#x43f;" horiz-adv-x="1134" d="M164 0v1051h807v-1051h-129v942h-549v-942h-129z" />
<glyph unicode="&#x440;" d="M164 1051h123v-217q40 93 104 151q91 82 227 82q216 0 334.5 -143t118.5 -398q0 -272 -137 -415q-121 -127 -316 -127q-100 0 -182 54.5t-133 149.5l-2 -100v-537h-129v1297zM301 526q0 -223 113 -342q89 -92 204 -92q118 0 205 90q113 116 113 344q0 221 -113 340 q-89 92 -205 92q-115 0 -204 -92q-113 -116 -113 -340z" />
<glyph unicode="&#x441;" horiz-adv-x="942" d="M92 524q0 225 129 375q143 168 400 168q122 0 251 -41l-6 -115q-117 50 -243 50q-180 0 -289 -121q-107 -119 -107 -316q0 -215 123 -329q111 -105 287 -105q118 0 231 45l13 -110q-102 -41 -244 -41q-255 0 -399 147q-146 149 -146 393z" />
<glyph unicode="&#x442;" horiz-adv-x="825" d="M20 942v109h785v-109h-328v-942h-129v942h-328z" />
<glyph unicode="&#x443;" horiz-adv-x="1003" d="M61 1051h138l276 -801l33 -105l35 103l266 803h133l-448 -1289q-38 -107 -82 -151q-60 -60 -150 -60q-80 0 -137 17l12 115q38 -15 107 -15q58 0 91 36.5t60 123.5l45 137z" />
<glyph unicode="&#x444;" horiz-adv-x="1562" d="M92 524q0 299 146 439q110 104 280 104q48 0 93 -20t102 -64l6 2l-2 449h129l-2 -449l6 -2q113 88 235 88q161 0 269 -141q116 -152 116 -406t-116 -403q-108 -141 -271 -141q-118 0 -233 86l-6 -3l2 -512h-129l2 512l-6 3q-101 -82 -195 -82q-170 0 -278 102 q-148 139 -148 438zM227 524q0 -204 70 -311q77 -121 219 -121q106 0 201 80v705q-93 81 -201 81q-115 0 -190 -84q-99 -111 -99 -350zM846 172q104 -84 205 -84q127 0 205.5 115t78.5 321q0 205 -79 322t-205 117q-102 0 -205 -86v-705z" />
<glyph unicode="&#x445;" horiz-adv-x="1019" d="M61 0l365 561l-340 490h164l199 -306l57 -98l59 101l185 303h151l-321 -490l378 -561h-167l-234 379l-51 94l-55 -94l-240 -379h-150z" />
<glyph unicode="&#x446;" horiz-adv-x="1179" d="M164 0v1051h129v-942h545v942h129v-942h161v-392h-129v283h-835z" />
<glyph unicode="&#x447;" horiz-adv-x="1028" d="M82 715v336h129v-316q0 -91 43 -131q60 -57 235 -57q123 0 246 24v480h129v-1051h-129v463q-121 -25 -235 -25q-235 0 -336 78q-82 64 -82 199z" />
<glyph unicode="&#x448;" horiz-adv-x="1624" d="M164 0v1051h129v-942h455v942h129v-942h454v942h129v-1051h-1296z" />
<glyph unicode="&#x449;" horiz-adv-x="1660" d="M164 0v1051h129v-942h455v942h129v-942h454v942h129v-942h150v-402h-129v293h-1317z" />
<glyph unicode="&#x44a;" horiz-adv-x="1202" d="M41 942v109h418v-414h311q153 0 246.5 -87.5t93.5 -230.5q0 -144 -91 -231.5t-249 -87.5h-440v942h-289zM459 109h272q93 0 154 38q90 56 90 172q0 85 -45 136q-64 73 -199 73h-272v-419z" />
<glyph unicode="&#x44b;" horiz-adv-x="1431" d="M164 0v1051h129v-414h272q130 0 217 -41q162 -76 162 -277q0 -157 -98.5 -238t-280.5 -81h-401zM293 109h262q124 0 189 53t65 157q0 209 -254 209h-262v-419zM1139 0v1051h129v-1051h-129z" />
<glyph unicode="&#x44c;" horiz-adv-x="1107" d="M164 0v1051h129v-414h272q130 0 217 -41q162 -76 162 -277q0 -157 -98.5 -238t-280.5 -81h-401zM293 109h262q124 0 189 53t65 157q0 209 -254 209h-262v-419z" />
<glyph unicode="&#x44d;" horiz-adv-x="940" d="M61 33l5 114q119 -55 251 -55q192 0 299 125q97 114 97 272h-498v109h498q0 148 -99 250q-107 110 -290 110q-131 0 -254 -59l-7 115q121 53 261 53q262 0 401 -160q123 -144 123 -379q0 -258 -158 -407q-146 -137 -385 -137q-111 0 -244 49z" />
<glyph unicode="&#x44e;" horiz-adv-x="1521" d="M164 0v1051h129v-459h166q0 197 129 332q137 143 356 143q142 0 242 -57q107 -61 172 -179q72 -135 72 -307q0 -244 -134 -393q-132 -147 -352 -147q-233 0 -364 155q-121 142 -121 344h-166v-483h-129zM594 524q0 -174 82 -293q95 -139 268 -139q171 0 266 139 q84 122 84 293q0 174 -82 293q-94 141 -268 141q-171 0 -266 -139q-84 -125 -84 -295z" />
<glyph unicode="&#x44f;" horiz-adv-x="1019" d="M92 0l246 461q-88 21 -141 80q-74 77 -74 202q0 122 78 209q89 99 248 99h407v-1051h-129v434h-256l-223 -434h-156zM258 743q0 -85 49 -137q57 -63 170 -63h250v399h-250q-111 0 -168 -63q-51 -54 -51 -136z" />
<glyph unicode="&#x451;" horiz-adv-x="1040" d="M82 543q0 246 125 383q126 141 332 141q253 0 356 -201q63 -123 63 -338v-41h-741q0 -142 62 -245q89 -150 286 -150q101 0 170 14t144 54v-119q-133 -57 -316 -57q-228 0 -354.5 146t-126.5 413zM217 596h606q0 173 -74 267.5t-210 94.5q-151 0 -240 -114 q-82 -104 -82 -248zM225 1352v164h142v-164h-142zM674 1352v164h141v-164h-141z" />
<glyph unicode="&#x454;" horiz-adv-x="905" d="M82 524q0 242 131 391q134 152 344 152q85 0 193 -18l106 -23l-6 -115q-42 18 -100 29q-92 18 -181 18q-157 0 -250 -112q-83 -100 -98 -246h457v-108h-459q0 -168 88 -275q101 -125 287 -125q86 0 142.5 9.5t115.5 33.5l12 -115q-107 -36 -272 -36q-235 0 -377 157 q-133 151 -133 383z" />
<glyph unicode="&#x456;" horiz-adv-x="468" d="M164 1352v164h141v-164h-141zM170 0v1051h129v-1051h-129z" />
<glyph unicode="&#x457;" horiz-adv-x="661" d="M92 1352v164h135v-164h-135zM266 0v1051h129v-1051h-129zM434 1352v164h135v-164h-135z" />
<glyph unicode="&#x490;" horiz-adv-x="960" d="M205 0v1434h600v307h135v-424h-600v-1317h-135z" />
<glyph unicode="&#x491;" horiz-adv-x="800" d="M164 0v1051h500v204h116v-313h-487v-942h-129z" />
<glyph unicode="&#x2000;" horiz-adv-x="887" />
<glyph unicode="&#x2001;" horiz-adv-x="1774" />
<glyph unicode="&#x2002;" horiz-adv-x="887" />
<glyph unicode="&#x2003;" horiz-adv-x="1774" />
<glyph unicode="&#x2004;" horiz-adv-x="591" />
<glyph unicode="&#x2005;" horiz-adv-x="443" />
<glyph unicode="&#x2006;" horiz-adv-x="295" />
<glyph unicode="&#x2007;" horiz-adv-x="295" />
<glyph unicode="&#x2008;" horiz-adv-x="221" />
<glyph unicode="&#x2009;" horiz-adv-x="354" />
<glyph unicode="&#x200a;" horiz-adv-x="98" />
<glyph unicode="&#x2010;" horiz-adv-x="860" d="M205 492v108h450v-108h-450z" />
<glyph unicode="&#x2011;" horiz-adv-x="860" d="M205 492v108h450v-108h-450z" />
<glyph unicode="&#x2012;" horiz-adv-x="860" d="M205 492v108h450v-108h-450z" />
<glyph unicode="&#x2013;" horiz-adv-x="1548" d="M143 674v114h1262v-114h-1262z" />
<glyph unicode="&#x2014;" horiz-adv-x="837" d="M102 909v95h633v-95h-633z" />
<glyph unicode="&#x2018;" horiz-adv-x="620" d="M164 1114l151 447h142l-113 -447h-180z" />
<glyph unicode="&#x2019;" horiz-adv-x="497" d="M102 987l113 447h180l-151 -447h-142z" />
<glyph unicode="&#x201a;" horiz-adv-x="641" d="M174 -264l113 446h180l-152 -446h-141z" />
<glyph unicode="&#x201c;" horiz-adv-x="851" d="M102 1114l152 447h141l-112 -447h-181zM457 1114l151 447h142l-113 -447h-180z" />
<glyph unicode="&#x201d;" horiz-adv-x="851" d="M102 987l113 447h180l-151 -447h-142zM457 987l112 447h181l-152 -447h-141z" />
<glyph unicode="&#x201e;" horiz-adv-x="851" d="M102 -264l113 446h180l-151 -446h-142zM457 -264l112 446h181l-152 -446h-141z" />
<glyph unicode="&#x2026;" horiz-adv-x="1118" d="M102 0v176h168v-176h-168zM475 0v176h168v-176h-168zM848 0v176h168v-176h-168z" />
<glyph unicode="&#x202f;" horiz-adv-x="354" />
<glyph unicode="&#x2039;" horiz-adv-x="681" d="M115 629l286 422h117l-268 -424l268 -424h-117z" />
<glyph unicode="&#x203a;" horiz-adv-x="681" d="M164 203l268 424l-268 424h117l286 -422l-286 -426h-117z" />
<glyph unicode="&#x205f;" horiz-adv-x="443" />
<glyph unicode="&#x2122;" horiz-adv-x="2060" d="M205 1343v91h596v-91h-248v-770h-98v770h-250zM924 573v861h159l287 -686l25 -103l26 103l287 686h147v-861h-98v666l10 117l-47 -115l-286 -668h-88l-285 674l-39 109v-117v-666h-98z" />
<glyph unicode="&#x25fc;" horiz-adv-x="1054" d="M0 0v1055h1055v-1055h-1055z" />
</font>
</defs>
</svg>
