<?xml version="1.0" standalone="no"?>
<!DOCTYPE svg PUBLIC "-//W3C//DTD SVG 1.1//EN" "http://www.w3.org/Graphics/SVG/1.1/DTD/svg11.dtd" >
<svg xmlns="http://www.w3.org/2000/svg">
<metadata></metadata>
<defs>
<font id="texgyreheroscnitalic" horiz-adv-x="933" >
<font-face units-per-em="2048" ascent="1624" descent="-424" />
<missing-glyph horiz-adv-x="466" />
<glyph unicode="IJ" horiz-adv-x="1218" d="M31 0l256 1470h162l-256 -1470h-162zM385 246q0 42 6 82l27 145h151l-16 -102q-9 -67 -8 -86q0 -154 147 -154q97 0 155 62.5t81 191.5l190 1085h162l-186 -1073q-37 -209 -147.5 -322.5t-276.5 -113.5q-136 0 -210.5 74.5t-74.5 210.5z" />
<glyph unicode="ij" horiz-adv-x="745" d="M31 0l186 1071h148l-187 -1071h-147zM190 -424l27 156h31q70 0 93 23t38 108l211 1208h147l-213 -1229q-25 -140 -89.5 -206t-178.5 -66q-32 0 -66 6zM233 1243l35 197h176l-34 -197h-177zM606 1243l35 197h176l-35 -197h-176z" />
<glyph unicode="fk" horiz-adv-x="1306" d="M63 0l160 922h-121l27 149h121l31 184q19 115 87 175.5t179 60.5q24 0 69 -4l-28 -162q-54 4 -60 4q-46 0 -72 -29.5t-36 -95.5l-23 -133h148l-27 -149h-147l-160 -922h-148zM498 0l256 1470h143l-149 -852l456 453h189l-406 -399l240 -672h-191l-178 541l-147 -135 l-70 -406h-143z" />
<glyph unicode="ff" horiz-adv-x="897" d="M63 0l160 922h-121l27 149h121l31 184q19 115 87 175.5t179 60.5q24 0 69 -4l-28 -162q-54 4 -60 4q-46 0 -72 -29.5t-36 -95.5l-23 -133h287l31 184q19 115 87 175.5t179 60.5q25 0 70 -4l-29 -162q-54 4 -59 4q-46 0 -72.5 -29.5t-36.5 -95.5l-23 -133h148l-27 -149 h-147l-160 -922h-147l159 922h-286l-160 -922h-148z" />
<glyph unicode="fi" horiz-adv-x="839" d="M63 0l160 922h-121l27 149h121l31 184q19 115 87 175.5t179 60.5q24 0 69 -4l-28 -162q-54 4 -60 4q-46 0 -72 -29.5t-36 -95.5l-23 -133h148l-27 -149h-147l-160 -922h-148zM498 0l186 1071h147l-186 -1071h-147zM700 1243l35 197h176l-34 -197h-177z" />
<glyph unicode="fl" horiz-adv-x="839" d="M63 0l160 922h-121l27 149h121l31 184q19 115 87 175.5t179 60.5q24 0 69 -4l-28 -162q-54 4 -60 4q-46 0 -72 -29.5t-36 -95.5l-23 -133h148l-27 -149h-147l-160 -922h-148zM498 0l256 1470h147l-256 -1470h-147z" />
<glyph unicode="ffi" horiz-adv-x="1273" d="M63 0l160 922h-121l27 149h121l31 184q19 115 87 175.5t179 60.5q24 0 69 -4l-28 -162q-54 4 -60 4q-46 0 -72 -29.5t-36 -95.5l-23 -133h287l31 184q19 115 87 175.5t179 60.5q25 0 70 -4l-29 -162q-54 4 -59 4q-46 0 -72.5 -29.5t-36.5 -95.5l-23 -133h148l-27 -149 h-147l-160 -922h-147l159 922h-286l-160 -922h-148zM932 0l186 1071h148l-187 -1071h-147zM1135 1243l34 197h177l-35 -197h-176z" />
<glyph unicode="ffl" horiz-adv-x="1273" d="M63 0l160 922h-121l27 149h121l31 184q19 115 87 175.5t179 60.5q24 0 69 -4l-28 -162q-54 4 -60 4q-46 0 -72 -29.5t-36 -95.5l-23 -133h287l31 184q19 115 87 175.5t179 60.5q25 0 70 -4l-29 -162q-54 4 -59 4q-46 0 -72.5 -29.5t-36.5 -95.5l-23 -133h148l-27 -149 h-147l-160 -922h-147l159 922h-286l-160 -922h-148zM932 0l256 1470h147l-256 -1470h-147z" />
<glyph unicode=" "  horiz-adv-x="466" />
<glyph unicode="&#x09;" horiz-adv-x="466" />
<glyph unicode="&#xa0;" horiz-adv-x="466" />
<glyph unicode="!" horiz-adv-x="466" d="M70 0l36 209h162l-37 -209h-161zM170 350l72 635l84 485h161l-84 -485l-151 -635h-82z" />
<glyph unicode="&#x22;" horiz-adv-x="595" d="M201 948l90 522h123l-90 -522h-123zM440 948l90 522h123l-90 -522h-123z" />
<glyph unicode="#" d="M41 430l37 129h174l82 291h-172l37 129h172l125 430h112l-125 -430h209l123 430h113l-123 -430h172l-37 -129h-174l-84 -291h174l-39 -129h-172l-123 -430h-112l125 430h-211l-123 -430h-111l123 430h-172zM362 559h209l82 291h-207z" />
<glyph unicode="$" d="M35 272q0 48 14 164h148q-9 -110 -9 -131q0 -86 39 -128.5t138 -65.5l94 542q-161 50 -224 118t-63 194q0 192 120.5 335.5t305.5 155.5l23 131h79l-22 -131q145 -23 210.5 -93.5t65.5 -195.5q0 -26 -4 -100h-143q2 18 2 47q0 81 -35.5 124.5t-122.5 68.5l-86 -490 q100 -38 154 -64.5t91.5 -62t49.5 -76.5t12 -106q0 -226 -124 -378t-332 -169l-33 -197h-80l35 197q-163 20 -233 96t-70 215zM326 1020q0 -72 40 -116t126 -66l79 469q-109 -6 -177 -90.5t-68 -196.5zM442 111q122 6 196.5 97t74.5 214q0 60 -26 107.5t-69 66.5l-86 35z " />
<glyph unicode="%" horiz-adv-x="1492" d="M164 909q0 131 38.5 246.5t116 191.5t177.5 76q98 0 149 -64.5t51 -187.5q0 -134 -39.5 -250t-117 -190t-177.5 -74q-97 0 -147.5 64.5t-50.5 187.5zM279 -39l921 1479h92l-921 -1479h-92zM281 911q0 -70 26 -107.5t74 -37.5q61 0 107.5 61t69 151.5t22.5 190.5 q0 69 -27 107.5t-74 38.5q-59 0 -105 -59t-69.5 -150.5t-23.5 -194.5zM879 238q0 131 38 246.5t115.5 191.5t177.5 76q98 0 149.5 -64.5t51.5 -187.5q0 -132 -39.5 -248t-116.5 -191t-176 -75q-98 0 -149 64.5t-51 187.5zM995 240q0 -70 26.5 -108t76.5 -38q60 0 105.5 61 t68 152t22.5 191q0 70 -26 107.5t-74 37.5q-60 0 -106.5 -60t-69.5 -150.5t-23 -192.5z" />
<glyph unicode="&#x26;" horiz-adv-x="1120" d="M47 272q0 189 96 324q39 56 94 102t169 119q-47 97 -62.5 146t-15.5 104q0 165 104 284t248 119q103 0 162 -63t59 -172q0 -129 -64 -231.5t-227 -221.5l166 -319q49 102 88 229h140q-46 -187 -162 -375l157 -317h-190l-84 168q-101 -110 -187 -154.5t-196 -44.5 q-141 0 -218 78.5t-77 224.5zM199 317q0 -83 52 -137.5t132 -54.5q149 0 285 164l-201 405q-74 -51 -124.5 -94.5t-79 -77t-43 -70.5t-18 -64.5t-3.5 -70.5zM477 1118q0 -92 78 -219q105 78 152 146t47 153q0 55 -29 86t-80 31q-71 0 -119.5 -57t-48.5 -140z" />
<glyph unicode="'" horiz-adv-x="321" d="M182 948l90 522h123l-90 -522h-123z" />
<glyph unicode="(" horiz-adv-x="559" d="M100 252q0 311 105.5 597t372.5 652h102q-144 -236 -208.5 -366t-109.5 -279q-112 -353 -112 -659q0 -126 20.5 -258t75.5 -363h-98q-86 234 -117 376.5t-31 299.5z" />
<glyph unicode=")" horiz-adv-x="559" d="M-96 -424q143 234 207 364.5t110 280.5q113 359 113 660q0 127 -20 256.5t-76 363.5h98q86 -233 116.5 -375.5t30.5 -300.5q0 -310 -105.5 -596t-371.5 -653h-102z" />
<glyph unicode="*" horiz-adv-x="653" d="M195 1210l53 113l162 -78l41 225h100l-39 -225l188 78l15 -113l-193 -69l78 -189l-94 -69l-74 192l-143 -192l-70 69l146 189z" />
<glyph unicode="+" horiz-adv-x="980" d="M125 453v118h319v320h119v-320h318v-118h-318v-318h-119v318h-319z" />
<glyph unicode="," horiz-adv-x="466" d="M12 -301l17 94q88 12 125 207h-88l36 217h174l-34 -201q-25 -138 -83.5 -219t-146.5 -98z" />
<glyph unicode="-" horiz-adv-x="559" d="M76 475l33 184h409l-33 -184h-409z" />
<glyph unicode="." horiz-adv-x="466" d="M63 0l39 217h174l-38 -217h-175z" />
<glyph unicode="/" horiz-adv-x="466" d="M-117 -39l682 1548h111l-680 -1548h-113z" />
<glyph unicode="0" d="M76 406q0 147 24.5 295t73 280.5t114.5 235t156.5 163t192.5 60.5q149 0 226 -114t77 -337q0 -180 -47 -383t-121 -352q-149 -293 -393 -293q-148 0 -225.5 114t-77.5 331zM233 408q0 -136 46 -210.5t129 -74.5q85 0 157.5 81.5t118.5 209.5t72 279.5t26 297.5 q0 138 -45.5 212.5t-128.5 74.5t-155 -79.5t-119 -206t-74 -280t-27 -304.5z" />
<glyph unicode="1" d="M266 1022l25 143q115 8 177.5 32.5t103 78t83.5 164.5h117l-250 -1440h-160l179 1022h-275z" />
<glyph unicode="2" d="M-39 0q42 201 131 337.5t246 233.5l176 111q103 65 147.5 102.5t73.5 83.5q58 92 58 207q0 95 -51 149t-142 54q-116 0 -187 -84t-112 -270h-149q108 516 491 516q143 0 227 -88.5t84 -239.5q0 -92 -27.5 -181.5t-76.5 -158.5q-45 -63 -108.5 -113.5t-196.5 -130.5 l-135 -82q-212 -127 -252 -276h641l-29 -170h-809z" />
<glyph unicode="3" d="M43 297q0 67 8 143h154q-8 -60 -8 -112q0 -98 52.5 -151.5t149.5 -53.5q134 0 225 100t91 246q0 98 -59.5 147.5t-157.5 49.5h-23q-29 -2 -65 -2l26 155q45 -4 78 -4q120 0 195 79.5t75 205.5q0 85 -48 131.5t-136 46.5q-110 0 -176.5 -72.5t-106.5 -236.5h-145 q98 471 459 471q146 0 228.5 -78.5t82.5 -218.5q0 -132 -58 -235t-157 -146q83 -40 117.5 -97t34.5 -147q0 -109 -38.5 -210.5t-105 -178t-162 -122.5t-204.5 -46q-154 0 -240 88.5t-86 247.5z" />
<glyph unicode="4" d="M20 350l31 176l701 914h122l-163 -934h174l-27 -156h-174l-61 -350h-148l62 350h-517zM184 506h379l115 659z" />
<glyph unicode="5" d="M31 285q0 44 2 73h153q-2 -14 -2 -41q0 -92 54.5 -146t146.5 -54q132 0 227 121t95 290q0 109 -57 173.5t-154 64.5q-66 0 -123.5 -32.5t-120.5 -104.5l-127 8l223 772h613l-31 -176h-502l-119 -395q120 90 244 90q140 0 228.5 -99t88.5 -256q0 -117 -39 -228t-106 -196 t-165.5 -136.5t-209.5 -51.5q-152 0 -235.5 85t-83.5 239z" />
<glyph unicode="6" d="M70 389q0 150 37.5 332t97.5 321q83 194 201.5 296t259.5 102q126 0 205 -82t79 -213q0 -18 -4 -88h-145q0 115 -38.5 168t-121.5 53q-129 0 -226.5 -140t-152.5 -405q125 185 309 185q137 0 221.5 -94t84.5 -246q0 -159 -67.5 -302t-181.5 -229t-243 -86 q-151 0 -233 112t-82 316zM223 360q0 -109 53 -173t144 -64q80 0 149 55t109.5 149t40.5 203q0 107 -50.5 166.5t-142.5 59.5q-126 0 -214.5 -116t-88.5 -280z" />
<glyph unicode="7" d="M147 0q92 307 273 626t426 607h-651l30 176h817l-26 -158q-463 -506 -705 -1251h-164z" />
<glyph unicode="8" d="M41 289q0 335 272 475q-62 38 -89 87t-27 122q0 118 56 225t156.5 174.5t219.5 67.5q143 0 225 -79.5t82 -217.5q0 -259 -211 -377q75 -50 108 -110.5t33 -151.5q0 -104 -37 -202.5t-99.5 -173.5t-153 -121t-191.5 -46q-155 0 -249.5 90t-94.5 238zM205 338 q0 -104 54 -159.5t155 -55.5q131 0 211 95.5t80 250.5q0 97 -53.5 152t-147.5 55q-128 0 -213.5 -96.5t-85.5 -241.5zM352 1006q0 -76 48.5 -125.5t123.5 -49.5q104 0 180 82t76 195q0 79 -48.5 124.5t-133.5 45.5q-106 0 -176 -77.5t-70 -194.5z" />
<glyph unicode="9" d="M55 258q0 33 6 88h148q-2 -25 -2 -59q0 -82 43.5 -129t118.5 -47q57 0 102.5 22.5t92.5 82t93 170.5t93 280q-113 -185 -310 -185q-136 0 -216.5 92.5t-80.5 249.5q0 159 62.5 300.5t174 229t243.5 87.5q154 0 235.5 -105t81.5 -303q0 -172 -50.5 -381.5t-129.5 -367.5 q-80 -158 -186 -240t-232 -82q-130 0 -208.5 81t-78.5 216zM299 850q0 -101 47.5 -154t138.5 -53q87 0 156.5 57.5t106 152.5t36.5 208q0 103 -49.5 160t-138.5 57q-125 0 -211 -124t-86 -304z" />
<glyph unicode=":" horiz-adv-x="466" d="M63 0l39 217h174l-36 -217h-177zM211 840l37 217h176l-39 -217h-174z" />
<glyph unicode=";" horiz-adv-x="466" d="M12 -301l17 94q88 12 125 207h-88l36 217h177l-37 -201q-25 -138 -83.5 -219t-146.5 -98zM211 840l39 217h174l-37 -217h-176z" />
<glyph unicode="&#x3c;" horiz-adv-x="980" d="M195 471v82l573 604v-172l-449 -473l449 -473v-172z" />
<glyph unicode="=" horiz-adv-x="980" d="M125 268v119h756v-119h-756zM125 637v119h756v-119h-756z" />
<glyph unicode="&#x3e;" horiz-adv-x="980" d="M195 39l448 473l-448 473v172l573 -604v-82l-573 -604v172z" />
<glyph unicode="?" d="M188 1010q30 137 60 207t88 131q64 67 145.5 104t165.5 37q135 0 215 -84t80 -225q0 -129 -43 -212t-182 -218q-116 -113 -152 -176.5t-59 -198.5h-148q29 160 70.5 237t165.5 203q118 120 145 168q43 72 43 170q0 86 -44 133t-124 47q-110 0 -178 -78.5t-100 -244.5 h-148zM289 0l37 209h163l-36 -209h-164z" />
<glyph unicode="@" horiz-adv-x="1703" d="M279 573q0 178 66 350t173.5 300.5t252 207t294.5 78.5q206 0 339.5 -144.5t133.5 -367.5q0 -124 -48 -255t-122 -232t-168 -166t-180 -65q-37 0 -60.5 26.5t-23.5 69.5q0 21 2 35q-68 -69 -123 -100t-110 -31q-83 0 -137 70t-54 177q0 104 43 219t111 209t159.5 155.5 t180.5 61.5q66 0 103.5 -36.5t59.5 -122.5l56 127h114l-137 -336q-119 -288 -128 -324q-6 -20 -5 -35q0 -32 27 -32q71 0 148 87t128 219t51 253q0 183 -106.5 297t-276.5 114q-99 0 -196 -42t-176 -118t-140 -174.5t-95 -218.5t-34 -243q0 -220 117.5 -359t304.5 -139 q233 0 451 234h112q-261 -361 -589 -361q-227 0 -372.5 172t-145.5 440zM655 569q0 -65 30 -104t79 -39q62 0 139 70t133 178t56 205q0 63 -29.5 102.5t-79.5 42.5q-67 0 -144.5 -70t-130.5 -178t-53 -207z" />
<glyph unicode="A" horiz-adv-x="1120" d="M-59 0l710 1470h185l180 -1470h-178l-45 428h-484l-200 -428h-168zM391 604h375l-68 653z" />
<glyph unicode="B" horiz-adv-x="1120" d="M43 0l256 1470h530q132 0 207.5 -76.5t75.5 -211.5q0 -124 -55.5 -224t-165.5 -165q91 -49 127.5 -108.5t36.5 -156.5q0 -145 -65.5 -266.5t-179 -191.5t-249.5 -70h-518zM236 170h346q136 0 221.5 92t85.5 238q0 186 -244 186h-319zM352 848h295q146 0 221.5 79 t75.5 216q0 157 -217 157h-295z" />
<glyph unicode="C" horiz-adv-x="1212" d="M98 496q0 275 93 507t258.5 369t367.5 137q189 0 300.5 -116t111.5 -312q0 -30 -2 -53h-158q-11 305 -281 305q-146 0 -265.5 -107.5t-187 -293t-67.5 -410.5q0 -186 78 -285.5t225 -99.5q139 0 242.5 95t183.5 309h158q-63 -176 -117.5 -268.5t-136.5 -163.5 q-171 -148 -375 -148q-201 0 -314.5 142t-113.5 393z" />
<glyph unicode="D" horiz-adv-x="1212" d="M53 0l256 1470h490q189 0 295 -133.5t106 -369.5q0 -182 -49.5 -356.5t-135.5 -310t-211.5 -218t-266.5 -82.5h-484zM246 170h315q132 0 241 107.5t168.5 284.5t59.5 382q0 172 -73 264t-209 92h-306z" />
<glyph unicode="E" horiz-adv-x="1120" d="M63 0l256 1470h879l-31 -176h-714l-80 -450h661l-30 -176h-662l-84 -492h727l-31 -176h-891z" />
<glyph unicode="F" horiz-adv-x="1026" d="M63 0l256 1470h834l-31 -176h-671l-78 -450h590l-31 -176h-590l-117 -668h-162z" />
<glyph unicode="G" horiz-adv-x="1306" d="M104 504q0 261 98 493t266 372t361 140q192 0 311.5 -120.5t119.5 -315.5v-49h-158q-23 309 -299 309q-109 0 -206.5 -63.5t-168 -172.5t-111.5 -260.5t-41 -320.5q0 -190 81 -287.5t239 -97.5q168 0 291 120t168 365h-375l29 170h528l-135 -786h-107l-6 190 q-100 -118 -207.5 -173.5t-238.5 -55.5q-87 0 -159.5 29.5t-123.5 80.5t-86.5 120t-52.5 148t-17 165z" />
<glyph unicode="H" horiz-adv-x="1212" d="M47 0l256 1470h164l-107 -608h631l105 608h164l-256 -1470h-164l121 686h-631l-119 -686h-164z" />
<glyph unicode="I" horiz-adv-x="466" d="M72 0l256 1470h161l-256 -1470h-161z" />
<glyph unicode="J" horiz-adv-x="839" d="M-2 246q0 42 6 82l27 145h151l-16 -102q-9 -67 -8 -86q0 -154 147 -154q97 0 155 62.5t81 191.5l190 1085h162l-186 -1073q-37 -209 -147.5 -322.5t-276.5 -113.5q-137 0 -211 74.5t-74 210.5z" />
<glyph unicode="K" horiz-adv-x="1120" d="M45 0l256 1470h164l-125 -712l709 712h225l-606 -593l362 -877h-211l-293 737l-229 -221l-88 -516h-164z" />
<glyph unicode="L" d="M45 0l256 1470h164l-225 -1294h610l-31 -176h-774z" />
<glyph unicode="M" horiz-adv-x="1398" d="M41 0l256 1470h233l129 -1249l562 1249h231l-256 -1470h-158l152 868l70 379l-562 -1247h-159l-127 1245l-47 -282q-11 -59 -15 -95l-151 -868h-158z" />
<glyph unicode="N" horiz-adv-x="1212" d="M45 0l256 1470h195l397 -1194l209 1194h158l-256 -1470h-185l-407 1194l-209 -1194h-158z" />
<glyph unicode="O" horiz-adv-x="1306" d="M94 535q0 149 36 293.5t103 266.5t157 215.5t205 146t239 52.5q224 0 347.5 -150.5t123.5 -424.5q0 -122 -25.5 -243t-71.5 -228t-113.5 -199.5t-148 -159.5t-179 -105t-202.5 -38q-226 0 -348.5 151t-122.5 423zM264 561q0 -198 88 -311t242 -113q147 0 272 105.5 t197 284t72 384.5q0 197 -88.5 309.5t-243.5 112.5q-146 0 -270 -103.5t-196.5 -281.5t-72.5 -387z" />
<glyph unicode="P" horiz-adv-x="1120" d="M63 0l256 1470h543q135 0 214 -84t79 -229q0 -140 -56.5 -262.5t-159 -198t-226.5 -75.5h-379l-109 -621h-162zM365 791h323q143 0 220 91.5t77 241.5q0 176 -203 176h-329z" />
<glyph unicode="Q" horiz-adv-x="1306" d="M94 535q0 148 35.5 292t102.5 266.5t157 216t205 146.5t240 53q227 0 349 -152t122 -423q0 -211 -72.5 -409t-220.5 -365l137 -156l-102 -119l-154 174q-83 -52 -160 -75t-168 -23q-227 0 -349 152.5t-122 421.5zM264 561q0 -198 88.5 -311t243.5 -113q92 0 186 47 l-106 119l104 123l127 -145q114 125 171 287.5t57 338.5q0 199 -88 312.5t-242 113.5q-147 0 -271.5 -103.5t-197 -281t-72.5 -387.5z" />
<glyph unicode="R" horiz-adv-x="1212" d="M66 0l256 1470h559q164 0 250 -74.5t86 -217.5q0 -150 -57 -260.5t-181 -194.5q60 -34 81 -71.5t21 -112.5q0 -47 -6 -93l-37 -266q-6 -44 -6 -69t9 -41.5t32 -36.5l-6 -33h-201v35q0 120 37 334q10 68 10 102q0 78 -46 119t-134 41h-395l-109 -631h-163zM369 801h376 q147 0 222 88t75 241q0 86 -44 128t-136 42h-407z" />
<glyph unicode="S" horiz-adv-x="1120" d="M70 322q0 68 14 153h154q-9 -55 -9 -94q0 -117 76.5 -183.5t208.5 -66.5q166 0 263 84t97 229q0 74 -47.5 116t-171.5 79l-233 70q-205 62 -205 264q0 142 64.5 264t184 197t267.5 75q180 0 280.5 -91t100.5 -253q0 -60 -8 -125h-154q4 54 4 68q0 107 -67 169t-184 62 q-141 0 -231.5 -85t-90.5 -218q0 -107 115 -141l325 -96q215 -63 215 -295q0 -242 -156.5 -392.5t-406.5 -150.5q-190 0 -297.5 100.5t-107.5 260.5z" />
<glyph unicode="T" horiz-adv-x="1026" d="M168 1294l31 176h979l-31 -176h-408l-225 -1294h-164l225 1294h-407z" />
<glyph unicode="U" horiz-adv-x="1212" d="M125 360q0 75 10 129l172 981h162l-160 -925q-12 -65 -12 -131q0 -134 64.5 -205.5t185.5 -71.5q150 0 249.5 105.5t133.5 298.5l164 929h161l-165 -954q-44 -254 -201.5 -404.5t-378.5 -150.5q-184 0 -284.5 104t-100.5 295z" />
<glyph unicode="V" horiz-adv-x="1120" d="M209 1470h182l125 -1259l563 1259h183l-697 -1470h-172z" />
<glyph unicode="W" horiz-adv-x="1585" d="M201 0v1470h192v-1204l484 1204h239v-1204l436 1204h181l-574 -1470h-235v1227l-494 -1227h-229z" />
<glyph unicode="X" horiz-adv-x="1120" d="M-49 0l561 754l-279 716h205l207 -563l404 563h194l-528 -716l291 -754h-201l-219 604l-439 -604h-196z" />
<glyph unicode="Y" horiz-adv-x="1120" d="M199 1470h190l221 -706l471 706h191l-608 -878l-103 -592h-164l103 592z" />
<glyph unicode="Z" horiz-adv-x="1026" d="M-43 0l29 166l936 1128h-684l30 176h893l-31 -172l-935 -1122h741l-31 -176h-948z" />
<glyph unicode="[" horiz-adv-x="466" d="M-47 -401l328 1880h315l-25 -146h-182l-278 -1589h182l-25 -145h-315z" />
<glyph unicode="\" horiz-adv-x="466" d="M154 1509h110l144 -1548h-113z" />
<glyph unicode="]" horiz-adv-x="466" d="M-104 -401l24 145h182l277 1589h-182l26 146h314l-328 -1880h-313z" />
<glyph unicode="^" horiz-adv-x="788" d="M-10 541l508 868h120l205 -868h-129l-164 704l-409 -704h-131z" />
<glyph unicode="_" d="M-127 -256l18 102h934l-18 -102h-934z" />
<glyph unicode="`" horiz-adv-x="559" d="M180 1485h203l80 -289h-113z" />
<glyph unicode="a" d="M20 207q0 161 91.5 273t240.5 134l250 37q49 7 76 51.5t27 116.5q0 65 -45.5 99t-131.5 34q-97 0 -151.5 -46.5t-89.5 -160.5h-135q41 182 143 269.5t270 87.5q136 0 213.5 -63t77.5 -173q0 -33 -6 -63l-111 -639q0 -41 39 -41q17 0 53 8l-24 -131l-19 -6 q-38 -14 -69 -14q-62 0 -94.5 29.5t-32.5 84.5q0 13 4 49q-88 -92 -168 -133t-174 -41q-109 0 -171.5 64t-62.5 174zM178 248q0 -63 33 -96t96 -33q112 0 206.5 74.5t113.5 177.5l30 176q-26 -21 -73 -33.5t-183 -34.5q-117 -20 -170 -75t-53 -156z" />
<glyph unicode="b" d="M16 0l256 1470h148l-94 -538q74 91 141 130.5t149 39.5q131 0 207 -101t76 -274q0 -137 -37.5 -273t-102 -243.5t-160 -174.5t-202.5 -67q-85 0 -135 39t-82 131l-24 -139h-140zM231 367q0 -110 51.5 -176t137.5 -66q94 0 170 86t115.5 219.5t39.5 282.5q0 109 -48.5 168 t-137.5 59q-76 0 -140 -53.5t-104 -138t-62 -184.5t-22 -197z" />
<glyph unicode="c" horiz-adv-x="839" d="M43 352q0 195 67.5 366t192 277.5t277.5 106.5q125 0 196.5 -81t71.5 -222q0 -18 -4 -88h-144q-3 125 -41 177t-127 52q-96 0 -172.5 -82t-116.5 -211.5t-40 -277.5q0 -119 46 -181.5t134 -62.5q169 0 260 254h143q-127 -410 -430 -410q-146 0 -229.5 101.5t-83.5 281.5z " />
<glyph unicode="d" d="M59 379q0 198 62.5 364t171.5 262.5t239 96.5q90 0 145 -45.5t89 -147.5l98 561h148l-256 -1470h-140l27 154q-66 -100 -132 -142.5t-155 -42.5q-142 0 -219.5 106.5t-77.5 303.5zM211 381q0 -122 45.5 -189t128.5 -67q139 0 232.5 155t93.5 404q0 256 -181 256 q-78 0 -140.5 -48.5t-100.5 -129.5t-58 -178.5t-20 -202.5z" />
<glyph unicode="e" d="M59 352q0 195 67.5 366t191 277.5t274.5 106.5q78 0 136.5 -30t93 -83.5t51 -119.5t16.5 -144q0 -84 -23 -248h-641q-12 -77 -12 -127q0 -104 53.5 -164.5t147.5 -60.5q89 0 164.5 59.5t103.5 151.5h147q-59 -173 -176.5 -270t-271.5 -97t-238 100t-84 283zM250 621h489 q4 74 4 96q0 103 -50 163t-136 60q-106 0 -190.5 -88t-116.5 -231z" />
<glyph unicode="f" horiz-adv-x="466" d="M63 0l160 922h-121l27 149h121l31 184q19 115 87 175.5t179 60.5q24 0 69 -4l-28 -162q-54 4 -60 4q-46 0 -72 -29.5t-36 -95.5l-23 -133h148l-27 -149h-147l-160 -922h-148z" />
<glyph unicode="g" d="M-12 -131h147q5 -90 44.5 -130t123.5 -40q133 0 207.5 83t110.5 294l8 43q-59 -78 -122.5 -114t-146.5 -36q-139 0 -216.5 107t-77.5 301q0 198 63 365t172 263.5t238 96.5q89 0 141.5 -42t93.5 -147l29 158h139l-172 -983q-47 -278 -170.5 -408.5t-327.5 -130.5 q-143 0 -213.5 71t-70.5 228v21zM217 379q0 -120 46.5 -187t129.5 -67q139 0 232.5 154.5t93.5 404.5q0 256 -182 256q-103 0 -177.5 -83.5t-108.5 -208t-34 -269.5z" />
<glyph unicode="h" d="M27 0l256 1470h149l-96 -546q82 100 147.5 139t153.5 39q116 0 180 -69t64 -193q0 -40 -11 -111l-127 -729h-147l121 700q10 55 10 99q0 141 -139 141q-119 0 -201 -93t-111 -263l-102 -584h-147z" />
<glyph unicode="i" horiz-adv-x="372" d="M31 0l186 1071h148l-187 -1071h-147zM233 1243l35 197h176l-34 -197h-177z" />
<glyph unicode="j" horiz-adv-x="372" d="M-182 -424l26 156h31q70 0 93 23t38 108l211 1208h148l-213 -1229q-25 -140 -90 -206t-179 -66q-31 0 -65 6zM233 1243l35 197h176l-34 -197h-177z" />
<glyph unicode="k" horiz-adv-x="839" d="M31 0l256 1470h143l-149 -852l456 453h189l-406 -399l240 -672h-191l-178 541l-147 -135l-70 -406h-143z" />
<glyph unicode="l" horiz-adv-x="372" d="M31 0l256 1470h147l-256 -1470h-147z" />
<glyph unicode="m" horiz-adv-x="1398" d="M27 0l186 1071h141l-28 -158q75 100 146.5 144.5t158.5 44.5q82 0 128.5 -41t71.5 -133q95 103 155.5 138.5t139.5 35.5q104 0 164 -68t60 -186q0 -43 -11 -107l-129 -741h-147l121 692q8 44 8 101q0 147 -125 147q-89 0 -163.5 -82.5t-96.5 -204.5l-115 -653h-147 l129 741q6 30 6 64q0 66 -28 100.5t-79 34.5q-109 0 -189 -96.5t-108 -259.5l-102 -584h-147z" />
<glyph unicode="n" d="M27 0l186 1071h139l-26 -158q77 100 150 144.5t163 44.5q114 0 178 -69.5t64 -192.5q0 -40 -11 -111l-127 -729h-147l115 659q10 68 10 123q0 158 -141 158q-112 0 -193.5 -95t-110.5 -261l-102 -584h-147z" />
<glyph unicode="o" d="M57 387q0 134 40.5 264t109.5 229.5t166.5 160.5t204.5 61q151 0 236 -110t85 -304q0 -135 -40.5 -265t-108.5 -229.5t-166 -161t-205 -61.5q-151 0 -236.5 110.5t-85.5 305.5zM211 406q0 -135 51 -207t146 -72q94 0 172.5 79.5t121.5 202.5t43 257q0 135 -50.5 207.5 t-145.5 72.5q-94 0 -173 -79t-122 -202.5t-43 -258.5z" />
<glyph unicode="p" d="M-59 -424l260 1495h141l-29 -158q80 106 146 147.5t157 41.5q131 0 207 -101t76 -274q0 -137 -37.5 -273t-102 -243.5t-160 -174.5t-202.5 -67q-82 0 -133 36t-80 114l-96 -543h-147zM231 365q0 -109 51.5 -174.5t137.5 -65.5q90 0 165.5 83t117.5 217.5t42 287.5 q0 109 -48 168t-138 59q-63 0 -118 -37t-92.5 -96.5t-64.5 -135.5t-40 -154t-13 -152z" />
<glyph unicode="q" d="M59 379q0 198 62.5 364t171.5 262.5t239 96.5q88 0 140.5 -42.5t95.5 -146.5l27 158h139l-260 -1495h-148l95 543q-59 -78 -122.5 -114t-144.5 -36q-141 0 -218 107.5t-77 302.5zM211 381q0 -122 45.5 -189t128.5 -67q143 0 234.5 157t91.5 404q0 254 -181 254 q-76 0 -137.5 -45.5t-100.5 -123.5t-60 -178t-21 -212z" />
<glyph unicode="r" horiz-adv-x="559" d="M47 0l186 1071h140l-33 -184q80 117 145.5 166t143.5 49q19 0 37 -6l-33 -187h-55q-97 0 -175 -81t-100 -205l-108 -623h-148z" />
<glyph unicode="s" horiz-adv-x="839" d="M25 238q0 49 8 106h143q-4 -46 -4 -59q0 -76 50.5 -118t142.5 -42q105 0 172 55.5t67 143.5q0 43 -33.5 71t-117.5 54l-162 51q-162 52 -162 200q0 169 116 285.5t283 116.5q129 0 204 -71t75 -195q0 -12 -4 -70h-144l5 45q0 64 -45 99.5t-125 35.5q-95 0 -154 -51 t-59 -133q0 -40 28 -63t107 -48l141 -45q107 -35 155 -87t48 -132q0 -174 -123.5 -296t-300.5 -122q-149 0 -230 70.5t-81 198.5z" />
<glyph unicode="t" horiz-adv-x="466" d="M90 129q0 47 8 86l123 707h-119l27 149h119l51 299h150l-54 -299h142l-27 -149h-141l-121 -697q-2 -8 -2 -24q0 -32 18 -46t58 -14h53l-25 -141q-116 -14 -123 -14q-66 0 -101.5 37t-35.5 106z" />
<glyph unicode="u" d="M76 211q0 49 8 90l133 770h150l-125 -711q-6 -41 -6 -81q0 -75 35 -114.5t102 -39.5q110 0 192 96t111 260l102 590h148l-187 -1071h-139l29 166q-78 -110 -146.5 -153.5t-165.5 -43.5q-115 0 -178 63t-63 179z" />
<glyph unicode="v" horiz-adv-x="839" d="M119 1071h172l76 -878l403 878h162l-520 -1071h-160z" />
<glyph unicode="w" horiz-adv-x="1212" d="M129 1071h182v-850l320 850h190v-850l328 850h147l-442 -1071h-186v838l-320 -838h-151z" />
<glyph unicode="x" horiz-adv-x="839" d="M-63 0l405 551l-205 520h191l137 -377l270 377h180l-387 -520l213 -551h-188l-147 403l-283 -403h-186z" />
<glyph unicode="y" horiz-adv-x="839" d="M-57 -422l28 164q43 -18 86 -18q47 0 74.5 27t69.5 110l55 110l-133 1100h168l82 -878l389 878h164l-500 -1051q-56 -115 -90 -181t-70 -123.5t-58.5 -83t-55.5 -44t-62 -22.5t-76 -4q-27 0 -59 12z" />
<glyph unicode="z" horiz-adv-x="839" d="M-31 0l25 141l665 781h-489l27 149h680l-27 -147l-657 -774h538l-26 -150h-736z" />
<glyph unicode="{" horiz-adv-x="561" d="M72 479l20 123q60 2 111 74t71 186l62 352q20 114 82 189.5t135 75.5h113l-23 -133h-74q-79 0 -106 -168l-62 -349q-17 -95 -77.5 -181.5t-124.5 -106.5q106 -56 106 -224q0 -37 -6 -71l-59 -346q-9 -47 -9 -80q0 -42 15 -65t41 -23h73l-22 -133h-113q-58 0 -94.5 52.5 t-36.5 137.5q0 37 6 74l62 350q6 43 6 92q0 159 -96 174z" />
<glyph unicode="|" horiz-adv-x="436" d="M172 -401v1880h119v-1880h-119z" />
<glyph unicode="}" horiz-adv-x="561" d="M-82 -401l23 133h75q36 0 65 44t42 124l59 346q17 100 76.5 185t128.5 110q-51 23 -79.5 82t-28.5 141q0 30 6 65l61 349q3 15 4.5 31t2 30.5t1.5 20.5q0 86 -57 86h-74l23 133h112q60 0 97 -53t37 -138q0 -30 -7 -74l-61 -352q-10 -50 -8 -88q0 -158 98 -172l-20 -123 q-60 -1 -111 -75t-74 -191l-61 -350q-20 -114 -81.5 -189t-135.5 -75h-113z" />
<glyph unicode="~" horiz-adv-x="980" d="M104 483q59 92 116 134t124 42q41 0 82 -17.5t137 -74.5q74 -47 119 -47q32 0 63 23.5t76 81.5l72 -78q-69 -95 -125 -135.5t-119 -40.5q-36 0 -70.5 15t-86.5 52q-99 72 -177 72q-40 0 -72.5 -22.5t-70.5 -77.5z" />
<glyph unicode="&#xa1;" horiz-adv-x="466" d="M2 -399l84 485l152 635h81l-71 -635l-84 -485h-162zM221 862l37 209h162l-37 -209h-162z" />
<glyph unicode="&#xa2;" d="M78 346q0 200 66.5 372.5t189.5 278t274 105.5q45 0 72 -12l76 186h65l-78 -205q156 -75 156 -295q0 -40 -2 -69h-137q-3 92 -20.5 138.5t-57.5 69.5l-324 -790q24 -8 56 -8q103 0 167 57.5t121 200.5h144q-65 -201 -180 -307.5t-269 -106.5q-31 0 -102 14l-88 -211h-70 l99 234q-84 64 -121 146.5t-37 201.5zM229 389q0 -154 72 -229l320 780q-18 6 -39 6q-100 0 -182.5 -82t-126.5 -209t-44 -266z" />
<glyph unicode="&#xa3;" d="M0 119q135 102 205.5 216.5t70.5 215.5q0 39 -10 98h-180l23 129h116q-30 125 -30 199q0 134 65 247.5t176 179.5t242 66q148 0 226.5 -86t78.5 -247q0 -59 -8 -103l-6 -30h-148l2 18q6 37 6 74q0 101 -50 160t-138 59q-115 0 -200 -92.5t-85 -218.5q0 -71 39 -226h283 l-23 -129h-233q2 -14 2 -35q0 -143 -67.5 -255.5t-223.5 -233.5q142 84 246 84q29 0 141 -36t129 -36q69 0 142 64l45 -135q-69 -54 -121.5 -76.5t-106.5 -22.5q-29 0 -167.5 46t-170.5 46q-84 0 -213 -82z" />
<glyph unicode="&#xa4;" d="M152 289l63 63q-55 83 -55 185q0 99 55 182l-63 63l84 84l63 -63q86 57 184 57q100 0 183 -57l65 63l84 -84l-65 -63q57 -86 57 -182q0 -99 -57 -185l65 -63l-84 -84l-65 63q-80 -55 -183 -55q-101 0 -184 55l-63 -63zM279 537q0 -86 59 -145.5t145 -59.5q85 0 145 59.5 t60 145.5q0 85 -60 144.5t-145 59.5q-86 0 -145 -59.5t-59 -144.5z" />
<glyph unicode="&#xa5;" d="M55 379l21 117h321l31 174h-322l21 116h258l-215 623h166l188 -604l400 604h168l-433 -623h261l-21 -116h-324l-30 -174h323l-20 -117h-324l-65 -379h-148l66 379h-322z" />
<glyph unicode="&#xa6;" horiz-adv-x="436" d="M172 350h119v-751h-119v751zM172 727v752h119v-752h-119z" />
<glyph unicode="&#xa7;" d="M47 -125q0 41 10 119h148q-8 -44 -8 -82q0 -70 35 -109t98 -39q89 0 148 57.5t59 143.5q0 66 -68 131l-301 287q-72 69 -72 188q0 117 53.5 209t176.5 176q-28 51 -39 82.5t-11 67.5q0 98 48.5 191t135 152.5t185.5 59.5q117 0 185.5 -69t68.5 -187q0 -40 -10 -118h-144 q7 54 7 77q0 66 -34.5 104t-94.5 38q-78 0 -134.5 -57.5t-56.5 -137.5q0 -81 92 -155l215 -177q70 -58 101.5 -117.5t31.5 -134.5q0 -123 -55.5 -219t-181.5 -184q30 -52 41.5 -88.5t11.5 -81.5q0 -158 -113.5 -275.5t-265.5 -117.5q-120 0 -191 72t-71 194zM244 629 q0 -80 51 -125l272 -250q84 60 120 117t36 131q0 90 -74 155l-254 220q-151 -91 -151 -248z" />
<glyph unicode="&#xa8;" horiz-adv-x="559" d="M160 1243l35 197h180l-35 -197h-180zM489 1243l35 197h181l-35 -197h-181z" />
<glyph unicode="&#xa9;" horiz-adv-x="1236" d="M53 674q0 139 42.5 268t116.5 227.5t183.5 157.5t235.5 59q167 0 301 -101t205 -263t71 -348t-71 -348.5t-205 -263.5t-301 -101q-126 0 -235.5 59.5t-183.5 158t-116.5 227.5t-42.5 268zM135 674q0 -122 35.5 -236t99 -201.5t157.5 -140.5t204 -53q145 0 260 90 t175 233.5t60 307.5t-60 307.5t-175 233.5t-260 90q-110 0 -204 -53t-157.5 -140.5t-99 -201.5t-35.5 -236zM295 547q-2 148 51.5 273.5t151.5 199.5t217 74q114 0 182.5 -63.5t69.5 -170.5q0 -21 -2 -37h-107q-6 162 -160 162q-127 0 -209 -122t-79 -300q2 -96 46.5 -147 t127.5 -51q80 0 138 50.5t101 164.5h109q-36 -100 -69 -152t-83 -92q-104 -80 -223 -80q-120 0 -189.5 77t-72.5 214z" />
<glyph unicode="&#xaa;" horiz-adv-x="620" d="M86 623l16 98h498l-18 -98h-496zM133 977q0 100 61.5 167.5t165.5 80.5l152 20q23 3 38 28.5t15 61.5q0 32 -29 50t-81 18q-63 0 -99 -25.5t-53 -83.5h-90q26 110 91 162.5t175 52.5q91 0 142 -38t51 -107q0 -11 -4 -35l-64 -364v-15q0 -24 25 -24q1 0 33 4l-17 -90 l-12 -4q-35 -7 -45 -7q-82 0 -82 70q0 23 2 35q-57 -56 -109 -80.5t-112 -24.5q-70 0 -112 40t-42 108zM244 1008q0 -72 82 -72q73 0 129.5 43t68.5 108l15 80q-25 -22 -162 -41q-73 -10 -103 -37t-30 -81z" />
<glyph unicode="&#xab;" d="M164 473l33 189l307 251l-31 -180l-205 -166l148 -166l-33 -180zM508 473l33 189l307 251l-31 -180l-205 -166l146 -166l-31 -180z" />
<glyph unicode="&#xac;" horiz-adv-x="980" d="M125 637v119h756v-428h-119v309h-637z" />
<glyph unicode="&#xad;" horiz-adv-x="559" d="M76 475l33 184h409l-33 -184h-409z" />
<glyph unicode="&#xae;" horiz-adv-x="1236" d="M53 674q0 139 42.5 268t116.5 227.5t183.5 157.5t235.5 59q167 0 301 -101t205 -263t71 -348t-71 -348.5t-205 -263.5t-301 -101q-126 0 -235.5 59.5t-183.5 158t-116.5 227.5t-42.5 268zM135 674q0 -122 35.5 -236t99 -201.5t157.5 -140.5t204 -53q145 0 260 90 t175 233.5t60 307.5t-60 307.5t-175 233.5t-260 90q-110 0 -204 -53t-157.5 -140.5t-99 -201.5t-35.5 -236zM291 276l139 797h334q99 0 151 -41.5t54 -120.5q3 -156 -127 -241q31 -17 42 -38t13 -61q0 -17 -4 -49l-19 -141q-2 -16 -2 -37q0 -20 25 -39l-4 -20q0 -9 -8 -9 h-125v25q0 70 18 178q6 35 6 53q-2 38 -27.5 59t-72.5 21h-223l-60 -336h-110zM479 717h213q81 0 121.5 45t38.5 121q0 84 -100 84h-230z" />
<glyph unicode="&#xaf;" horiz-adv-x="559" d="M158 1284l20 117h527l-21 -117h-526z" />
<glyph unicode="&#xb0;" horiz-adv-x="671" d="M201 1075q0 145 92 255t213 110q88 0 143.5 -65t55.5 -169q0 -145 -92 -254.5t-212 -109.5q-89 0 -144.5 64.5t-55.5 168.5zM285 1100q0 -72 38 -121t93 -49q75 0 140 80t65 172q0 71 -38.5 120.5t-93.5 49.5q-75 0 -139.5 -80t-64.5 -172z" />
<glyph unicode="&#xb1;" horiz-adv-x="980" d="M125 0v119h756v-119h-756zM125 571v119h319v320h119v-320h318v-119h-318v-317h-119v317h-319z" />
<glyph unicode="&#xb2;" horiz-adv-x="559" d="M25 575q26 120 82.5 202.5t152.5 140.5l113 67q77 46 103.5 66.5t43.5 48.5q15 23 25 60.5t10 68.5q0 52 -32.5 83t-88.5 31q-72 0 -116.5 -51.5t-69.5 -161.5h-101q31 169 113.5 250.5t206.5 81.5q94 0 149.5 -61t55.5 -162q0 -111 -53.5 -188t-202.5 -160l-84 -47 q-102 -59 -160 -144h412l-23 -125h-536z" />
<glyph unicode="&#xb3;" horiz-adv-x="559" d="M70 784q0 16 4 78h114q-4 -46 -4 -57q0 -133 121 -133q86 0 137.5 56.5t51.5 150.5q0 58 -35 83t-117 25h-39l19 105h45q75 0 119 43.5t44 117.5q0 43 -29.5 66.5t-84.5 23.5q-66 0 -105 -38t-61 -125h-103q61 282 299 282q95 0 150 -48.5t55 -133.5q0 -79 -37 -139 t-102 -86q57 -23 79.5 -56.5t22.5 -93.5q0 -148 -96 -250t-235 -102q-101 0 -157 61t-56 170z" />
<glyph unicode="&#xb4;" horiz-adv-x="559" d="M350 1196l180 289h203l-270 -289h-113z" />
<glyph unicode="&#xb5;" d="M-41 -424l260 1495h148l-123 -711q-9 -63 -8 -81q0 -154 137 -154q109 0 191.5 96.5t111.5 259.5l102 590h148l-187 -1071h-139l29 166q-77 -109 -146 -153t-164 -44q-50 0 -79.5 17t-51.5 57l-82 -467h-147z" />
<glyph unicode="&#xb6;" horiz-adv-x="901" d="M129 1004q0 204 126 335t337 131h418l-320 -1824h-123l297 1702h-198l-299 -1702h-121l184 1059q-150 7 -225.5 86.5t-75.5 212.5z" />
<glyph unicode="&#xb7;" horiz-adv-x="466" d="M158 512q0 37 25.5 62.5t62.5 25.5t62.5 -25.5t25.5 -62.5t-25.5 -62.5t-62.5 -25.5t-62.5 25.5t-25.5 62.5z" />
<glyph unicode="&#xb8;" horiz-adv-x="559" d="M-78 -426l43 82q58 -31 101 -31q51 0 81.5 28.5t30.5 74.5q0 28 -19 47.5t-48 19.5q-39 0 -68 -10l-23 39l140 180h98l-80 -123h17q53 0 83.5 -36t30.5 -93q0 -94 -67.5 -158.5t-165.5 -64.5q-74 0 -154 45z" />
<glyph unicode="&#xb9;" horiz-adv-x="559" d="M197 1182l16 94q109 8 153.5 38.5t82.5 125.5h94l-152 -865h-119l107 607h-182z" />
<glyph unicode="&#xba;" horiz-adv-x="612" d="M86 623l16 98h498l-16 -98h-498zM156 1065q0 195 93.5 319.5t239.5 124.5q103 0 159.5 -61.5t56.5 -175.5q0 -191 -93 -317t-241 -126q-103 0 -159 61.5t-56 174.5zM270 1092q0 -156 119 -156q89 0 145 94.5t56 216.5q0 76 -31 116t-88 40q-59 0 -106 -45.5t-71 -116 t-24 -149.5z" />
<glyph unicode="&#xbb;" d="M119 221l31 180l206 166l-147 166l31 180l221 -251l-35 -189zM463 221l33 180l204 166l-147 166l31 180l221 -251l-33 -189z" />
<glyph unicode="&#xbc;" horiz-adv-x="1400" d="M168 -51l1001 1491h97l-1002 -1491h-96zM248 1188l14 88q109 8 153.5 38.5t82.5 125.5h90l-152 -865h-114l108 613h-182zM655 193l21 122l442 549h109l-99 -553h113l-20 -118h-113l-33 -193h-106l32 193h-346zM780 311h242l68 389z" />
<glyph unicode="&#xbd;" horiz-adv-x="1400" d="M106 -51l1004 1491h96l-1003 -1491h-97zM195 1182l16 94q110 7 153.5 37.5t81.5 126.5h95l-150 -865h-121l107 607h-182zM680 0q26 120 82 202t153 140l113 68q76 46 103.5 67t44.5 47q15 23 24.5 60.5t9.5 68.5q0 53 -32.5 84t-87.5 31q-72 0 -117 -51.5t-70 -161.5 h-100q66 332 319 332q94 0 149.5 -61t55.5 -162q0 -110 -53.5 -188t-202.5 -161l-84 -47q-100 -55 -160 -143h412l-22 -125h-537z" />
<glyph unicode="&#xbe;" horiz-adv-x="1400" d="M135 784q0 16 4 78h115q-4 -46 -4 -57q0 -133 121 -133q86 0 137 56.5t51 150.5q0 58 -34.5 83t-116.5 25h-39l18 105h45q75 0 119.5 43.5t44.5 117.5q0 43 -30 66.5t-85 23.5q-66 0 -105 -38t-61 -125h-102q61 282 299 282q96 0 150.5 -48t54.5 -134q0 -80 -36.5 -139.5 t-102.5 -85.5q56 -23 79 -56.5t23 -91.5q0 -149 -96 -251.5t-236 -102.5q-101 0 -157 61t-56 170zM266 -51l1002 1491h96l-1002 -1491h-96zM745 193l21 122l442 549h107l-96 -553h112l-20 -118h-113l-33 -193h-108l35 193h-347zM870 311h242l68 389z" />
<glyph unicode="&#xbf;" d="M14 -109q0 129 43 212.5t183 218.5q116 113 152 176.5t59 197.5h147q-29 -160 -70.5 -237t-165.5 -203q-118 -120 -145 -168q-43 -72 -43 -170q0 -86 44 -133t124 -47q110 0 178.5 79t100.5 244h147q-30 -138 -60 -207.5t-87 -129.5q-64 -67 -146.5 -104.5t-165.5 -37.5 q-135 0 -215 84t-80 225zM467 862l37 209h164l-37 -209h-164z" />
<glyph unicode="&#xc0;" horiz-adv-x="1120" d="M-59 0l710 1470h185l180 -1470h-178l-45 428h-484l-200 -428h-168zM391 604h375l-68 653zM535 1843h202l86 -248h-112z" />
<glyph unicode="&#xc1;" horiz-adv-x="1120" d="M-59 0l710 1470h185l180 -1470h-178l-45 428h-484l-200 -428h-168zM391 604h375l-68 653zM709 1595l172 248h202l-262 -248h-112z" />
<glyph unicode="&#xc2;" horiz-adv-x="1120" d="M-59 0l710 1470h185l180 -1470h-178l-45 428h-484l-200 -428h-168zM391 604h375l-68 653zM489 1597l240 248h158l153 -248h-135l-114 150l-168 -150h-134z" />
<glyph unicode="&#xc3;" horiz-adv-x="1120" d="M-59 0l710 1470h185l180 -1470h-178l-45 428h-484l-200 -428h-168zM391 604h375l-68 653zM481 1602q35 114 86.5 166.5t126.5 52.5q49 0 109 -31l35 -18q52 -27 77 -27q34 0 56 21.5t41 72.5h84q-34 -109 -87 -166t-122 -57q-33 0 -92 26l-41 19q-73 31 -97 31 q-31 0 -52.5 -20.5t-43.5 -69.5h-80z" />
<glyph unicode="&#xc4;" horiz-adv-x="1120" d="M-59 0l710 1470h185l180 -1470h-178l-45 428h-484l-200 -428h-168zM391 604h375l-68 653zM516 1622l35 197h180l-35 -197h-180zM846 1622l35 197h180l-35 -197h-180z" />
<glyph unicode="&#xc5;" horiz-adv-x="1120" d="M-59 0l710 1470h185l180 -1470h-178l-45 428h-484l-200 -428h-168zM391 604h375l-68 653zM588 1761q13 72 81 120t156 48q89 0 139 -48.5t37 -123.5q-12 -72 -79 -120t-156 -48t-139.5 48.5t-38.5 123.5zM678 1761q-6 -42 22.5 -70t77.5 -28t88 27.5t45 66.5 q7 41 -21.5 69.5t-76.5 28.5q-47 0 -87.5 -28t-47.5 -66z" />
<glyph unicode="&#xc6;" horiz-adv-x="1679" d="M-68 0l746 1470h1081l-30 -176h-656l-78 -450h598l-30 -176h-598l-86 -492h667l-30 -176h-830l74 428h-445l-206 -428h-177zM406 604h385l120 690h-161z" />
<glyph unicode="&#xc7;" horiz-adv-x="1212" d="M98 496q0 275 93 507t258.5 369t367.5 137q189 0 300.5 -116t111.5 -312q0 -30 -2 -53h-158q-11 305 -281 305q-146 0 -265.5 -107.5t-187 -293t-67.5 -410.5q0 -186 78 -285.5t225 -99.5q139 0 242.5 95t183.5 309h158q-63 -176 -117.5 -268.5t-136.5 -163.5 q-140 -121 -299 -142l-55 -86h16q53 0 84 -36t31 -93q0 -94 -68 -158.5t-166 -64.5q-73 0 -153 45l43 82q58 -31 100 -31q51 0 82 28.5t31 74.5q0 28 -19.5 47.5t-48.5 19.5q-38 0 -67 -10l-23 39l107 137q-188 12 -293 153t-105 382z" />
<glyph unicode="&#xc8;" horiz-adv-x="1120" d="M63 0l256 1470h879l-31 -176h-714l-80 -450h661l-30 -176h-662l-84 -492h727l-31 -176h-891zM549 1843h203l86 -248h-113z" />
<glyph unicode="&#xc9;" horiz-adv-x="1120" d="M63 0l256 1470h879l-31 -176h-714l-80 -450h661l-30 -176h-662l-84 -492h727l-31 -176h-891zM723 1595l172 248h203l-262 -248h-113z" />
<glyph unicode="&#xca;" horiz-adv-x="1120" d="M63 0l256 1470h879l-31 -176h-714l-80 -450h661l-30 -176h-662l-84 -492h727l-31 -176h-891zM504 1597l239 248h158l154 -248h-135l-115 150l-168 -150h-133z" />
<glyph unicode="&#xcb;" horiz-adv-x="1120" d="M63 0l256 1470h879l-31 -176h-714l-80 -450h661l-30 -176h-662l-84 -492h727l-31 -176h-891zM530 1622l35 197h180l-34 -197h-181zM860 1622l35 197h180l-35 -197h-180z" />
<glyph unicode="&#xcc;" horiz-adv-x="466" d="M72 0l256 1470h161l-256 -1470h-161zM223 1843h203l86 -248h-113z" />
<glyph unicode="&#xcd;" horiz-adv-x="466" d="M72 0l256 1470h161l-256 -1470h-161zM350 1595l172 248h203l-262 -248h-113z" />
<glyph unicode="&#xce;" horiz-adv-x="466" d="M72 0l256 1470h161l-256 -1470h-161zM154 1597l239 248h158l154 -248h-136l-114 150l-168 -150h-133z" />
<glyph unicode="&#xcf;" horiz-adv-x="466" d="M72 0l256 1470h161l-256 -1470h-161zM180 1622l35 197h180l-35 -197h-180zM510 1622l35 197h180l-35 -197h-180z" />
<glyph unicode="&#xd0;" horiz-adv-x="1212" d="M35 668l31 176h135l110 626h488q189 0 295 -134.5t106 -372.5q0 -145 -39.5 -302.5t-109.5 -295.5q-92 -180 -222.5 -272.5t-291.5 -92.5h-482l115 668h-135zM248 170h315q131 0 238.5 107.5t167 284.5t59.5 382q0 172 -72 264t-208 92h-304l-79 -456h321l-31 -176h-321z " />
<glyph unicode="&#xd1;" horiz-adv-x="1212" d="M45 0l256 1470h195l397 -1194l209 1194h158l-256 -1470h-185l-407 1194l-209 -1194h-158zM518 1602q35 114 86.5 166.5t126.5 52.5q49 0 109 -31l34 -18q52 -27 78 -27q34 0 56 21.5t41 72.5h84q-34 -109 -87 -166t-122 -57q-34 0 -93 26l-40 19q-73 31 -97 31 q-31 0 -52.5 -20.5t-43.5 -69.5h-80z" />
<glyph unicode="&#xd2;" horiz-adv-x="1306" d="M94 535q0 149 36 293.5t103 266.5t157 215.5t205 146t239 52.5q224 0 347.5 -150.5t123.5 -424.5q0 -122 -25.5 -243t-71.5 -228t-113.5 -199.5t-148 -159.5t-179 -105t-202.5 -38q-226 0 -348.5 151t-122.5 423zM264 561q0 -198 88 -311t242 -113q147 0 272 105.5 t197 284t72 384.5q0 197 -88.5 309.5t-243.5 112.5q-146 0 -270 -103.5t-196.5 -281.5t-72.5 -387zM616 1843h203l86 -248h-112z" />
<glyph unicode="&#xd3;" horiz-adv-x="1306" d="M94 535q0 149 36 293.5t103 266.5t157 215.5t205 146t239 52.5q224 0 347.5 -150.5t123.5 -424.5q0 -122 -25.5 -243t-71.5 -228t-113.5 -199.5t-148 -159.5t-179 -105t-202.5 -38q-226 0 -348.5 151t-122.5 423zM264 561q0 -198 88 -311t242 -113q147 0 272 105.5 t197 284t72 384.5q0 197 -88.5 309.5t-243.5 112.5q-146 0 -270 -103.5t-196.5 -281.5t-72.5 -387zM791 1595l172 248h202l-262 -248h-112z" />
<glyph unicode="&#xd4;" horiz-adv-x="1306" d="M94 535q0 149 36 293.5t103 266.5t157 215.5t205 146t239 52.5q224 0 347.5 -150.5t123.5 -424.5q0 -122 -25.5 -243t-71.5 -228t-113.5 -199.5t-148 -159.5t-179 -105t-202.5 -38q-226 0 -348.5 151t-122.5 423zM264 561q0 -198 88 -311t242 -113q147 0 272 105.5 t197 284t72 384.5q0 197 -88.5 309.5t-243.5 112.5q-146 0 -270 -103.5t-196.5 -281.5t-72.5 -387zM571 1597l240 248h158l153 -248h-135l-115 150l-167 -150h-134z" />
<glyph unicode="&#xd5;" horiz-adv-x="1306" d="M94 535q0 149 36 293.5t103 266.5t157 215.5t205 146t239 52.5q224 0 347.5 -150.5t123.5 -424.5q0 -122 -25.5 -243t-71.5 -228t-113.5 -199.5t-148 -159.5t-179 -105t-202.5 -38q-226 0 -348.5 151t-122.5 423zM264 561q0 -198 88 -311t242 -113q147 0 272 105.5 t197 284t72 384.5q0 197 -88.5 309.5t-243.5 112.5q-146 0 -270 -103.5t-196.5 -281.5t-72.5 -387zM563 1602q35 114 86.5 166.5t126.5 52.5q49 0 109 -31l35 -18q52 -27 77 -27q34 0 56 21.5t41 72.5h84q-34 -109 -87 -166t-122 -57q-33 0 -92 26l-41 19q-73 31 -97 31 q-31 0 -52.5 -20.5t-43.5 -69.5h-80z" />
<glyph unicode="&#xd6;" horiz-adv-x="1306" d="M94 535q0 149 36 293.5t103 266.5t157 215.5t205 146t239 52.5q224 0 347.5 -150.5t123.5 -424.5q0 -122 -25.5 -243t-71.5 -228t-113.5 -199.5t-148 -159.5t-179 -105t-202.5 -38q-226 0 -348.5 151t-122.5 423zM264 561q0 -198 88 -311t242 -113q147 0 272 105.5 t197 284t72 384.5q0 197 -88.5 309.5t-243.5 112.5q-146 0 -270 -103.5t-196.5 -281.5t-72.5 -387zM598 1622l35 197h180l-35 -197h-180zM928 1622l35 197h180l-35 -197h-180z" />
<glyph unicode="&#xd7;" horiz-adv-x="980" d="M195 287l225 227l-225 225l84 84l225 -225l225 223l84 -84l-225 -223l225 -225l-84 -84l-225 223l-225 -225z" />
<glyph unicode="&#xd8;" horiz-adv-x="1306" d="M-10 18l172 185q-38 93 -53 165.5t-15 170.5q0 145 35.5 287.5t102.5 264.5t157 216.5t206.5 148t242.5 53.5q123 0 209.5 -42.5t156.5 -139.5l168 182l41 -61l-172 -186q37 -92 50.5 -162.5t13.5 -167.5q0 -145 -35.5 -287.5t-102.5 -265t-156.5 -216.5t-205.5 -148 t-242 -54q-122 0 -208 41.5t-156 136.5l-166 -178zM264 565q0 -107 33 -215l774 834q-51 78 -114 113.5t-152 35.5q-111 0 -212 -63.5t-172.5 -169t-114 -246t-42.5 -289.5zM332 283q51 -77 113 -111.5t149 -34.5q111 0 212 64t172.5 169.5t114 246.5t42.5 290 q0 102 -33 205z" />
<glyph unicode="&#xd9;" horiz-adv-x="1212" d="M125 360q0 75 10 129l172 981h162l-160 -925q-12 -65 -12 -131q0 -134 64.5 -205.5t185.5 -71.5q150 0 249.5 105.5t133.5 298.5l164 929h161l-165 -954q-44 -254 -201.5 -404.5t-378.5 -150.5q-184 0 -284.5 104t-100.5 295zM571 1843h203l86 -248h-112z" />
<glyph unicode="&#xda;" horiz-adv-x="1212" d="M125 360q0 75 10 129l172 981h162l-160 -925q-12 -65 -12 -131q0 -134 64.5 -205.5t185.5 -71.5q150 0 249.5 105.5t133.5 298.5l164 929h161l-165 -954q-44 -254 -201.5 -404.5t-378.5 -150.5q-184 0 -284.5 104t-100.5 295zM745 1595l173 248h202l-262 -248h-113z" />
<glyph unicode="&#xdb;" horiz-adv-x="1212" d="M125 360q0 75 10 129l172 981h162l-160 -925q-12 -65 -12 -131q0 -134 64.5 -205.5t185.5 -71.5q150 0 249.5 105.5t133.5 298.5l164 929h161l-165 -954q-44 -254 -201.5 -404.5t-378.5 -150.5q-184 0 -284.5 104t-100.5 295zM526 1597l240 248h158l153 -248h-135 l-115 150l-168 -150h-133z" />
<glyph unicode="&#xdc;" horiz-adv-x="1212" d="M125 360q0 75 10 129l172 981h162l-160 -925q-12 -65 -12 -131q0 -134 64.5 -205.5t185.5 -71.5q150 0 249.5 105.5t133.5 298.5l164 929h161l-165 -954q-44 -254 -201.5 -404.5t-378.5 -150.5q-184 0 -284.5 104t-100.5 295zM553 1622l35 197h180l-35 -197h-180z M883 1622l35 197h180l-35 -197h-180z" />
<glyph unicode="&#xdd;" horiz-adv-x="1120" d="M199 1470h190l221 -706l471 706h191l-608 -878l-103 -592h-164l103 592zM700 1595l172 248h203l-262 -248h-113z" />
<glyph unicode="&#xde;" horiz-adv-x="1120" d="M63 0l256 1470h164l-43 -243h379q137 0 216 -85t79 -231q0 -138 -56 -260t-159 -198t-227 -76h-379l-66 -377h-164zM322 547h323q144 0 221.5 91t77.5 243q0 176 -203 176h-329z" />
<glyph unicode="&#xdf;" horiz-adv-x="1026" d="M31 0l190 1090q32 186 154.5 293.5t302.5 107.5q161 0 252.5 -78.5t91.5 -216.5q0 -240 -197 -377q68 -31 105 -100.5t37 -165.5q0 -107 -37.5 -211t-103 -187t-164.5 -134.5t-213 -51.5q-39 0 -82 13l-7 2l29 153q38 -6 74 -6q159 0 252.5 108t93.5 281q0 205 -246 205 q-38 0 -65 -8l28 162q25 -5 45 -5q133 0 215 77t82 202q0 88 -57.5 135t-163.5 47q-123 0 -192 -69.5t-95 -221.5l-182 -1044h-147z" />
<glyph unicode="&#xe0;" d="M20 207q0 161 91.5 273t240.5 134l250 37q49 7 76 51.5t27 116.5q0 65 -45.5 99t-131.5 34q-97 0 -151.5 -46.5t-89.5 -160.5h-135q41 182 143 269.5t270 87.5q136 0 213.5 -63t77.5 -173q0 -33 -6 -63l-111 -639q0 -41 39 -41q17 0 53 8l-24 -131l-19 -6 q-38 -14 -69 -14q-62 0 -94.5 29.5t-32.5 84.5q0 13 4 49q-88 -92 -168 -133t-174 -41q-109 0 -171.5 64t-62.5 174zM178 248q0 -63 33 -96t96 -33q112 0 206.5 74.5t113.5 177.5l30 176q-26 -21 -73 -33.5t-183 -34.5q-117 -20 -170 -75t-53 -156zM356 1485h203l80 -289 h-113z" />
<glyph unicode="&#xe1;" d="M20 207q0 161 91.5 273t240.5 134l250 37q49 7 76 51.5t27 116.5q0 65 -45.5 99t-131.5 34q-97 0 -151.5 -46.5t-89.5 -160.5h-135q41 182 143 269.5t270 87.5q136 0 213.5 -63t77.5 -173q0 -33 -6 -63l-111 -639q0 -41 39 -41q17 0 53 8l-24 -131l-19 -6 q-38 -14 -69 -14q-62 0 -94.5 29.5t-32.5 84.5q0 13 4 49q-88 -92 -168 -133t-174 -41q-109 0 -171.5 64t-62.5 174zM178 248q0 -63 33 -96t96 -33q112 0 206.5 74.5t113.5 177.5l30 176q-26 -21 -73 -33.5t-183 -34.5q-117 -20 -170 -75t-53 -156zM524 1196l181 289h202 l-270 -289h-113z" />
<glyph unicode="&#xe2;" d="M20 207q0 161 91.5 273t240.5 134l250 37q49 7 76 51.5t27 116.5q0 65 -45.5 99t-131.5 34q-97 0 -151.5 -46.5t-89.5 -160.5h-135q41 182 143 269.5t270 87.5q136 0 213.5 -63t77.5 -173q0 -33 -6 -63l-111 -639q0 -41 39 -41q17 0 53 8l-24 -131l-19 -6 q-38 -14 -69 -14q-62 0 -94.5 29.5t-32.5 84.5q0 13 4 49q-88 -92 -168 -133t-174 -41q-109 0 -171.5 64t-62.5 174zM178 248q0 -63 33 -96t96 -33q112 0 206.5 74.5t113.5 177.5l30 176q-26 -21 -73 -33.5t-183 -34.5q-117 -20 -170 -75t-53 -156zM338 1198l217 289h156 l114 -289h-133l-78 191l-143 -191h-133z" />
<glyph unicode="&#xe3;" d="M20 207q0 161 91.5 273t240.5 134l250 37q49 7 76 51.5t27 116.5q0 65 -45.5 99t-131.5 34q-97 0 -151.5 -46.5t-89.5 -160.5h-135q41 182 143 269.5t270 87.5q136 0 213.5 -63t77.5 -173q0 -33 -6 -63l-111 -639q0 -41 39 -41q17 0 53 8l-24 -131l-19 -6 q-38 -14 -69 -14q-62 0 -94.5 29.5t-32.5 84.5q0 13 4 49q-88 -92 -168 -133t-174 -41q-109 0 -171.5 64t-62.5 174zM178 248q0 -63 33 -96t96 -33q112 0 206.5 74.5t113.5 177.5l30 176q-26 -21 -73 -33.5t-183 -34.5q-117 -20 -170 -75t-53 -156zM297 1223 q35 114 86.5 166.5t126.5 52.5q48 0 108 -31l35 -18q52 -27 78 -27q34 0 55.5 21.5t40.5 72.5h84q-34 -109 -87 -166t-122 -57q-30 0 -92 27l-41 18q-73 31 -96 31q-31 0 -52.5 -20.5t-43.5 -69.5h-80z" />
<glyph unicode="&#xe4;" d="M20 207q0 161 91.5 273t240.5 134l250 37q49 7 76 51.5t27 116.5q0 65 -45.5 99t-131.5 34q-97 0 -151.5 -46.5t-89.5 -160.5h-135q41 182 143 269.5t270 87.5q136 0 213.5 -63t77.5 -173q0 -33 -6 -63l-111 -639q0 -41 39 -41q17 0 53 8l-24 -131l-19 -6 q-38 -14 -69 -14q-62 0 -94.5 29.5t-32.5 84.5q0 13 4 49q-88 -92 -168 -133t-174 -41q-109 0 -171.5 64t-62.5 174zM178 248q0 -63 33 -96t96 -33q112 0 206.5 74.5t113.5 177.5l30 176q-26 -21 -73 -33.5t-183 -34.5q-117 -20 -170 -75t-53 -156zM334 1243l35 197h180 l-35 -197h-180zM664 1243l34 197h181l-35 -197h-180z" />
<glyph unicode="&#xe5;" d="M20 207q0 161 91.5 273t240.5 134l250 37q49 7 76 51.5t27 116.5q0 65 -45.5 99t-131.5 34q-97 0 -151.5 -46.5t-89.5 -160.5h-135q41 182 143 269.5t270 87.5q136 0 213.5 -63t77.5 -173q0 -33 -6 -63l-111 -639q0 -41 39 -41q17 0 53 8l-24 -131l-19 -6 q-38 -14 -69 -14q-62 0 -94.5 29.5t-32.5 84.5q0 13 4 49q-88 -92 -168 -133t-174 -41q-109 0 -171.5 64t-62.5 174zM178 248q0 -63 33 -96t96 -33q112 0 206.5 74.5t113.5 177.5l30 176q-26 -21 -73 -33.5t-183 -34.5q-117 -20 -170 -75t-53 -156zM399 1343q12 72 80 120 t156 48q90 0 140 -48.5t38 -123.5q-12 -72 -79.5 -120t-158.5 -48q-89 0 -139 48.5t-37 123.5zM489 1343q-7 -41 22 -69.5t79 -28.5q49 0 88 27.5t45 66.5q8 41 -21.5 70t-78.5 29q-47 0 -87.5 -28.5t-46.5 -66.5z" />
<glyph unicode="&#xe6;" horiz-adv-x="1492" d="M20 207q0 161 91.5 273t240.5 134l250 37q49 7 76 51.5t27 116.5q0 65 -45.5 99t-131.5 34q-96 0 -151 -47t-90 -160h-135q42 187 146 272t280 85q97 0 151 -32t107 -120q86 86 153.5 119t159.5 33q77 0 135.5 -30t93 -83.5t51.5 -119.5t17 -144q0 -84 -23 -248h-641 q-12 -76 -12 -127q0 -104 53.5 -164.5t145.5 -60.5q91 0 166.5 59.5t103.5 151.5h147q-59 -174 -177 -270.5t-273 -96.5q-120 0 -188 52t-103 172q-92 -120 -181.5 -172t-203.5 -52q-113 0 -176.5 63t-63.5 175zM178 250q0 -131 129 -131q112 0 206.5 74.5t113.5 177.5 l30 176q-25 -22 -69.5 -33.5t-186.5 -34.5q-116 -19 -169.5 -74.5t-53.5 -154.5zM807 621h489q4 74 4 96q0 103 -50 163t-136 60q-106 0 -191 -88.5t-116 -230.5z" />
<glyph unicode="&#xe7;" horiz-adv-x="839" d="M43 352q0 195 67.5 366t192 277.5t277.5 106.5q125 0 196.5 -81t71.5 -222q0 -18 -4 -88h-144q-3 125 -41 177t-127 52q-96 0 -172.5 -82t-116.5 -211.5t-40 -277.5q0 -119 46 -181.5t134 -62.5q169 0 260 254h143q-111 -364 -362 -404l-62 -94h17q53 0 84 -36t31 -93 q0 -94 -68 -158.5t-166 -64.5q-74 0 -154 45l44 82q58 -31 100 -31q51 0 81.5 28.5t30.5 74.5q0 28 -19 47.5t-48 19.5q-39 0 -68 -10l-22 39l114 147q-130 14 -203 114t-73 267z" />
<glyph unicode="&#xe8;" d="M59 352q0 195 67.5 366t191 277.5t274.5 106.5q78 0 136.5 -30t93 -83.5t51 -119.5t16.5 -144q0 -84 -23 -248h-641q-12 -77 -12 -127q0 -104 53.5 -164.5t147.5 -60.5q89 0 164.5 59.5t103.5 151.5h147q-59 -173 -176.5 -270t-271.5 -97t-238 100t-84 283zM250 621h489 q4 74 4 96q0 103 -50 163t-136 60q-106 0 -190.5 -88t-116.5 -231zM369 1485h202l80 -289h-112z" />
<glyph unicode="&#xe9;" d="M59 352q0 195 67.5 366t191 277.5t274.5 106.5q78 0 136.5 -30t93 -83.5t51 -119.5t16.5 -144q0 -84 -23 -248h-641q-12 -77 -12 -127q0 -104 53.5 -164.5t147.5 -60.5q89 0 164.5 59.5t103.5 151.5h147q-59 -173 -176.5 -270t-271.5 -97t-238 100t-84 283zM250 621h489 q4 74 4 96q0 103 -50 163t-136 60q-106 0 -190.5 -88t-116.5 -231zM537 1196l180 289h203l-271 -289h-112z" />
<glyph unicode="&#xea;" d="M59 352q0 195 67.5 366t191 277.5t274.5 106.5q78 0 136.5 -30t93 -83.5t51 -119.5t16.5 -144q0 -84 -23 -248h-641q-12 -77 -12 -127q0 -104 53.5 -164.5t147.5 -60.5q89 0 164.5 59.5t103.5 151.5h147q-59 -173 -176.5 -270t-271.5 -97t-238 100t-84 283zM250 621h489 q4 74 4 96q0 103 -50 163t-136 60q-106 0 -190.5 -88t-116.5 -231zM350 1198l217 289h156l115 -289h-133l-78 191l-144 -191h-133z" />
<glyph unicode="&#xeb;" d="M59 352q0 195 67.5 366t191 277.5t274.5 106.5q78 0 136.5 -30t93 -83.5t51 -119.5t16.5 -144q0 -84 -23 -248h-641q-12 -77 -12 -127q0 -104 53.5 -164.5t147.5 -60.5q89 0 164.5 59.5t103.5 151.5h147q-59 -173 -176.5 -270t-271.5 -97t-238 100t-84 283zM250 621h489 q4 74 4 96q0 103 -50 163t-136 60q-106 0 -190.5 -88t-116.5 -231zM346 1243l35 197h180l-35 -197h-180zM676 1243l35 197h180l-35 -197h-180z" />
<glyph unicode="&#xec;" horiz-adv-x="466" d="M78 0l186 1071h148l-187 -1071h-147zM152 1485h202l80 -289h-112z" />
<glyph unicode="&#xed;" horiz-adv-x="466" d="M78 0l186 1071h148l-187 -1071h-147zM287 1196l180 289h203l-271 -289h-112z" />
<glyph unicode="&#xee;" horiz-adv-x="466" d="M78 0l186 1071h148l-187 -1071h-147zM117 1198l217 289h155l115 -289h-133l-78 191l-143 -191h-133z" />
<glyph unicode="&#xef;" horiz-adv-x="466" d="M78 0l186 1071h148l-187 -1071h-147zM113 1243l34 197h181l-35 -197h-180zM442 1243l35 197h180l-34 -197h-181z" />
<glyph unicode="&#xf0;" d="M55 377q0 170 66.5 330t182.5 262t249 102q70 0 116 -27.5t89 -95.5q-25 168 -137 305l-232 -127l-55 86l219 117q-61 67 -131 107l137 73q82 -46 135 -104l195 104l65 -82l-198 -104q89 -138 125.5 -256.5t36.5 -269.5q0 -217 -70.5 -407.5t-194 -305.5t-268.5 -115 q-152 0 -241 110t-89 298zM211 410q0 -138 51 -211.5t146 -73.5q90 0 168 76t121.5 192.5t43.5 237.5q0 138 -50.5 211t-145.5 73q-90 0 -168.5 -76t-122 -192t-43.5 -237z" />
<glyph unicode="&#xf1;" d="M27 0l186 1071h139l-26 -158q77 100 150 144.5t163 44.5q114 0 178 -69.5t64 -192.5q0 -40 -11 -111l-127 -729h-147l115 659q10 68 10 123q0 158 -141 158q-112 0 -193.5 -95t-110.5 -261l-102 -584h-147zM309 1223q35 114 86.5 166.5t126.5 52.5q49 0 109 -31l35 -18 q52 -27 77 -27q34 0 56 21.5t41 72.5h84q-34 -109 -87 -166t-122 -57q-31 0 -92 27l-41 18q-73 31 -97 31q-31 0 -52.5 -20.5t-43.5 -69.5h-80z" />
<glyph unicode="&#xf2;" d="M57 387q0 134 40.5 264t109.5 229.5t166.5 160.5t204.5 61q151 0 236 -110t85 -304q0 -135 -40.5 -265t-108.5 -229.5t-166 -161t-205 -61.5q-151 0 -236.5 110.5t-85.5 305.5zM211 406q0 -135 51 -207t146 -72q94 0 172.5 79.5t121.5 202.5t43 257q0 135 -50.5 207.5 t-145.5 72.5q-94 0 -173 -79t-122 -202.5t-43 -258.5zM369 1485h202l80 -289h-112z" />
<glyph unicode="&#xf3;" d="M57 387q0 134 40.5 264t109.5 229.5t166.5 160.5t204.5 61q151 0 236 -110t85 -304q0 -135 -40.5 -265t-108.5 -229.5t-166 -161t-205 -61.5q-151 0 -236.5 110.5t-85.5 305.5zM211 406q0 -135 51 -207t146 -72q94 0 172.5 79.5t121.5 202.5t43 257q0 135 -50.5 207.5 t-145.5 72.5q-94 0 -173 -79t-122 -202.5t-43 -258.5zM537 1196l180 289h203l-271 -289h-112z" />
<glyph unicode="&#xf4;" d="M57 387q0 134 40.5 264t109.5 229.5t166.5 160.5t204.5 61q151 0 236 -110t85 -304q0 -135 -40.5 -265t-108.5 -229.5t-166 -161t-205 -61.5q-151 0 -236.5 110.5t-85.5 305.5zM211 406q0 -135 51 -207t146 -72q94 0 172.5 79.5t121.5 202.5t43 257q0 135 -50.5 207.5 t-145.5 72.5q-94 0 -173 -79t-122 -202.5t-43 -258.5zM350 1198l217 289h156l115 -289h-133l-78 191l-144 -191h-133z" />
<glyph unicode="&#xf5;" d="M57 387q0 134 40.5 264t109.5 229.5t166.5 160.5t204.5 61q151 0 236 -110t85 -304q0 -135 -40.5 -265t-108.5 -229.5t-166 -161t-205 -61.5q-151 0 -236.5 110.5t-85.5 305.5zM211 406q0 -135 51 -207t146 -72q94 0 172.5 79.5t121.5 202.5t43 257q0 135 -50.5 207.5 t-145.5 72.5q-94 0 -173 -79t-122 -202.5t-43 -258.5zM309 1223q35 114 86.5 166.5t126.5 52.5q49 0 109 -31l35 -18q52 -27 77 -27q34 0 56 21.5t41 72.5h84q-34 -109 -87 -166t-122 -57q-31 0 -92 27l-41 18q-73 31 -97 31q-31 0 -52.5 -20.5t-43.5 -69.5h-80z" />
<glyph unicode="&#xf6;" d="M57 387q0 134 40.5 264t109.5 229.5t166.5 160.5t204.5 61q151 0 236 -110t85 -304q0 -135 -40.5 -265t-108.5 -229.5t-166 -161t-205 -61.5q-151 0 -236.5 110.5t-85.5 305.5zM211 406q0 -135 51 -207t146 -72q94 0 172.5 79.5t121.5 202.5t43 257q0 135 -50.5 207.5 t-145.5 72.5q-94 0 -173 -79t-122 -202.5t-43 -258.5zM346 1243l35 197h180l-35 -197h-180zM676 1243l35 197h180l-35 -197h-180z" />
<glyph unicode="&#xf7;" horiz-adv-x="980" d="M125 453v118h756v-118h-756zM416 145q0 36 26 62t62 26q35 0 61.5 -26.5t26.5 -61.5q0 -36 -26 -62t-62 -26q-37 0 -62.5 25.5t-25.5 62.5zM416 881q0 36 26 62t62 26q35 0 61.5 -26.5t26.5 -61.5q0 -36 -26 -62t-62 -26q-37 0 -62.5 25.5t-25.5 62.5z" />
<glyph unicode="&#xf8;" horiz-adv-x="1026" d="M-33 8l133 148q-25 64 -34 113.5t-9 117.5q0 134 41 263.5t109.5 229t167 161t205.5 61.5q83 0 141 -31t108 -102l134 147l43 -53l-144 -160q39 -110 39 -217q0 -180 -68 -344.5t-189.5 -267.5t-264.5 -103q-80 0 -138.5 29.5t-105.5 93.5l-125 -139zM213 403 q0 -49 10 -110l492 547q-29 57 -67.5 81.5t-96.5 24.5q-89 0 -167 -72.5t-124.5 -198.5t-46.5 -272zM250 221q50 -94 158 -94q88 0 166.5 72t126 197.5t47.5 271.5q0 34 -11 96z" />
<glyph unicode="&#xf9;" d="M76 211q0 49 8 90l133 770h150l-125 -711q-6 -41 -6 -81q0 -75 35 -114.5t102 -39.5q110 0 192 96t111 260l102 590h148l-187 -1071h-139l29 166q-78 -110 -146.5 -153.5t-165.5 -43.5q-115 0 -178 63t-63 179zM369 1485h202l80 -289h-112z" />
<glyph unicode="&#xfa;" d="M76 211q0 49 8 90l133 770h150l-125 -711q-6 -41 -6 -81q0 -75 35 -114.5t102 -39.5q110 0 192 96t111 260l102 590h148l-187 -1071h-139l29 166q-78 -110 -146.5 -153.5t-165.5 -43.5q-115 0 -178 63t-63 179zM537 1196l180 289h203l-271 -289h-112z" />
<glyph unicode="&#xfb;" d="M76 211q0 49 8 90l133 770h150l-125 -711q-6 -41 -6 -81q0 -75 35 -114.5t102 -39.5q110 0 192 96t111 260l102 590h148l-187 -1071h-139l29 166q-78 -110 -146.5 -153.5t-165.5 -43.5q-115 0 -178 63t-63 179zM350 1198l217 289h156l115 -289h-133l-78 191l-144 -191 h-133z" />
<glyph unicode="&#xfc;" d="M76 211q0 49 8 90l133 770h150l-125 -711q-6 -41 -6 -81q0 -75 35 -114.5t102 -39.5q110 0 192 96t111 260l102 590h148l-187 -1071h-139l29 166q-78 -110 -146.5 -153.5t-165.5 -43.5q-115 0 -178 63t-63 179zM346 1243l35 197h180l-35 -197h-180zM676 1243l35 197h180 l-35 -197h-180z" />
<glyph unicode="&#xfd;" horiz-adv-x="839" d="M-57 -422l28 164q43 -18 86 -18q47 0 74.5 27t69.5 110l55 110l-133 1100h168l82 -878l389 878h164l-500 -1051q-56 -115 -90 -181t-70 -123.5t-58.5 -83t-55.5 -44t-62 -22.5t-76 -4q-27 0 -59 12zM489 1196l181 289h202l-270 -289h-113z" />
<glyph unicode="&#xfe;" d="M-59 -424l329 1894h150l-96 -552q71 100 137 142t153 42q132 0 208.5 -100.5t76.5 -274.5q0 -137 -37.5 -273t-102 -243.5t-160 -174.5t-202.5 -67q-82 0 -133 36t-80 114l-96 -543h-147zM231 365q0 -109 51.5 -174.5t137.5 -65.5q90 0 165.5 83t117.5 217.5t42 287.5 q0 109 -48 168t-138 59q-63 0 -118 -37t-92.5 -96.5t-64.5 -135.5t-40 -154t-13 -152z" />
<glyph unicode="&#xff;" horiz-adv-x="839" d="M-57 -422l28 164q43 -18 86 -18q47 0 74.5 27t69.5 110l55 110l-133 1100h168l82 -878l389 878h164l-500 -1051q-56 -115 -90 -181t-70 -123.5t-58.5 -83t-55.5 -44t-62 -22.5t-76 -4q-27 0 -59 12zM299 1243l35 197h180l-35 -197h-180zM629 1243l35 197h180l-35 -197 h-180z" />
<glyph unicode="&#x100;" horiz-adv-x="1120" d="M-59 0l710 1470h185l180 -1470h-178l-45 428h-484l-200 -428h-168zM391 604h375l-68 653zM514 1663l21 117h526l-21 -117h-526z" />
<glyph unicode="&#x101;" d="M20 207q0 161 91.5 273t240.5 134l250 37q49 7 76 51.5t27 116.5q0 65 -45.5 99t-131.5 34q-97 0 -151.5 -46.5t-89.5 -160.5h-135q41 182 143 269.5t270 87.5q136 0 213.5 -63t77.5 -173q0 -33 -6 -63l-111 -639q0 -41 39 -41q17 0 53 8l-24 -131l-19 -6 q-38 -14 -69 -14q-62 0 -94.5 29.5t-32.5 84.5q0 13 4 49q-88 -92 -168 -133t-174 -41q-109 0 -171.5 64t-62.5 174zM178 248q0 -63 33 -96t96 -33q112 0 206.5 74.5t113.5 177.5l30 176q-26 -21 -73 -33.5t-183 -34.5q-117 -20 -170 -75t-53 -156zM332 1284l20 117h527 l-21 -117h-526z" />
<glyph unicode="&#x102;" horiz-adv-x="1120" d="M-59 0l710 1470h185l180 -1470h-178l-45 428h-484l-200 -428h-168zM391 604h375l-68 653zM528 1839h82l2 -14q32 -52 72 -79.5t107 -27.5q72 0 115 29t79 92h100q-56 -119 -132.5 -178t-192.5 -59q-112 0 -166.5 59.5t-65.5 177.5z" />
<glyph unicode="&#x103;" d="M20 207q0 161 91.5 273t240.5 134l250 37q49 7 76 51.5t27 116.5q0 65 -45.5 99t-131.5 34q-97 0 -151.5 -46.5t-89.5 -160.5h-135q41 182 143 269.5t270 87.5q136 0 213.5 -63t77.5 -173q0 -33 -6 -63l-111 -639q0 -41 39 -41q17 0 53 8l-24 -131l-19 -6 q-38 -14 -69 -14q-62 0 -94.5 29.5t-32.5 84.5q0 13 4 49q-88 -92 -168 -133t-174 -41q-109 0 -171.5 64t-62.5 174zM178 248q0 -63 33 -96t96 -33q112 0 206.5 74.5t113.5 177.5l30 176q-26 -21 -73 -33.5t-183 -34.5q-117 -20 -170 -75t-53 -156zM371 1421l2 60h82 q8 -85 43.5 -123.5t109.5 -38.5q75 0 120 36t83 126h80q-44 -146 -119.5 -212.5t-193.5 -66.5q-100 0 -155.5 57t-51.5 162z" />
<glyph unicode="&#x104;" horiz-adv-x="1120" d="M-59 0l710 1470h185l180 -1470q-106 -27 -178 -125q-39 -53 -39 -111q0 -86 94 -86h63l-22 -149h-72q-92 0 -156.5 46t-64.5 122q0 89 45 160q58 92 152 143l-45 428h-484l-200 -428h-168zM391 604h375l-68 653z" />
<glyph unicode="&#x105;" d="M20 207q0 161 91.5 273t240.5 134l250 37q49 7 76 51.5t27 116.5q0 65 -45.5 99t-131.5 34q-97 0 -151.5 -46.5t-89.5 -160.5h-135q41 182 143 269.5t270 87.5q136 0 213.5 -63t77.5 -173q0 -33 -6 -63l-111 -639q0 -41 39 -41q17 0 53 8l-24 -131l-19 -6 q-99 -37 -157 -119q-39 -53 -39 -111q0 -86 94 -86h64l-23 -149h-72q-92 0 -156.5 46t-64.5 122q0 87 43 160q56 89 148 153q-33 30 -33 84q0 13 4 49q-88 -92 -168 -133t-174 -41q-109 0 -171.5 64t-62.5 174zM178 248q0 -63 33 -96t96 -33q112 0 206.5 74.5t113.5 177.5 l30 176q-26 -21 -73 -33.5t-183 -34.5q-117 -20 -170 -75t-53 -156z" />
<glyph unicode="&#x106;" horiz-adv-x="1212" d="M98 496q0 275 93 507t258.5 369t367.5 137q189 0 300.5 -116t111.5 -312q0 -30 -2 -53h-158q-11 305 -281 305q-146 0 -265.5 -107.5t-187 -293t-67.5 -410.5q0 -186 78 -285.5t225 -99.5q139 0 242.5 95t183.5 309h158q-63 -176 -117.5 -268.5t-136.5 -163.5 q-171 -148 -375 -148q-201 0 -314.5 142t-113.5 393zM774 1595l172 248h203l-262 -248h-113z" />
<glyph unicode="&#x107;" horiz-adv-x="839" d="M43 352q0 195 67.5 366t192 277.5t277.5 106.5q125 0 196.5 -81t71.5 -222q0 -18 -4 -88h-144q-3 125 -41 177t-127 52q-96 0 -172.5 -82t-116.5 -211.5t-40 -277.5q0 -119 46 -181.5t134 -62.5q169 0 260 254h143q-127 -410 -430 -410q-146 0 -229.5 101.5t-83.5 281.5z M489 1196l181 289h202l-270 -289h-113z" />
<glyph unicode="&#x108;" horiz-adv-x="1212" d="M98 496q0 275 93 507t258.5 369t367.5 137q189 0 300.5 -116t111.5 -312q0 -30 -2 -53h-158q-11 305 -281 305q-146 0 -265.5 -107.5t-187 -293t-67.5 -410.5q0 -186 78 -285.5t225 -99.5q139 0 242.5 95t183.5 309h158q-63 -176 -117.5 -268.5t-136.5 -163.5 q-171 -148 -375 -148q-201 0 -314.5 142t-113.5 393zM555 1597l240 248h157l154 -248h-135l-115 150l-168 -150h-133z" />
<glyph unicode="&#x109;" horiz-adv-x="839" d="M43 352q0 195 67.5 366t192 277.5t277.5 106.5q125 0 196.5 -81t71.5 -222q0 -18 -4 -88h-144q-3 125 -41 177t-127 52q-96 0 -172.5 -82t-116.5 -211.5t-40 -277.5q0 -119 46 -181.5t134 -62.5q169 0 260 254h143q-127 -410 -430 -410q-146 0 -229.5 101.5t-83.5 281.5z M303 1198l217 289h156l115 -289h-134l-77 191l-144 -191h-133z" />
<glyph unicode="&#x10a;" horiz-adv-x="1212" d="M98 496q0 275 93 507t258.5 369t367.5 137q189 0 300.5 -116t111.5 -312q0 -30 -2 -53h-158q-11 305 -281 305q-146 0 -265.5 -107.5t-187 -293t-67.5 -410.5q0 -186 78 -285.5t225 -99.5q139 0 242.5 95t183.5 309h158q-63 -176 -117.5 -268.5t-136.5 -163.5 q-171 -148 -375 -148q-201 0 -314.5 142t-113.5 393zM750 1622l34 197h177l-35 -197h-176z" />
<glyph unicode="&#x10b;" horiz-adv-x="839" d="M43 352q0 195 67.5 366t192 277.5t277.5 106.5q125 0 196.5 -81t71.5 -222q0 -18 -4 -88h-144q-3 125 -41 177t-127 52q-96 0 -172.5 -82t-116.5 -211.5t-40 -277.5q0 -119 46 -181.5t134 -62.5q169 0 260 254h143q-127 -410 -430 -410q-146 0 -229.5 101.5t-83.5 281.5z M467 1243l35 197h176l-35 -197h-176z" />
<glyph unicode="&#x10c;" horiz-adv-x="1212" d="M98 496q0 275 93 507t258.5 369t367.5 137q189 0 300.5 -116t111.5 -312q0 -30 -2 -53h-158q-11 305 -281 305q-146 0 -265.5 -107.5t-187 -293t-67.5 -410.5q0 -186 78 -285.5t225 -99.5q139 0 242.5 95t183.5 309h158q-63 -176 -117.5 -268.5t-136.5 -163.5 q-171 -148 -375 -148q-201 0 -314.5 142t-113.5 393zM600 1845h135l115 -149l168 149h133l-240 -248h-157z" />
<glyph unicode="&#x10d;" horiz-adv-x="839" d="M43 352q0 195 67.5 366t192 277.5t277.5 106.5q125 0 196.5 -81t71.5 -222q0 -18 -4 -88h-144q-3 125 -41 177t-127 52q-96 0 -172.5 -82t-116.5 -211.5t-40 -277.5q0 -119 46 -181.5t134 -62.5q169 0 260 254h143q-127 -410 -430 -410q-146 0 -229.5 101.5t-83.5 281.5z M352 1487h133l78 -191l144 191h133l-217 -289h-156z" />
<glyph unicode="&#x10e;" horiz-adv-x="1212" d="M53 0l256 1470h490q189 0 295 -133.5t106 -369.5q0 -182 -49.5 -356.5t-135.5 -310t-211.5 -218t-266.5 -82.5h-484zM246 170h315q132 0 241 107.5t168.5 284.5t59.5 382q0 172 -73 264t-209 92h-306zM567 1845h135l115 -149l168 149h133l-239 -248h-158z" />
<glyph unicode="&#x10f;" d="M59 379q0 198 62.5 364t171.5 262.5t239 96.5q90 0 145 -45.5t89 -147.5l98 561h148l-256 -1470h-140l27 154q-66 -100 -132 -142.5t-155 -42.5q-142 0 -219.5 106.5t-77.5 303.5zM211 381q0 -122 45.5 -189t128.5 -67q139 0 232.5 155t93.5 404q0 256 -181 256 q-78 0 -140.5 -48.5t-100.5 -129.5t-58 -178.5t-20 -202.5zM1044 1008l15 79q86 9 110 177h-82l37 206h158l-33 -192q-22 -123 -76 -193.5t-129 -76.5z" />
<glyph unicode="&#x110;" horiz-adv-x="1212" d="M35 668l31 176h135l110 626h488q189 0 295 -134.5t106 -372.5q0 -145 -39.5 -302.5t-109.5 -295.5q-92 -180 -222.5 -272.5t-291.5 -92.5h-482l115 668h-135zM248 170h315q131 0 238.5 107.5t167 284.5t59.5 382q0 172 -72 264t-208 92h-304l-79 -456h321l-31 -176h-321z " />
<glyph unicode="&#x111;" horiz-adv-x="985" d="M59 379q0 198 62.5 364t171.5 262.5t239 96.5q90 0 145 -45.5t89 -147.5l53 303h-231l20 117h232l24 141h148l-25 -141h148l-21 -117h-147l-211 -1212h-140l27 154q-66 -100 -132 -142.5t-155 -42.5q-142 0 -219.5 106.5t-77.5 303.5zM211 381q0 -122 45.5 -189 t128.5 -67q139 0 232.5 155t93.5 404q0 256 -181 256q-78 0 -140.5 -48.5t-100.5 -129.5t-58 -178.5t-20 -202.5z" />
<glyph unicode="&#x112;" horiz-adv-x="1120" d="M63 0l256 1470h879l-31 -176h-714l-80 -450h661l-30 -176h-662l-84 -492h727l-31 -176h-891zM528 1663l21 117h526l-20 -117h-527z" />
<glyph unicode="&#x113;" d="M59 352q0 195 67.5 366t191 277.5t274.5 106.5q78 0 136.5 -30t93 -83.5t51 -119.5t16.5 -144q0 -84 -23 -248h-641q-12 -77 -12 -127q0 -104 53.5 -164.5t147.5 -60.5q89 0 164.5 59.5t103.5 151.5h147q-59 -173 -176.5 -270t-271.5 -97t-238 100t-84 283zM250 621h489 q4 74 4 96q0 103 -50 163t-136 60q-106 0 -190.5 -88t-116.5 -231zM344 1284l21 117h526l-21 -117h-526z" />
<glyph unicode="&#x114;" horiz-adv-x="1120" d="M63 0l256 1470h879l-31 -176h-714l-80 -450h661l-30 -176h-662l-84 -492h727l-31 -176h-891zM543 1839h82l2 -14q32 -52 72 -79.5t106 -27.5q72 0 115 29t79 92h101q-56 -119 -133 -178t-193 -59q-112 0 -166 59.5t-65 177.5z" />
<glyph unicode="&#x115;" d="M59 352q0 195 67.5 366t191 277.5t274.5 106.5q78 0 136.5 -30t93 -83.5t51 -119.5t16.5 -144q0 -84 -23 -248h-641q-12 -77 -12 -127q0 -104 53.5 -164.5t147.5 -60.5q89 0 164.5 59.5t103.5 151.5h147q-59 -173 -176.5 -270t-271.5 -97t-238 100t-84 283zM250 621h489 q4 74 4 96q0 103 -50 163t-136 60q-106 0 -190.5 -88t-116.5 -231zM383 1421l2 60h82q8 -85 43.5 -123.5t110.5 -38.5q74 0 118.5 36t83.5 126h80q-44 -146 -119.5 -212.5t-193.5 -66.5q-100 0 -155.5 57t-51.5 162z" />
<glyph unicode="&#x116;" horiz-adv-x="1120" d="M63 0l256 1470h879l-31 -176h-714l-80 -450h661l-30 -176h-662l-84 -492h727l-31 -176h-891zM698 1622l35 197h176l-35 -197h-176z" />
<glyph unicode="&#x117;" d="M59 352q0 195 67.5 366t191 277.5t274.5 106.5q78 0 136.5 -30t93 -83.5t51 -119.5t16.5 -144q0 -84 -23 -248h-641q-12 -77 -12 -127q0 -104 53.5 -164.5t147.5 -60.5q89 0 164.5 59.5t103.5 151.5h147q-59 -173 -176.5 -270t-271.5 -97t-238 100t-84 283zM250 621h489 q4 74 4 96q0 103 -50 163t-136 60q-106 0 -190.5 -88t-116.5 -231zM514 1243l35 197h176l-35 -197h-176z" />
<glyph unicode="&#x118;" horiz-adv-x="1120" d="M63 0l256 1470h879l-31 -176h-714l-80 -450h661l-30 -176h-662l-84 -492h727l-31 -176q-106 -27 -178 -125q-39 -53 -39 -111q0 -86 94 -86h64l-23 -149h-71q-92 0 -156.5 46t-64.5 122q0 87 42.5 157t135.5 146h-695z" />
<glyph unicode="&#x119;" d="M59 352q0 195 67.5 366t191 277.5t274.5 106.5q78 0 136.5 -30t93 -83.5t51 -119.5t16.5 -144q0 -84 -23 -248h-641q-12 -77 -12 -127q0 -104 53.5 -164.5t147.5 -60.5q89 0 164.5 59.5t103.5 151.5h147q-65 -192 -200 -289q-126 -88 -187 -172q-39 -53 -39 -111 q0 -86 95 -86h63l-22 -149h-72q-92 0 -156.5 46t-64.5 122q0 78 34.5 142t108.5 130h-8q-154 0 -238 100t-84 283zM250 621h489q4 74 4 96q0 103 -50 163t-136 60q-106 0 -190.5 -88t-116.5 -231z" />
<glyph unicode="&#x11a;" horiz-adv-x="1120" d="M63 0l256 1470h879l-31 -176h-714l-80 -450h661l-30 -176h-662l-84 -492h727l-31 -176h-891zM549 1845h135l115 -149l168 149h133l-240 -248h-158z" />
<glyph unicode="&#x11b;" d="M59 352q0 195 67.5 366t191 277.5t274.5 106.5q78 0 136.5 -30t93 -83.5t51 -119.5t16.5 -144q0 -84 -23 -248h-641q-12 -77 -12 -127q0 -104 53.5 -164.5t147.5 -60.5q89 0 164.5 59.5t103.5 151.5h147q-59 -173 -176.5 -270t-271.5 -97t-238 100t-84 283zM250 621h489 q4 74 4 96q0 103 -50 163t-136 60q-106 0 -190.5 -88t-116.5 -231zM399 1487h133l78 -191l144 191h133l-217 -289h-156z" />
<glyph unicode="&#x11c;" horiz-adv-x="1306" d="M104 504q0 261 98 493t266 372t361 140q192 0 311.5 -120.5t119.5 -315.5v-49h-158q-23 309 -299 309q-109 0 -206.5 -63.5t-168 -172.5t-111.5 -260.5t-41 -320.5q0 -190 81 -287.5t239 -97.5q168 0 291 120t168 365h-375l29 170h528l-135 -786h-107l-6 190 q-100 -118 -207.5 -173.5t-238.5 -55.5q-87 0 -159.5 29.5t-123.5 80.5t-86.5 120t-52.5 148t-17 165zM567 1597l240 248h158l153 -248h-135l-115 150l-168 -150h-133z" />
<glyph unicode="&#x11d;" d="M-12 -131h147q5 -90 44.5 -130t123.5 -40q133 0 207.5 83t110.5 294l8 43q-59 -78 -122.5 -114t-146.5 -36q-139 0 -216.5 107t-77.5 301q0 198 63 365t172 263.5t238 96.5q89 0 141.5 -42t93.5 -147l29 158h139l-172 -983q-47 -278 -170.5 -408.5t-327.5 -130.5 q-143 0 -213.5 71t-70.5 228v21zM217 379q0 -120 46.5 -187t129.5 -67q139 0 232.5 154.5t93.5 404.5q0 256 -182 256q-103 0 -177.5 -83.5t-108.5 -208t-34 -269.5zM350 1198l217 289h156l115 -289h-133l-78 191l-144 -191h-133z" />
<glyph unicode="&#x11e;" horiz-adv-x="1306" d="M104 504q0 261 98 493t266 372t361 140q192 0 311.5 -120.5t119.5 -315.5v-49h-158q-23 309 -299 309q-109 0 -206.5 -63.5t-168 -172.5t-111.5 -260.5t-41 -320.5q0 -190 81 -287.5t239 -97.5q168 0 291 120t168 365h-375l29 170h528l-135 -786h-107l-6 190 q-100 -118 -207.5 -173.5t-238.5 -55.5q-87 0 -159.5 29.5t-123.5 80.5t-86.5 120t-52.5 148t-17 165zM606 1839h82l2 -14q32 -52 72 -79.5t106 -27.5q72 0 115.5 29t79.5 92h100q-56 -119 -132.5 -178t-192.5 -59q-112 0 -166.5 59.5t-65.5 177.5z" />
<glyph unicode="&#x11f;" d="M-12 -131h147q5 -90 44.5 -130t123.5 -40q133 0 207.5 83t110.5 294l8 43q-59 -78 -122.5 -114t-146.5 -36q-139 0 -216.5 107t-77.5 301q0 198 63 365t172 263.5t238 96.5q89 0 141.5 -42t93.5 -147l29 158h139l-172 -983q-47 -278 -170.5 -408.5t-327.5 -130.5 q-143 0 -213.5 71t-70.5 228v21zM217 379q0 -120 46.5 -187t129.5 -67q139 0 232.5 154.5t93.5 404.5q0 256 -182 256q-103 0 -177.5 -83.5t-108.5 -208t-34 -269.5zM383 1421l2 60h82q8 -85 43.5 -123.5t110.5 -38.5q74 0 118.5 36t83.5 126h80q-44 -146 -119.5 -212.5 t-193.5 -66.5q-100 0 -155.5 57t-51.5 162z" />
<glyph unicode="&#x120;" horiz-adv-x="1306" d="M104 504q0 261 98 493t266 372t361 140q192 0 311.5 -120.5t119.5 -315.5v-49h-158q-23 309 -299 309q-109 0 -206.5 -63.5t-168 -172.5t-111.5 -260.5t-41 -320.5q0 -190 81 -287.5t239 -97.5q168 0 291 120t168 365h-375l29 170h528l-135 -786h-107l-6 190 q-100 -118 -207.5 -173.5t-238.5 -55.5q-87 0 -159.5 29.5t-123.5 80.5t-86.5 120t-52.5 148t-17 165zM762 1622l35 197h176l-35 -197h-176z" />
<glyph unicode="&#x121;" d="M-12 -131h147q5 -90 44.5 -130t123.5 -40q133 0 207.5 83t110.5 294l8 43q-59 -78 -122.5 -114t-146.5 -36q-139 0 -216.5 107t-77.5 301q0 198 63 365t172 263.5t238 96.5q89 0 141.5 -42t93.5 -147l29 158h139l-172 -983q-47 -278 -170.5 -408.5t-327.5 -130.5 q-143 0 -213.5 71t-70.5 228v21zM217 379q0 -120 46.5 -187t129.5 -67q139 0 232.5 154.5t93.5 404.5q0 256 -182 256q-103 0 -177.5 -83.5t-108.5 -208t-34 -269.5zM514 1243l35 197h176l-35 -197h-176z" />
<glyph unicode="&#x122;" horiz-adv-x="1306" d="M104 504q0 261 98 493t266 372t361 140q192 0 311.5 -120.5t119.5 -315.5v-49h-158q-23 309 -299 309q-109 0 -206.5 -63.5t-168 -172.5t-111.5 -260.5t-41 -320.5q0 -190 81 -287.5t239 -97.5q168 0 291 120t168 365h-375l29 170h528l-135 -786h-107l-6 190 q-100 -118 -207.5 -173.5t-238.5 -55.5q-87 0 -159.5 29.5t-123.5 80.5t-86.5 120t-52.5 148t-17 165zM389 -586l14 80q87 9 111 176h-82l37 207h158l-33 -192q-22 -123 -76 -194t-129 -77z" />
<glyph unicode="&#x123;" d="M-12 -131h147q5 -90 44.5 -130t123.5 -40q133 0 207.5 83t110.5 294l8 43q-59 -78 -122.5 -114t-146.5 -36q-139 0 -216.5 107t-77.5 301q0 198 63 365t172 263.5t238 96.5q89 0 141.5 -42t93.5 -147l29 158h139l-172 -983q-47 -278 -170.5 -408.5t-327.5 -130.5 q-143 0 -213.5 71t-70.5 228v21zM217 379q0 -120 46.5 -187t129.5 -67q139 0 232.5 154.5t93.5 404.5q0 256 -182 256q-103 0 -177.5 -83.5t-108.5 -208t-34 -269.5zM510 1167l33 193q22 123 76 193.5t129 76.5l-15 -80q-86 -9 -110 -176h82l-37 -207h-158z" />
<glyph unicode="&#x124;" horiz-adv-x="1212" d="M47 0l256 1470h164l-107 -608h631l105 608h164l-256 -1470h-164l121 686h-631l-119 -686h-164zM526 1597l240 248h158l153 -248h-135l-115 150l-168 -150h-133z" />
<glyph unicode="&#x125;" d="M27 0l256 1470h149l-96 -546q82 100 147.5 139t153.5 39q116 0 180 -69t64 -193q0 -40 -11 -111l-127 -729h-147l121 700q10 55 10 99q0 141 -139 141q-119 0 -201 -93t-111 -263l-102 -584h-147zM387 1597l240 248h157l154 -248h-135l-115 150l-168 -150h-133z" />
<glyph unicode="&#x126;" horiz-adv-x="1212" d="M47 0l197 1130h-82l16 93h82l43 247h164l-43 -247h629l43 247h164l-43 -247h81l-16 -93h-82l-196 -1130h-164l121 686h-631l-119 -686h-164zM360 862h631l45 268h-628z" />
<glyph unicode="&#x127;" horiz-adv-x="1015" d="M104 0l185 1055l-80 -35l16 102l80 35l55 313h150l-43 -245l227 98l-18 -104l-227 -97l-35 -198q82 100 147.5 139t153.5 39q115 0 179 -68.5t64 -193.5q0 -46 -10 -111l-127 -729h-147l121 700q10 55 10 99q0 141 -139 141q-119 0 -201 -93t-111 -263l-102 -584h-148z " />
<glyph unicode="&#x128;" horiz-adv-x="466" d="M72 0l256 1470h161l-256 -1470h-161zM145 1602q35 114 86.5 166.5t126.5 52.5q49 0 109 -31l35 -18q52 -27 78 -27q34 0 55.5 21.5t40.5 72.5h84q-34 -109 -87 -166t-122 -57q-33 0 -92 26l-41 19q-73 31 -96 31q-31 0 -53 -20.5t-44 -69.5h-80z" />
<glyph unicode="&#x129;" horiz-adv-x="466" d="M76 1223q35 114 86.5 166.5t126.5 52.5q48 0 108 -31l35 -18q52 -27 78 -27q34 0 55.5 21.5t40.5 72.5h84q-34 -109 -87 -166t-122 -57q-31 0 -92 27l-41 18q-73 31 -96 31q-31 0 -52.5 -20.5t-43.5 -69.5h-80zM78 0l186 1071h148l-187 -1071h-147z" />
<glyph unicode="&#x12a;" horiz-adv-x="466" d="M72 0l256 1470h161l-256 -1470h-161zM178 1663l21 117h526l-20 -117h-527z" />
<glyph unicode="&#x12b;" horiz-adv-x="466" d="M78 0l186 1071h148l-187 -1071h-147zM111 1284l20 117h526l-20 -117h-526z" />
<glyph unicode="&#x12c;" horiz-adv-x="466" d="M72 0l256 1470h161l-256 -1470h-161zM193 1839h81l2 -14q32 -52 72 -79.5t107 -27.5q72 0 115 29t79 92h101q-56 -119 -133 -178t-193 -59q-112 0 -166 59.5t-65 177.5z" />
<glyph unicode="&#x12d;" horiz-adv-x="466" d="M78 0l186 1071h148l-187 -1071h-147zM150 1421l2 60h81q8 -85 43.5 -123.5t110.5 -38.5t120 36t83 126h80q-44 -146 -120 -212.5t-194 -66.5q-100 0 -155 56.5t-51 162.5z" />
<glyph unicode="&#x12e;" horiz-adv-x="466" d="M-100 -303q0 87 42.5 157t135.5 146h-6l256 1470h161l-256 -1470q-80 -47 -137 -125q-39 -53 -39 -111q0 -86 95 -86h63l-22 -149h-72q-92 0 -156.5 46t-64.5 122z" />
<glyph unicode="&#x12f;" horiz-adv-x="466" d="M-109 -303q0 89 51 171t136 132l186 1071h148l-187 -1071q-80 -47 -137 -125q-39 -53 -39 -111q0 -86 94 -86h64l-23 -149h-71q-93 0 -157.5 46t-64.5 122zM281 1243l34 197h177l-35 -197h-176z" />
<glyph unicode="&#x130;" horiz-adv-x="466" d="M72 0l256 1470h161l-256 -1470h-161zM348 1622l35 197h176l-35 -197h-176z" />
<glyph unicode="&#x131;" horiz-adv-x="372" d="M31 0l186 1071h148l-187 -1071h-147z" />
<glyph unicode="&#x134;" horiz-adv-x="839" d="M-2 246q0 42 6 82l27 145h151l-16 -102q-9 -67 -8 -86q0 -154 147 -154q97 0 155 62.5t81 191.5l190 1085h162l-186 -1073q-37 -209 -147.5 -322.5t-276.5 -113.5q-137 0 -211 74.5t-74 210.5zM557 1597l240 248h157l154 -248h-135l-115 150l-168 -150h-133z" />
<glyph unicode="&#x135;" horiz-adv-x="372" d="M-182 -424l26 156h31q70 0 93 23t38 108l211 1208h148l-213 -1229q-25 -140 -90 -206t-179 -66q-31 0 -65 6zM70 1198l217 289h155l115 -289h-133l-78 191l-143 -191h-133z" />
<glyph unicode="&#x136;" horiz-adv-x="1120" d="M45 0l256 1470h164l-125 -712l709 712h225l-606 -593l362 -877h-211l-293 737l-229 -221l-88 -516h-164zM281 -586l14 80q87 9 111 176h-82l36 207h158l-33 -192q-22 -123 -75.5 -194t-128.5 -77z" />
<glyph unicode="&#x137;" horiz-adv-x="839" d="M31 0l256 1470h143l-149 -852l456 453h189l-406 -399l240 -672h-191l-178 541l-147 -135l-70 -406h-143zM162 -586l14 80q87 9 111 176h-82l37 207h157l-32 -192q-22 -123 -76 -194t-129 -77z" />
<glyph unicode="&#x139;" d="M45 0l256 1470h164l-225 -1294h610l-31 -176h-774zM324 1595l172 248h202l-262 -248h-112z" />
<glyph unicode="&#x13a;" horiz-adv-x="372" d="M31 0l256 1470h147l-256 -1470h-147zM309 1595l172 248h203l-262 -248h-113z" />
<glyph unicode="&#x13b;" d="M45 0l256 1470h164l-225 -1294h610l-31 -176h-774zM256 -586l14 80q87 9 111 176h-82l37 207h158l-33 -192q-22 -123 -76 -194t-129 -77z" />
<glyph unicode="&#x13c;" horiz-adv-x="372" d="M-72 -586l15 80q86 9 110 176h-82l37 207h158l-33 -192q-22 -123 -76 -194t-129 -77zM31 0l256 1470h147l-256 -1470h-147z" />
<glyph unicode="&#x13d;" d="M45 0l256 1470h164l-225 -1294h610l-31 -176h-774zM498 1008l14 79q87 9 111 177h-82l37 206h157l-33 -192q-22 -123 -75.5 -193.5t-128.5 -76.5z" />
<glyph unicode="&#x13e;" horiz-adv-x="372" d="M31 0l256 1470h147l-256 -1470h-147zM467 1008l14 79q87 9 111 177h-82l37 206h158l-33 -192q-22 -123 -76 -193.5t-129 -76.5z" />
<glyph unicode="&#x13f;" d="M45 0l256 1470h164l-225 -1294h610l-31 -176h-774zM625 676l32 196h177l-33 -196h-176z" />
<glyph unicode="&#x140;" horiz-adv-x="548" d="M31 0l256 1470h147l-256 -1470h-147zM410 676l32 196h176l-32 -196h-176z" />
<glyph unicode="&#x141;" horiz-adv-x="1130" d="M129 375l33 182l139 131l135 782h164l-106 -614l368 352l-31 -180l-370 -352l-86 -500h610l-31 -176h-774l88 508z" />
<glyph unicode="&#x142;" horiz-adv-x="643" d="M141 662l29 161l162 131l90 516h147l-69 -399l164 131l-29 -164l-164 -129l-158 -909h-147l137 793z" />
<glyph unicode="&#x143;" horiz-adv-x="1212" d="M45 0l256 1470h195l397 -1194l209 1194h158l-256 -1470h-185l-407 1194l-209 -1194h-158zM745 1595l173 248h202l-262 -248h-113z" />
<glyph unicode="&#x144;" d="M27 0l186 1071h139l-26 -158q77 100 150 144.5t163 44.5q114 0 178 -69.5t64 -192.5q0 -40 -11 -111l-127 -729h-147l115 659q10 68 10 123q0 158 -141 158q-112 0 -193.5 -95t-110.5 -261l-102 -584h-147zM537 1196l180 289h203l-271 -289h-112z" />
<glyph unicode="&#x145;" horiz-adv-x="1212" d="M45 0l256 1470h195l397 -1194l209 1194h158l-256 -1470h-185l-407 1194l-209 -1194h-158zM348 -586l14 80q87 9 111 176h-82l37 207h158l-33 -192q-22 -123 -76 -194t-129 -77z" />
<glyph unicode="&#x146;" d="M27 0l186 1071h139l-26 -158q77 100 150 144.5t163 44.5q114 0 178 -69.5t64 -192.5q0 -40 -11 -111l-127 -729h-147l115 659q10 68 10 123q0 158 -141 158q-112 0 -193.5 -95t-110.5 -261l-102 -584h-147zM209 -586l14 80q87 9 111 176h-82l37 207h157l-32 -192 q-22 -123 -76 -194t-129 -77z" />
<glyph unicode="&#x147;" horiz-adv-x="1212" d="M45 0l256 1470h195l397 -1194l209 1194h158l-256 -1470h-185l-407 1194l-209 -1194h-158zM571 1845h136l114 -149l168 149h133l-239 -248h-158z" />
<glyph unicode="&#x148;" d="M27 0l186 1071h139l-26 -158q77 100 150 144.5t163 44.5q114 0 178 -69.5t64 -192.5q0 -40 -11 -111l-127 -729h-147l115 659q10 68 10 123q0 158 -141 158q-112 0 -193.5 -95t-110.5 -261l-102 -584h-147zM399 1487h133l78 -191l144 191h133l-217 -289h-156z" />
<glyph unicode="&#x14a;" horiz-adv-x="1212" d="M45 0l256 1470h195l397 -1194l209 1194h158l-269 -1546q-37 -209 -147.5 -322.5t-276.5 -113.5q-136 0 -210 74t-74 211q0 41 6 82h153v-43q0 -154 148 -154q80 0 148 57t81 138l17 98l-424 1243l-209 -1194h-158z" />
<glyph unicode="&#x14b;" d="M27 0l186 1071h139l-26 -158q77 100 150 144.5t163 44.5q114 0 178 -69.5t64 -192.5q0 -40 -11 -111l-153 -887q-25 -140 -89.5 -206t-178.5 -66q-31 0 -66 6l27 156h30q70 0 93 23t38 108l140 796q10 68 10 123q0 158 -141 158q-112 0 -193.5 -95t-110.5 -261l-102 -584 h-147z" />
<glyph unicode="&#x14c;" horiz-adv-x="1306" d="M94 535q0 149 36 293.5t103 266.5t157 215.5t205 146t239 52.5q224 0 347.5 -150.5t123.5 -424.5q0 -122 -25.5 -243t-71.5 -228t-113.5 -199.5t-148 -159.5t-179 -105t-202.5 -38q-226 0 -348.5 151t-122.5 423zM264 561q0 -198 88 -311t242 -113q147 0 272 105.5 t197 284t72 384.5q0 197 -88.5 309.5t-243.5 112.5q-146 0 -270 -103.5t-196.5 -281.5t-72.5 -387zM596 1663l20 117h527l-21 -117h-526z" />
<glyph unicode="&#x14d;" d="M57 387q0 134 40.5 264t109.5 229.5t166.5 160.5t204.5 61q151 0 236 -110t85 -304q0 -135 -40.5 -265t-108.5 -229.5t-166 -161t-205 -61.5q-151 0 -236.5 110.5t-85.5 305.5zM211 406q0 -135 51 -207t146 -72q94 0 172.5 79.5t121.5 202.5t43 257q0 135 -50.5 207.5 t-145.5 72.5q-94 0 -173 -79t-122 -202.5t-43 -258.5zM344 1284l21 117h526l-21 -117h-526z" />
<glyph unicode="&#x14e;" horiz-adv-x="1306" d="M94 535q0 149 36 293.5t103 266.5t157 215.5t205 146t239 52.5q224 0 347.5 -150.5t123.5 -424.5q0 -122 -25.5 -243t-71.5 -228t-113.5 -199.5t-148 -159.5t-179 -105t-202.5 -38q-226 0 -348.5 151t-122.5 423zM264 561q0 -198 88 -311t242 -113q147 0 272 105.5 t197 284t72 384.5q0 197 -88.5 309.5t-243.5 112.5q-146 0 -270 -103.5t-196.5 -281.5t-72.5 -387zM610 1839h82l2 -14q32 -52 72 -79.5t106 -27.5q72 0 115.5 29t79.5 92h100q-56 -119 -132.5 -178t-192.5 -59q-112 0 -166.5 59.5t-65.5 177.5z" />
<glyph unicode="&#x14f;" d="M57 387q0 134 40.5 264t109.5 229.5t166.5 160.5t204.5 61q151 0 236 -110t85 -304q0 -135 -40.5 -265t-108.5 -229.5t-166 -161t-205 -61.5q-151 0 -236.5 110.5t-85.5 305.5zM211 406q0 -135 51 -207t146 -72q94 0 172.5 79.5t121.5 202.5t43 257q0 135 -50.5 207.5 t-145.5 72.5q-94 0 -173 -79t-122 -202.5t-43 -258.5zM383 1421l2 60h82q8 -85 43.5 -123.5t110.5 -38.5q74 0 118.5 36t83.5 126h80q-44 -146 -119.5 -212.5t-193.5 -66.5q-100 0 -155.5 57t-51.5 162z" />
<glyph unicode="&#x150;" horiz-adv-x="1306" d="M94 535q0 149 36 293.5t103 266.5t157 215.5t205 146t239 52.5q224 0 347.5 -150.5t123.5 -424.5q0 -122 -25.5 -243t-71.5 -228t-113.5 -199.5t-148 -159.5t-179 -105t-202.5 -38q-226 0 -348.5 151t-122.5 423zM264 561q0 -198 88 -311t242 -113q147 0 272 105.5 t197 284t72 384.5q0 197 -88.5 309.5t-243.5 112.5q-146 0 -270 -103.5t-196.5 -281.5t-72.5 -387zM641 1597l199 289h184l-270 -289h-113zM942 1597l201 289h182l-270 -289h-113z" />
<glyph unicode="&#x151;" d="M57 387q0 134 40.5 264t109.5 229.5t166.5 160.5t204.5 61q151 0 236 -110t85 -304q0 -135 -40.5 -265t-108.5 -229.5t-166 -161t-205 -61.5q-151 0 -236.5 110.5t-85.5 305.5zM211 406q0 -135 51 -207t146 -72q94 0 172.5 79.5t121.5 202.5t43 257q0 135 -50.5 207.5 t-145.5 72.5q-94 0 -173 -79t-122 -202.5t-43 -258.5zM387 1198l199 289h184l-270 -289h-113zM688 1198l201 289h182l-270 -289h-113z" />
<glyph unicode="&#x152;" horiz-adv-x="1679" d="M82 481q0 193 51 379t138.5 329.5t214 231.5t268.5 88q107 0 171 -45.5t101 -148.5l27 155h739l-31 -176h-585l-80 -450h561l-31 -176h-561l-86 -492h590l-31 -176h-743l26 160q-89 -112 -166 -155.5t-186 -43.5q-185 0 -286 135.5t-101 384.5zM248 496q0 -365 272 -365 q130 0 226 93.5t122 246.5l93 537q8 54 8 79q0 117 -64.5 184.5t-175.5 67.5q-105 0 -192 -63t-148 -184q-60 -118 -100.5 -289.5t-40.5 -306.5z" />
<glyph unicode="&#x153;" horiz-adv-x="1585" d="M57 385q0 180 68 345t188.5 268.5t261.5 103.5q107 0 179 -52t114 -165q89 118 173.5 167.5t197.5 49.5q79 0 138 -30t93.5 -83.5t51 -119.5t16.5 -144q0 -91 -22 -248h-644q-12 -73 -12 -123q0 -106 54.5 -167.5t146.5 -61.5q91 0 166.5 59.5t103.5 151.5h148 q-58 -174 -177 -270.5t-274 -96.5q-110 0 -178 47.5t-119 159.5q-69 -106 -153 -155.5t-193 -49.5q-155 0 -241.5 109.5t-86.5 304.5zM211 406q0 -135 51 -207t146 -72q94 0 173 80t121.5 203t42.5 256q0 135 -50.5 207.5t-145.5 72.5q-94 0 -173 -80t-122 -203.5 t-43 -256.5zM897 621h492q4 74 4 96q0 103 -50.5 163t-136.5 60q-107 0 -192 -87t-117 -232z" />
<glyph unicode="&#x154;" horiz-adv-x="1212" d="M66 0l256 1470h559q164 0 250 -74.5t86 -217.5q0 -150 -57 -260.5t-181 -194.5q60 -34 81 -71.5t21 -112.5q0 -47 -6 -93l-37 -266q-6 -44 -6 -69t9 -41.5t32 -36.5l-6 -33h-201v35q0 120 37 334q10 68 10 102q0 78 -46 119t-134 41h-395l-109 -631h-163zM369 801h376 q147 0 222 88t75 241q0 86 -44 128t-136 42h-407zM713 1595l172 248h202l-262 -248h-112z" />
<glyph unicode="&#x155;" horiz-adv-x="559" d="M47 0l186 1071h140l-33 -184q80 117 145.5 166t143.5 49q19 0 37 -6l-33 -187h-55q-97 0 -175 -81t-100 -205l-108 -623h-148zM350 1196l180 289h203l-270 -289h-113z" />
<glyph unicode="&#x156;" horiz-adv-x="1212" d="M66 0l256 1470h559q164 0 250 -74.5t86 -217.5q0 -150 -57 -260.5t-181 -194.5q60 -34 81 -71.5t21 -112.5q0 -47 -6 -93l-37 -266q-6 -44 -6 -69t9 -41.5t32 -36.5l-6 -33h-201v35q0 120 37 334q10 68 10 102q0 78 -46 119t-134 41h-395l-109 -631h-163zM315 -586l15 80 q86 9 110 176h-82l37 207h158l-33 -192q-22 -123 -76 -194t-129 -77zM369 801h376q147 0 222 88t75 241q0 86 -44 128t-136 42h-407z" />
<glyph unicode="&#x157;" horiz-adv-x="559" d="M-55 -586l14 80q87 9 111 176h-82l37 207h157l-32 -192q-22 -123 -76 -194t-129 -77zM47 0l186 1071h140l-33 -184q80 117 145.5 166t143.5 49q19 0 37 -6l-33 -187h-55q-97 0 -175 -81t-100 -205l-108 -623h-148z" />
<glyph unicode="&#x158;" horiz-adv-x="1212" d="M66 0l256 1470h559q164 0 250 -74.5t86 -217.5q0 -150 -57 -260.5t-181 -194.5q60 -34 81 -71.5t21 -112.5q0 -47 -6 -93l-37 -266q-6 -44 -6 -69t9 -41.5t32 -36.5l-6 -33h-201v35q0 120 37 334q10 68 10 102q0 78 -46 119t-134 41h-395l-109 -631h-163zM369 801h376 q147 0 222 88t75 241q0 86 -44 128t-136 42h-407zM539 1845h135l114 -149l168 149h134l-240 -248h-158z" />
<glyph unicode="&#x159;" horiz-adv-x="559" d="M47 0l186 1071h140l-33 -184q80 117 145.5 166t143.5 49q19 0 37 -6l-33 -187h-55q-97 0 -175 -81t-100 -205l-108 -623h-148zM213 1487h133l78 -191l143 191h133l-217 -289h-155z" />
<glyph unicode="&#x15a;" horiz-adv-x="1120" d="M70 322q0 68 14 153h154q-9 -55 -9 -94q0 -117 76.5 -183.5t208.5 -66.5q166 0 263 84t97 229q0 74 -47.5 116t-171.5 79l-233 70q-205 62 -205 264q0 142 64.5 264t184 197t267.5 75q180 0 280.5 -91t100.5 -253q0 -60 -8 -125h-154q4 54 4 68q0 107 -67 169t-184 62 q-141 0 -231.5 -85t-90.5 -218q0 -107 115 -141l325 -96q215 -63 215 -295q0 -242 -156.5 -392.5t-406.5 -150.5q-190 0 -297.5 100.5t-107.5 260.5zM696 1595l172 248h203l-262 -248h-113z" />
<glyph unicode="&#x15b;" horiz-adv-x="839" d="M25 238q0 49 8 106h143q-4 -46 -4 -59q0 -76 50.5 -118t142.5 -42q105 0 172 55.5t67 143.5q0 43 -33.5 71t-117.5 54l-162 51q-162 52 -162 200q0 169 116 285.5t283 116.5q129 0 204 -71t75 -195q0 -12 -4 -70h-144l5 45q0 64 -45 99.5t-125 35.5q-95 0 -154 -51 t-59 -133q0 -40 28 -63t107 -48l141 -45q107 -35 155 -87t48 -132q0 -174 -123.5 -296t-300.5 -122q-149 0 -230 70.5t-81 198.5zM489 1196l181 289h202l-270 -289h-113z" />
<glyph unicode="&#x15c;" horiz-adv-x="1120" d="M70 322q0 68 14 153h154q-9 -55 -9 -94q0 -117 76.5 -183.5t208.5 -66.5q166 0 263 84t97 229q0 74 -47.5 116t-171.5 79l-233 70q-205 62 -205 264q0 142 64.5 264t184 197t267.5 75q180 0 280.5 -91t100.5 -253q0 -60 -8 -125h-154q4 54 4 68q0 107 -67 169t-184 62 q-141 0 -231.5 -85t-90.5 -218q0 -107 115 -141l325 -96q215 -63 215 -295q0 -242 -156.5 -392.5t-406.5 -150.5q-190 0 -297.5 100.5t-107.5 260.5zM477 1597l240 248h157l154 -248h-135l-115 150l-168 -150h-133z" />
<glyph unicode="&#x15d;" horiz-adv-x="839" d="M25 238q0 49 8 106h143q-4 -46 -4 -59q0 -76 50.5 -118t142.5 -42q105 0 172 55.5t67 143.5q0 43 -33.5 71t-117.5 54l-162 51q-162 52 -162 200q0 169 116 285.5t283 116.5q129 0 204 -71t75 -195q0 -12 -4 -70h-144l5 45q0 64 -45 99.5t-125 35.5q-95 0 -154 -51 t-59 -133q0 -40 28 -63t107 -48l141 -45q107 -35 155 -87t48 -132q0 -174 -123.5 -296t-300.5 -122q-149 0 -230 70.5t-81 198.5zM303 1198l217 289h156l115 -289h-134l-77 191l-144 -191h-133z" />
<glyph unicode="&#x15e;" horiz-adv-x="1120" d="M70 322q0 68 14 153h154q-9 -55 -9 -94q0 -117 76.5 -183.5t208.5 -66.5q166 0 263 84t97 229q0 74 -47.5 116t-171.5 79l-233 70q-205 62 -205 264q0 142 64.5 264t184 197t267.5 75q180 0 280.5 -91t100.5 -253q0 -60 -8 -125h-154q4 54 4 68q0 107 -67 169t-184 62 q-141 0 -231.5 -85t-90.5 -218q0 -107 115 -141l325 -96q215 -63 215 -295q0 -225 -137 -373t-362 -168l-54 -82h17q53 0 83.5 -36t30.5 -93q0 -94 -67.5 -158.5t-165.5 -64.5q-74 0 -154 45l43 82q58 -31 101 -31q51 0 81.5 28.5t30.5 74.5q0 28 -19 47.5t-48 19.5 q-39 0 -68 -10l-22 39l106 139q-171 10 -267.5 109t-96.5 250z" />
<glyph unicode="&#x15f;" horiz-adv-x="839" d="M25 238q0 49 8 106h143q-4 -46 -4 -59q0 -76 50.5 -118t142.5 -42q105 0 172 55.5t67 143.5q0 43 -33.5 71t-117.5 54l-162 51q-162 52 -162 200q0 169 116 285.5t283 116.5q129 0 204 -71t75 -195q0 -12 -4 -70h-144l5 45q0 64 -45 99.5t-125 35.5q-95 0 -154 -51 t-59 -133q0 -40 28 -63t107 -48l141 -45q107 -35 155 -87t48 -132q0 -156 -102 -272.5t-255 -141.5l-61 -92h16q53 0 84 -36t31 -93q0 -94 -67.5 -158.5t-165.5 -64.5q-74 0 -154 45l43 82q58 -31 100 -31q51 0 82 28.5t31 74.5q0 28 -19.5 47.5t-48.5 19.5q-38 0 -67 -10 l-23 39l113 147q-130 7 -201 77t-71 190z" />
<glyph unicode="&#x160;" horiz-adv-x="1120" d="M70 322q0 68 14 153h154q-9 -55 -9 -94q0 -117 76.5 -183.5t208.5 -66.5q166 0 263 84t97 229q0 74 -47.5 116t-171.5 79l-233 70q-205 62 -205 264q0 142 64.5 264t184 197t267.5 75q180 0 280.5 -91t100.5 -253q0 -60 -8 -125h-154q4 54 4 68q0 107 -67 169t-184 62 q-141 0 -231.5 -85t-90.5 -218q0 -107 115 -141l325 -96q215 -63 215 -295q0 -242 -156.5 -392.5t-406.5 -150.5q-190 0 -297.5 100.5t-107.5 260.5zM522 1845h135l115 -149l168 149h133l-239 -248h-158z" />
<glyph unicode="&#x161;" horiz-adv-x="839" d="M25 238q0 49 8 106h143q-4 -46 -4 -59q0 -76 50.5 -118t142.5 -42q105 0 172 55.5t67 143.5q0 43 -33.5 71t-117.5 54l-162 51q-162 52 -162 200q0 169 116 285.5t283 116.5q129 0 204 -71t75 -195q0 -12 -4 -70h-144l5 45q0 64 -45 99.5t-125 35.5q-95 0 -154 -51 t-59 -133q0 -40 28 -63t107 -48l141 -45q107 -35 155 -87t48 -132q0 -174 -123.5 -296t-300.5 -122q-149 0 -230 70.5t-81 198.5zM352 1487h133l78 -191l144 191h133l-217 -289h-156z" />
<glyph unicode="&#x162;" horiz-adv-x="1026" d="M168 -426l43 82q58 -31 100 -31q51 0 82 28.5t31 74.5q0 28 -19.5 47.5t-48.5 19.5q-38 0 -67 -10l-23 39l135 176h-51l225 1294h-407l31 176h979l-31 -176h-408l-225 -1294h-12l-78 -119h16q53 0 84 -36t31 -93q0 -94 -67.5 -158.5t-165.5 -64.5q-74 0 -154 45z" />
<glyph unicode="&#x163;" horiz-adv-x="466" d="M-78 -426l43 82q58 -31 101 -31q51 0 81.5 28.5t30.5 74.5q0 28 -19 47.5t-48 19.5q-39 0 -68 -10l-23 39l138 176q-68 30 -68 129q0 47 8 86l123 707h-119l27 149h119l51 299h150l-54 -299h142l-27 -149h-141l-121 -697q-2 -8 -2 -24q0 -32 18 -46t58 -14h53l-25 -141 l-102 -12l-70 -107h17q53 0 83.5 -36t30.5 -93q0 -94 -67.5 -158.5t-165.5 -64.5q-74 0 -154 45z" />
<glyph unicode="&#x164;" horiz-adv-x="1026" d="M168 1294l31 176h979l-31 -176h-408l-225 -1294h-164l225 1294h-407zM479 1845h135l115 -149l168 149h133l-239 -248h-158z" />
<glyph unicode="&#x165;" horiz-adv-x="466" d="M90 129q0 47 8 86l123 707h-119l27 149h119l51 299h150l-54 -299h142l-27 -149h-141l-121 -697q-2 -8 -2 -24q0 -32 18 -46t58 -14h53l-25 -141q-116 -14 -123 -14q-66 0 -101.5 37t-35.5 106zM465 1128l14 80q87 9 111 176h-82l37 207h157l-32 -192q-22 -123 -76 -194 t-129 -77z" />
<glyph unicode="&#x168;" horiz-adv-x="1212" d="M125 360q0 75 10 129l172 981h162l-160 -925q-12 -65 -12 -131q0 -134 64.5 -205.5t185.5 -71.5q150 0 249.5 105.5t133.5 298.5l164 929h161l-165 -954q-44 -254 -201.5 -404.5t-378.5 -150.5q-184 0 -284.5 104t-100.5 295zM518 1602q35 114 86.5 166.5t126.5 52.5 q49 0 109 -31l34 -18q52 -27 78 -27q34 0 56 21.5t41 72.5h84q-34 -109 -87 -166t-122 -57q-34 0 -93 26l-40 19q-73 31 -97 31q-31 0 -52.5 -20.5t-43.5 -69.5h-80z" />
<glyph unicode="&#x169;" d="M76 211q0 49 8 90l133 770h150l-125 -711q-6 -41 -6 -81q0 -75 35 -114.5t102 -39.5q110 0 192 96t111 260l102 590h148l-187 -1071h-139l29 166q-78 -110 -146.5 -153.5t-165.5 -43.5q-115 0 -178 63t-63 179zM309 1223q35 114 86.5 166.5t126.5 52.5q49 0 109 -31 l35 -18q52 -27 77 -27q34 0 56 21.5t41 72.5h84q-34 -109 -87 -166t-122 -57q-31 0 -92 27l-41 18q-73 31 -97 31q-31 0 -52.5 -20.5t-43.5 -69.5h-80z" />
<glyph unicode="&#x16a;" horiz-adv-x="1212" d="M125 360q0 75 10 129l172 981h162l-160 -925q-12 -65 -12 -131q0 -134 64.5 -205.5t185.5 -71.5q150 0 249.5 105.5t133.5 298.5l164 929h161l-165 -954q-44 -254 -201.5 -404.5t-378.5 -150.5q-184 0 -284.5 104t-100.5 295zM551 1663l20 117h527l-21 -117h-526z" />
<glyph unicode="&#x16b;" d="M76 211q0 49 8 90l133 770h150l-125 -711q-6 -41 -6 -81q0 -75 35 -114.5t102 -39.5q110 0 192 96t111 260l102 590h148l-187 -1071h-139l29 166q-78 -110 -146.5 -153.5t-165.5 -43.5q-115 0 -178 63t-63 179zM344 1284l21 117h526l-21 -117h-526z" />
<glyph unicode="&#x16c;" horiz-adv-x="1212" d="M125 360q0 75 10 129l172 981h162l-160 -925q-12 -65 -12 -131q0 -134 64.5 -205.5t185.5 -71.5q150 0 249.5 105.5t133.5 298.5l164 929h161l-165 -954q-44 -254 -201.5 -404.5t-378.5 -150.5q-184 0 -284.5 104t-100.5 295zM565 1839h82l2 -14q32 -52 72 -79.5 t106 -27.5q72 0 115.5 29t79.5 92h100q-56 -119 -132.5 -178t-192.5 -59q-112 0 -166.5 59.5t-65.5 177.5z" />
<glyph unicode="&#x16d;" d="M76 211q0 49 8 90l133 770h150l-125 -711q-6 -41 -6 -81q0 -75 35 -114.5t102 -39.5q110 0 192 96t111 260l102 590h148l-187 -1071h-139l29 166q-78 -110 -146.5 -153.5t-165.5 -43.5q-115 0 -178 63t-63 179zM383 1421l2 60h82q8 -85 43.5 -123.5t110.5 -38.5 q74 0 118.5 36t83.5 126h80q-44 -146 -119.5 -212.5t-193.5 -66.5q-100 0 -155.5 57t-51.5 162z" />
<glyph unicode="&#x16e;" horiz-adv-x="1212" d="M125 360q0 75 10 129l172 981h162l-160 -925q-12 -65 -12 -131q0 -134 64.5 -205.5t185.5 -71.5q150 0 249.5 105.5t133.5 298.5l164 929h161l-165 -954q-44 -254 -201.5 -404.5t-378.5 -150.5q-184 0 -284.5 104t-100.5 295zM625 1761q13 72 81 120t156 48 q89 0 139 -48.5t37 -123.5q-12 -72 -79 -120t-156 -48t-139.5 48.5t-38.5 123.5zM715 1761q-6 -42 22.5 -70t77.5 -28t88 27.5t45 66.5q7 41 -21.5 69.5t-76.5 28.5q-47 0 -87.5 -28t-47.5 -66z" />
<glyph unicode="&#x16f;" d="M76 211q0 49 8 90l133 770h150l-125 -711q-6 -41 -6 -81q0 -75 35 -114.5t102 -39.5q110 0 192 96t111 260l102 590h148l-187 -1071h-139l29 166q-78 -110 -146.5 -153.5t-165.5 -43.5q-115 0 -178 63t-63 179zM412 1343q12 72 79.5 120t155.5 48q90 0 140 -48.5 t38 -123.5q-12 -72 -79.5 -120t-157.5 -48q-89 0 -139 48.5t-37 123.5zM502 1343q-7 -41 21.5 -69.5t78.5 -28.5q49 0 88 27.5t45 66.5q8 41 -21.5 70t-78.5 29q-47 0 -87 -28.5t-46 -66.5z" />
<glyph unicode="&#x170;" horiz-adv-x="1212" d="M125 360q0 75 10 129l172 981h162l-160 -925q-12 -65 -12 -131q0 -134 64.5 -205.5t185.5 -71.5q150 0 249.5 105.5t133.5 298.5l164 929h161l-165 -954q-44 -254 -201.5 -404.5t-378.5 -150.5q-184 0 -284.5 104t-100.5 295zM596 1597l199 289h184l-270 -289h-113z M897 1597l201 289h182l-270 -289h-113z" />
<glyph unicode="&#x171;" d="M76 211q0 49 8 90l133 770h150l-125 -711q-6 -41 -6 -81q0 -75 35 -114.5t102 -39.5q110 0 192 96t111 260l102 590h148l-187 -1071h-139l29 166q-78 -110 -146.5 -153.5t-165.5 -43.5q-115 0 -178 63t-63 179zM387 1198l199 289h184l-270 -289h-113zM688 1198l201 289 h182l-270 -289h-113z" />
<glyph unicode="&#x172;" horiz-adv-x="1212" d="M125 360q0 75 10 129l172 981h162l-160 -925q-12 -65 -12 -131q0 -134 64.5 -205.5t185.5 -71.5q150 0 249.5 105.5t133.5 298.5l164 929h161l-165 -954q-33 -189 -131 -323t-242 -193q-108 -44 -166 -125q-41 -52 -41 -111q0 -86 94 -86h64l-23 -149h-72 q-92 0 -156.5 46t-64.5 122q0 75 33 138t102 126q-173 8 -267.5 111.5t-94.5 287.5z" />
<glyph unicode="&#x173;" d="M76 211q0 49 8 90l133 770h150l-125 -711q-6 -41 -6 -81q0 -75 35 -114.5t102 -39.5q110 0 192 96t111 260l102 590h148l-187 -1071q-80 -47 -137 -125q-39 -53 -39 -111q0 -86 94 -86h64l-23 -149h-71q-92 0 -156.5 46t-64.5 122q0 89 45 160q52 87 149 143l29 166 q-78 -110 -146.5 -153.5t-165.5 -43.5q-115 0 -178 63t-63 179z" />
<glyph unicode="&#x174;" horiz-adv-x="1585" d="M201 0v1470h192v-1204l484 1204h239v-1204l436 1204h181l-574 -1470h-235v1227l-494 -1227h-229zM741 1597l240 248h158l153 -248h-135l-115 150l-168 -150h-133z" />
<glyph unicode="&#x175;" horiz-adv-x="1212" d="M129 1071h182v-850l320 850h190v-850l328 850h147l-442 -1071h-186v838l-320 -838h-151zM489 1198l218 289h155l115 -289h-133l-78 191l-143 -191h-134z" />
<glyph unicode="&#x176;" horiz-adv-x="1120" d="M199 1470h190l221 -706l471 706h191l-608 -878l-103 -592h-164l103 592zM481 1597l240 248h158l153 -248h-135l-115 150l-168 -150h-133z" />
<glyph unicode="&#x177;" horiz-adv-x="839" d="M-57 -422l28 164q43 -18 86 -18q47 0 74.5 27t69.5 110l55 110l-133 1100h168l82 -878l389 878h164l-500 -1051q-56 -115 -90 -181t-70 -123.5t-58.5 -83t-55.5 -44t-62 -22.5t-76 -4q-27 0 -59 12zM303 1198l217 289h156l115 -289h-134l-77 191l-144 -191h-133z" />
<glyph unicode="&#x178;" horiz-adv-x="1120" d="M199 1470h190l221 -706l471 706h191l-608 -878l-103 -592h-164l103 592zM508 1622l35 197h180l-35 -197h-180zM838 1622l34 197h181l-35 -197h-180z" />
<glyph unicode="&#x179;" horiz-adv-x="1026" d="M-43 0l29 166l936 1128h-684l30 176h893l-31 -172l-935 -1122h741l-31 -176h-948zM680 1595l172 248h203l-262 -248h-113z" />
<glyph unicode="&#x17a;" horiz-adv-x="839" d="M-31 0l25 141l665 781h-489l27 149h680l-27 -147l-657 -774h538l-26 -150h-736zM489 1196l181 289h202l-270 -289h-113z" />
<glyph unicode="&#x17b;" horiz-adv-x="1026" d="M-43 0l29 166l936 1128h-684l30 176h893l-31 -172l-935 -1122h741l-31 -176h-948zM655 1622l35 197h176l-35 -197h-176z" />
<glyph unicode="&#x17c;" horiz-adv-x="839" d="M-31 0l25 141l665 781h-489l27 149h680l-27 -147l-657 -774h538l-26 -150h-736zM467 1243l35 197h176l-35 -197h-176z" />
<glyph unicode="&#x17d;" horiz-adv-x="1026" d="M-43 0l29 166l936 1128h-684l30 176h893l-31 -172l-935 -1122h741l-31 -176h-948zM506 1845h135l115 -149l168 149h133l-240 -248h-158z" />
<glyph unicode="&#x17e;" horiz-adv-x="839" d="M-31 0l25 141l665 781h-489l27 149h680l-27 -147l-657 -774h538l-26 -150h-736zM352 1487h133l78 -191l144 191h133l-217 -289h-156z" />
<glyph unicode="&#x17f;" horiz-adv-x="466" d="M63 0l218 1255q19 115 87 175.5t179 60.5q24 0 69 -4l-28 -162q-54 4 -60 4q-46 0 -72 -29.5t-36 -95.5l-209 -1204h-148z" />
<glyph unicode="&#x18e;" horiz-adv-x="1120" d="M63 0l31 176h727l86 492h-661l33 176h661l76 450h-715l31 176h878l-256 -1470h-891z" />
<glyph unicode="&#x192;" d="M-170 -399l53 166q48 -29 82 -29q69 0 120 75.5t118 280.5l229 707h-182l24 143h207l90 254q49 139 139.5 225t186.5 86q65 0 121 -30l-53 -160q-64 35 -91 35q-49 0 -93.5 -52.5t-75.5 -146.5l-70 -211h190l-24 -143h-213l-219 -670q-94 -290 -200 -422.5t-245 -132.5 q-54 0 -94 25z" />
<glyph unicode="&#x1a0;" horiz-adv-x="1306" d="M94 535q0 149 36 293.5t103 266.5t157 215.5t205 146t239 52.5q262 0 385 -202q41 18 71 64t41 102h-88l33 196h176l-33 -196q-14 -76 -59 -142t-107 -98q52 -125 52 -299q0 -122 -25.5 -243t-71.5 -228t-113.5 -199.5t-148 -159.5t-179 -105t-202.5 -38 q-226 0 -348.5 151t-122.5 423zM264 561q0 -198 88 -311t242 -113q147 0 272 105.5t197 284t72 384.5q0 197 -88.5 309.5t-243.5 112.5q-146 0 -270 -103.5t-196.5 -281.5t-72.5 -387z" />
<glyph unicode="&#x1a1;" horiz-adv-x="952" d="M57 387q0 134 40.5 264t109.5 229.5t166.5 160.5t204.5 61q95 0 165.5 -45t108.5 -129q65 52 78 145h-88l35 197h176l-35 -197q-10 -67 -47 -127.5t-90 -95.5q18 -74 18 -162q0 -135 -40.5 -265t-108.5 -229.5t-166 -161t-205 -61.5q-151 0 -236.5 110.5t-85.5 305.5z M211 406q0 -135 51 -207t146 -72q94 0 172.5 79.5t121.5 202.5t43 257q0 135 -50.5 207.5t-145.5 72.5q-94 0 -173 -79t-122 -202.5t-43 -258.5z" />
<glyph unicode="&#x1af;" horiz-adv-x="1208" d="M125 360q0 75 10 129l172 981h162l-160 -925q-12 -65 -12 -131q0 -134 64.5 -205.5t185.5 -71.5q150 0 249.5 105.5t133.5 298.5l164 929h161l2 3h-88l33 196h176l-32 -196q-19 -107 -94 -186t-169 -79l-30 45l37 -737q-44 -254 -201.5 -404.5t-378.5 -150.5 q-184 0 -284.5 104t-100.5 295z" />
<glyph unicode="&#x1b0;" horiz-adv-x="948" d="M76 211q0 49 8 90l133 770h150l-125 -711q-6 -41 -6 -81q0 -75 35 -114.5t102 -39.5q110 0 192 96t111 260l102 590h148v2h-88l34 197h177l-35 -197q-18 -106 -92 -185t-168 -79l-31 45l16 -854h-139l29 166q-78 -110 -146.5 -153.5t-165.5 -43.5q-115 0 -178 63t-63 179 z" />
<glyph unicode="&#x1dd;" d="M63 346q0 84 23 248h641q12 76 12 127q0 105 -53.5 165t-146.5 60q-89 0 -165 -59.5t-104 -151.5h-147q59 173 176.5 270t271.5 97t238 -100t84 -283q0 -195 -67.5 -366t-191 -277.5t-274.5 -106.5q-78 0 -136.5 30t-93 83.5t-51 119.5t-16.5 144zM209 354 q0 -103 50 -163t136 -60q105 0 190 88.5t117 231.5h-489q-4 -74 -4 -97z" />
<glyph unicode="&#x1e6;" horiz-adv-x="1306" d="M104 504q0 261 98 493t266 372t361 140q192 0 311.5 -120.5t119.5 -315.5v-49h-158q-23 309 -299 309q-109 0 -206.5 -63.5t-168 -172.5t-111.5 -260.5t-41 -320.5q0 -190 81 -287.5t239 -97.5q168 0 291 120t168 365h-375l29 170h528l-135 -786h-107l-6 190 q-100 -118 -207.5 -173.5t-238.5 -55.5q-87 0 -159.5 29.5t-123.5 80.5t-86.5 120t-52.5 148t-17 165zM612 1845h136l114 -149l168 149h133l-239 -248h-158z" />
<glyph unicode="&#x1e7;" d="M-12 -131h147q5 -90 44.5 -130t123.5 -40q133 0 207.5 83t110.5 294l8 43q-59 -78 -122.5 -114t-146.5 -36q-139 0 -216.5 107t-77.5 301q0 198 63 365t172 263.5t238 96.5q89 0 141.5 -42t93.5 -147l29 158h139l-172 -983q-47 -278 -170.5 -408.5t-327.5 -130.5 q-143 0 -213.5 71t-70.5 228v21zM217 379q0 -120 46.5 -187t129.5 -67q139 0 232.5 154.5t93.5 404.5q0 256 -182 256q-103 0 -177.5 -83.5t-108.5 -208t-34 -269.5zM399 1487h133l78 -191l144 191h133l-217 -289h-156z" />
<glyph unicode="&#x1ea;" horiz-adv-x="1306" d="M94 535q0 149 36 293.5t103 266.5t157 215.5t205 146t239 52.5q224 0 347.5 -150.5t123.5 -424.5q0 -203 -66.5 -394t-189 -335t-277.5 -205q-105 -42 -162 -125q-41 -52 -41 -111q0 -86 95 -86h63l-22 -149h-72q-92 0 -156.5 46t-64.5 122q0 75 32.5 138t100.5 126 q-217 7 -334 157.5t-117 416.5zM264 561q0 -198 88 -311t242 -113q147 0 272 105.5t197 284t72 384.5q0 197 -88.5 309.5t-243.5 112.5q-146 0 -270 -103.5t-196.5 -281.5t-72.5 -387z" />
<glyph unicode="&#x1eb;" d="M57 387q0 134 40.5 264t109.5 229.5t166.5 160.5t204.5 61q151 0 236 -110t85 -304q0 -210 -91.5 -395.5t-238.5 -269.5q-93 -51 -163 -148q-39 -53 -39 -111q0 -86 94 -86h63l-22 -149h-72q-92 0 -156.5 46t-64.5 122q0 78 35.5 143t109.5 131q-140 9 -218.5 119 t-78.5 297zM211 406q0 -135 51 -207t146 -72q94 0 172.5 79.5t121.5 202.5t43 257q0 135 -50.5 207.5t-145.5 72.5q-94 0 -173 -79t-122 -202.5t-43 -258.5z" />
<glyph unicode="&#x1f4;" horiz-adv-x="1306" d="M104 504q0 261 98 493t266 372t361 140q192 0 311.5 -120.5t119.5 -315.5v-49h-158q-23 309 -299 309q-109 0 -206.5 -63.5t-168 -172.5t-111.5 -260.5t-41 -320.5q0 -190 81 -287.5t239 -97.5q168 0 291 120t168 365h-375l29 170h528l-135 -786h-107l-6 190 q-100 -118 -207.5 -173.5t-238.5 -55.5q-87 0 -159.5 29.5t-123.5 80.5t-86.5 120t-52.5 148t-17 165zM786 1595l172 248h203l-262 -248h-113z" />
<glyph unicode="&#x1f5;" d="M-12 -131h147q5 -90 44.5 -130t123.5 -40q133 0 207.5 83t110.5 294l8 43q-59 -78 -122.5 -114t-146.5 -36q-139 0 -216.5 107t-77.5 301q0 198 63 365t172 263.5t238 96.5q89 0 141.5 -42t93.5 -147l29 158h139l-172 -983q-47 -278 -170.5 -408.5t-327.5 -130.5 q-143 0 -213.5 71t-70.5 228v21zM217 379q0 -120 46.5 -187t129.5 -67q139 0 232.5 154.5t93.5 404.5q0 256 -182 256q-103 0 -177.5 -83.5t-108.5 -208t-34 -269.5zM537 1196l180 289h203l-271 -289h-112z" />
<glyph unicode="&#x1fa;" horiz-adv-x="1120" d="M-59 0l710 1470h185l180 -1470h-178l-45 428h-484l-200 -428h-168zM391 604h375l-68 653zM588 1761q13 72 81 120t156 48q89 0 139 -48.5t37 -123.5q-12 -72 -79 -120t-156 -48t-139.5 48.5t-38.5 123.5zM678 1761q-6 -42 22.5 -70t77.5 -28t88 27.5t45 66.5 q7 41 -21.5 69.5t-76.5 28.5q-47 0 -87.5 -28t-47.5 -66zM774 1970l174 248h203l-264 -248h-113z" />
<glyph unicode="&#x1fb;" d="M20 207q0 161 91.5 273t240.5 134l250 37q49 7 76 51.5t27 116.5q0 65 -45.5 99t-131.5 34q-97 0 -151.5 -46.5t-89.5 -160.5h-135q41 182 143 269.5t270 87.5q136 0 213.5 -63t77.5 -173q0 -33 -6 -63l-111 -639q0 -41 39 -41q17 0 53 8l-24 -131l-19 -6 q-38 -14 -69 -14q-62 0 -94.5 29.5t-32.5 84.5q0 13 4 49q-88 -92 -168 -133t-174 -41q-109 0 -171.5 64t-62.5 174zM178 248q0 -63 33 -96t96 -33q112 0 206.5 74.5t113.5 177.5l30 176q-26 -21 -73 -33.5t-183 -34.5q-117 -20 -170 -75t-53 -156zM403 1362q13 72 81.5 120 t156.5 48q89 0 139 -48.5t37 -123.5q-12 -72 -79 -120t-156 -48t-140 48.5t-39 123.5zM494 1362q-6 -42 22.5 -70t77.5 -28t88 27.5t45 66.5q7 41 -21.5 69.5t-76.5 28.5q-47 0 -87.5 -28t-47.5 -66zM590 1571l174 248h203l-265 -248h-112z" />
<glyph unicode="&#x1fc;" horiz-adv-x="1679" d="M-68 0l746 1470h1081l-30 -176h-656l-78 -450h598l-30 -176h-598l-86 -492h667l-30 -176h-830l74 428h-445l-206 -428h-177zM406 604h385l120 690h-161zM979 1595l172 248h203l-262 -248h-113z" />
<glyph unicode="&#x1fd;" horiz-adv-x="1492" d="M20 207q0 161 91.5 273t240.5 134l250 37q49 7 76 51.5t27 116.5q0 65 -45.5 99t-131.5 34q-96 0 -151 -47t-90 -160h-135q42 187 146 272t280 85q97 0 151 -32t107 -120q86 86 153.5 119t159.5 33q77 0 135.5 -30t93 -83.5t51.5 -119.5t17 -144q0 -84 -23 -248h-641 q-12 -76 -12 -127q0 -104 53.5 -164.5t145.5 -60.5q91 0 166.5 59.5t103.5 151.5h147q-59 -174 -177 -270.5t-273 -96.5q-120 0 -188 52t-103 172q-92 -120 -181.5 -172t-203.5 -52q-113 0 -176.5 63t-63.5 175zM178 250q0 -131 129 -131q112 0 206.5 74.5t113.5 177.5 l30 176q-25 -22 -69.5 -33.5t-186.5 -34.5q-116 -19 -169.5 -74.5t-53.5 -154.5zM807 621h489q4 74 4 96q0 103 -50 163t-136 60q-106 0 -191 -88.5t-116 -230.5zM817 1196l180 289h203l-270 -289h-113z" />
<glyph unicode="&#x1fe;" horiz-adv-x="1306" d="M-10 18l172 185q-38 93 -53 165.5t-15 170.5q0 145 35.5 287.5t102.5 264.5t157 216.5t206.5 148t242.5 53.5q123 0 209.5 -42.5t156.5 -139.5l168 182l41 -61l-172 -186q37 -92 50.5 -162.5t13.5 -167.5q0 -145 -35.5 -287.5t-102.5 -265t-156.5 -216.5t-205.5 -148 t-242 -54q-122 0 -208 41.5t-156 136.5l-166 -178zM264 565q0 -107 33 -215l774 834q-51 78 -114 113.5t-152 35.5q-111 0 -212 -63.5t-172.5 -169t-114 -246t-42.5 -289.5zM332 283q51 -77 113 -111.5t149 -34.5q111 0 212 64t172.5 169.5t114 246.5t42.5 290 q0 102 -33 205zM793 1595l172 248h202l-262 -248h-112z" />
<glyph unicode="&#x1ff;" horiz-adv-x="1026" d="M-33 8l133 148q-25 64 -34 113.5t-9 117.5q0 134 41 263.5t109.5 229t167 161t205.5 61.5q83 0 141 -31t108 -102l134 147l43 -53l-144 -160q39 -110 39 -217q0 -180 -68 -344.5t-189.5 -267.5t-264.5 -103q-80 0 -138.5 29.5t-105.5 93.5l-125 -139zM213 403 q0 -49 10 -110l492 547q-29 57 -67.5 81.5t-96.5 24.5q-89 0 -167 -72.5t-124.5 -198.5t-46.5 -272zM250 221q50 -94 158 -94q88 0 166.5 72t126 197.5t47.5 271.5q0 34 -11 96zM584 1196l180 289h203l-271 -289h-112z" />
<glyph unicode="&#x200;" horiz-adv-x="1120" d="M-59 0l710 1470h185l180 -1470h-178l-45 428h-484l-200 -428h-168zM391 604h375l-68 653zM391 1886h182l101 -289h-113zM692 1886h185l98 -289h-113z" />
<glyph unicode="&#x201;" d="M20 207q0 161 91.5 273t240.5 134l250 37q49 7 76 51.5t27 116.5q0 65 -45.5 99t-131.5 34q-97 0 -151.5 -46.5t-89.5 -160.5h-135q41 182 143 269.5t270 87.5q136 0 213.5 -63t77.5 -173q0 -33 -6 -63l-111 -639q0 -41 39 -41q17 0 53 8l-24 -131l-19 -6 q-38 -14 -69 -14q-62 0 -94.5 29.5t-32.5 84.5q0 13 4 49q-88 -92 -168 -133t-174 -41q-109 0 -171.5 64t-62.5 174zM178 248q0 -63 33 -96t96 -33q112 0 206.5 74.5t113.5 177.5l30 176q-26 -21 -73 -33.5t-183 -34.5q-117 -20 -170 -75t-53 -156zM207 1487h182l100 -289 h-112zM508 1487h184l99 -289h-113z" />
<glyph unicode="&#x204;" horiz-adv-x="1120" d="M63 0l256 1470h879l-31 -176h-714l-80 -450h661l-30 -176h-662l-84 -492h727l-31 -176h-891zM406 1886h182l100 -289h-113zM707 1886h184l98 -289h-112z" />
<glyph unicode="&#x205;" d="M59 352q0 195 67.5 366t191 277.5t274.5 106.5q78 0 136.5 -30t93 -83.5t51 -119.5t16.5 -144q0 -84 -23 -248h-641q-12 -77 -12 -127q0 -104 53.5 -164.5t147.5 -60.5q89 0 164.5 59.5t103.5 151.5h147q-59 -173 -176.5 -270t-271.5 -97t-238 100t-84 283zM219 1487h182 l101 -289h-113zM250 621h489q4 74 4 96q0 103 -50 163t-136 60q-106 0 -190.5 -88t-116.5 -231zM520 1487h185l98 -289h-113z" />
<glyph unicode="&#x208;" horiz-adv-x="466" d="M55 1886h183l100 -289h-113zM72 0l256 1470h161l-256 -1470h-161zM356 1886h185l98 -289h-113z" />
<glyph unicode="&#x209;" horiz-adv-x="466" d="M-14 1487h182l100 -289h-112zM78 0l186 1071h148l-187 -1071h-147zM287 1487h184l98 -289h-112z" />
<glyph unicode="&#x20c;" horiz-adv-x="1306" d="M94 535q0 149 36 293.5t103 266.5t157 215.5t205 146t239 52.5q224 0 347.5 -150.5t123.5 -424.5q0 -122 -25.5 -243t-71.5 -228t-113.5 -199.5t-148 -159.5t-179 -105t-202.5 -38q-226 0 -348.5 151t-122.5 423zM264 561q0 -198 88 -311t242 -113q147 0 272 105.5 t197 284t72 384.5q0 197 -88.5 309.5t-243.5 112.5q-146 0 -270 -103.5t-196.5 -281.5t-72.5 -387zM473 1886h182l101 -289h-113zM774 1886h184l99 -289h-113z" />
<glyph unicode="&#x20d;" d="M57 387q0 134 40.5 264t109.5 229.5t166.5 160.5t204.5 61q151 0 236 -110t85 -304q0 -135 -40.5 -265t-108.5 -229.5t-166 -161t-205 -61.5q-151 0 -236.5 110.5t-85.5 305.5zM211 406q0 -135 51 -207t146 -72q94 0 172.5 79.5t121.5 202.5t43 257q0 135 -50.5 207.5 t-145.5 72.5q-94 0 -173 -79t-122 -202.5t-43 -258.5zM219 1487h182l101 -289h-113zM520 1487h185l98 -289h-113z" />
<glyph unicode="&#x210;" horiz-adv-x="1212" d="M66 0l256 1470h559q164 0 250 -74.5t86 -217.5q0 -150 -57 -260.5t-181 -194.5q60 -34 81 -71.5t21 -112.5q0 -47 -6 -93l-37 -266q-6 -44 -6 -69t9 -41.5t32 -36.5l-6 -33h-201v35q0 120 37 334q10 68 10 102q0 78 -46 119t-134 41h-395l-109 -631h-163zM369 801h376 q147 0 222 88t75 241q0 86 -44 128t-136 42h-407zM395 1886h183l100 -289h-113zM696 1886h185l98 -289h-113z" />
<glyph unicode="&#x211;" horiz-adv-x="559" d="M31 1487h182l100 -289h-112zM47 0l186 1071h140l-33 -184q80 117 145.5 166t143.5 49q19 0 37 -6l-33 -187h-55q-97 0 -175 -81t-100 -205l-108 -623h-148zM332 1487h184l98 -289h-112z" />
<glyph unicode="&#x214;" horiz-adv-x="1212" d="M125 360q0 75 10 129l172 981h162l-160 -925q-12 -65 -12 -131q0 -134 64.5 -205.5t185.5 -71.5q150 0 249.5 105.5t133.5 298.5l164 929h161l-165 -954q-44 -254 -201.5 -404.5t-378.5 -150.5q-184 0 -284.5 104t-100.5 295zM428 1886h182l101 -289h-113zM729 1886h184 l99 -289h-113z" />
<glyph unicode="&#x215;" d="M76 211q0 49 8 90l133 770h150l-125 -711q-6 -41 -6 -81q0 -75 35 -114.5t102 -39.5q110 0 192 96t111 260l102 590h148l-187 -1071h-139l29 166q-78 -110 -146.5 -153.5t-165.5 -43.5q-115 0 -178 63t-63 179zM219 1487h182l101 -289h-113zM520 1487h185l98 -289h-113z " />
<glyph unicode="&#x218;" horiz-adv-x="1120" d="M70 322q0 68 14 153h154q-9 -55 -9 -94q0 -117 76.5 -183.5t208.5 -66.5q166 0 263 84t97 229q0 74 -47.5 116t-171.5 79l-233 70q-205 62 -205 264q0 142 64.5 264t184 197t267.5 75q180 0 280.5 -91t100.5 -253q0 -60 -8 -125h-154q4 54 4 68q0 107 -67 169t-184 62 q-141 0 -231.5 -85t-90.5 -218q0 -107 115 -141l325 -96q215 -63 215 -295q0 -242 -156.5 -392.5t-406.5 -150.5q-190 0 -297.5 100.5t-107.5 260.5zM299 -586l14 80q87 9 111 176h-82l37 207h158l-33 -192q-22 -123 -76 -194t-129 -77z" />
<glyph unicode="&#x219;" horiz-adv-x="839" d="M25 238q0 49 8 106h143q-4 -46 -4 -59q0 -76 50.5 -118t142.5 -42q105 0 172 55.5t67 143.5q0 43 -33.5 71t-117.5 54l-162 51q-162 52 -162 200q0 169 116 285.5t283 116.5q129 0 204 -71t75 -195q0 -12 -4 -70h-144l5 45q0 64 -45 99.5t-125 35.5q-95 0 -154 -51 t-59 -133q0 -40 28 -63t107 -48l141 -45q107 -35 155 -87t48 -132q0 -174 -123.5 -296t-300.5 -122q-149 0 -230 70.5t-81 198.5zM162 -586l14 80q87 9 111 176h-82l37 207h157l-32 -192q-22 -123 -76 -194t-129 -77z" />
<glyph unicode="&#x21a;" horiz-adv-x="1026" d="M168 1294l31 176h979l-31 -176h-408l-225 -1294h-164l225 1294h-407zM256 -586l14 80q87 9 111 176h-82l37 207h158l-33 -192q-22 -123 -76 -194t-129 -77z" />
<glyph unicode="&#x21b;" horiz-adv-x="466" d="M-25 -586l15 80q86 9 110 176h-82l37 207h158l-33 -192q-22 -123 -76 -194t-129 -77zM90 129q0 47 8 86l123 707h-119l27 149h119l51 299h150l-54 -299h142l-27 -149h-141l-121 -697q-2 -8 -2 -24q0 -32 18 -46t58 -14h53l-25 -141q-116 -14 -123 -14q-66 0 -101.5 37 t-35.5 106z" />
<glyph unicode="&#x258;" d="M53 336h148q-4 -92 50.5 -151.5t143.5 -59.5q94 0 169 60.5t110 164.5q18 48 33 127h-641q33 167 63 248q57 164 167.5 270.5t262.5 106.5q113 0 191.5 -62.5t111.5 -166.5t25 -240t-58 -281q-65 -183 -183.5 -283t-272.5 -100q-153 0 -237.5 96.5t-82.5 270.5zM242 621 h489q19 143 -34.5 231t-159.5 88q-86 0 -158 -60t-107 -163q-6 -15 -15.5 -48.5t-14.5 -47.5z" />
<glyph unicode="&#x259;" d="M63 346q0 84 23 248h641q12 76 12 127q0 105 -53.5 165t-146.5 60q-89 0 -165 -59.5t-104 -151.5h-147q59 173 176.5 270t271.5 97t238 -100t84 -283q0 -195 -67.5 -366t-191 -277.5t-274.5 -106.5q-78 0 -136.5 30t-93 83.5t-51 119.5t-16.5 144zM209 354 q0 -103 50 -163t136 -60q105 0 190 88.5t117 231.5h-489q-4 -74 -4 -97z" />
<glyph unicode="&#x2be;" horiz-adv-x="759" d="M186 860q1 8 2 29t2 31q0 7 6.5 12.5t14.5 5.5h94q11 0 14 -14q2 -75 24 -107.5t75 -32.5q60 0 106.5 53t70 134.5t23.5 175.5q0 149 -106 149q-100 0 -156 -157q-4 -13 -18 -13h-96q-6 0 -10 6t-1 13q85 287 304 287q103 0 162.5 -71.5t60.5 -197.5q0 -135 -48 -254 t-135.5 -192.5t-193.5 -73.5q-89 0 -141.5 58t-53.5 159z" />
<glyph unicode="&#x2bf;" horiz-adv-x="759" d="M201 911q0 135 48 254t135.5 193t193.5 74q89 0 140.5 -58.5t51.5 -159.5q0 -34 -4 -59q1 -7 -4.5 -12.5t-13.5 -5.5h-95q-14 0 -14 14q-3 76 -24 107.5t-74 31.5q-60 0 -107 -52.5t-70.5 -134.5t-23.5 -175q0 -150 106 -150q100 0 156 158q4 12 19 12h96q6 0 9.5 -5.5 t0.5 -12.5q-85 -287 -303 -287q-103 0 -163 71.5t-60 196.5z" />
<glyph unicode="&#x2c6;" horiz-adv-x="559" d="M164 1198l217 289h156l114 -289h-133l-78 191l-143 -191h-133z" />
<glyph unicode="&#x2c7;" horiz-adv-x="559" d="M213 1487h133l78 -191l143 191h133l-217 -289h-155z" />
<glyph unicode="&#x2d8;" horiz-adv-x="559" d="M197 1421l2 60h82q8 -85 43.5 -123.5t109.5 -38.5q75 0 120 36t83 126h80q-44 -146 -120 -212.5t-194 -66.5q-100 0 -155 56.5t-51 162.5z" />
<glyph unicode="&#x2d9;" horiz-adv-x="559" d="M328 1243l34 197h177l-35 -197h-176z" />
<glyph unicode="&#x2da;" horiz-adv-x="559" d="M225 1343q12 72 80 120t156 48q90 0 140 -48.5t38 -123.5q-12 -72 -79.5 -120t-158.5 -48q-89 0 -139 48.5t-37 123.5zM315 1343q-7 -41 22 -69.5t79 -28.5q49 0 88 27.5t45 66.5q8 41 -21.5 70t-78.5 29q-47 0 -87.5 -28.5t-46.5 -66.5z" />
<glyph unicode="&#x2db;" horiz-adv-x="559" d="M133 -303q0 87 42.5 157t135.5 146h146q-88 -72 -127 -126t-39 -110q0 -86 94 -86h64l-23 -149h-72q-92 0 -156.5 46t-64.5 122z" />
<glyph unicode="&#x2dc;" horiz-adv-x="559" d="M123 1223q35 114 86.5 166.5t126.5 52.5q48 0 108 -31l35 -18q52 -27 78 -27q34 0 55.5 21.5t40.5 72.5h84q-34 -109 -87 -166t-122 -57q-30 0 -92 27l-41 18q-73 31 -96 31q-31 0 -52.5 -20.5t-43.5 -69.5h-80z" />
<glyph unicode="&#x2dd;" horiz-adv-x="559" d="M201 1198l198 289h185l-271 -289h-112zM502 1198l200 289h183l-271 -289h-112z" />
<glyph unicode="&#x300;" horiz-adv-x="0" d="M-565 1485h203l79 -289h-112z" />
<glyph unicode="&#x301;" horiz-adv-x="0" d="M-395 1196l180 289h203l-271 -289h-112z" />
<glyph unicode="&#x302;" horiz-adv-x="0" d="M-582 1198l217 289h156l115 -289h-133l-78 191l-144 -191h-133z" />
<glyph unicode="&#x303;" horiz-adv-x="0" d="M-623 1223q35 114 86.5 166.5t126.5 52.5q49 0 109 -31l35 -18q52 -27 78 -27q34 0 55.5 21.5t40.5 72.5h84q-34 -109 -87 -166t-122 -57q-31 0 -92 27l-41 18q-73 31 -96 31q-31 0 -53 -20.5t-44 -69.5h-80z" />
<glyph unicode="&#x304;" horiz-adv-x="0" d="M-588 1284l21 117h526l-20 -117h-527z" />
<glyph unicode="&#x306;" horiz-adv-x="0" d="M-549 1421l2 60h82q8 -85 43.5 -123.5t110.5 -38.5q74 0 118.5 36t83.5 126h80q-44 -146 -119.5 -212.5t-193.5 -66.5q-100 0 -155.5 57t-51.5 162z" />
<glyph unicode="&#x307;" horiz-adv-x="0" d="M-418 1243l35 197h176l-35 -197h-176z" />
<glyph unicode="&#x308;" horiz-adv-x="0" d="M-586 1243l35 197h180l-35 -197h-180zM-256 1243l35 197h180l-35 -197h-180z" />
<glyph unicode="&#x309;" horiz-adv-x="0" d="M-516 1348q15 92 78 140t168 48q93 0 141 -38t37 -103q-6 -39 -30.5 -66t-84.5 -61q-46 -30 -59.5 -41.5t-16.5 -24.5l-8 -49h-115l11 55q6 37 31 61t88 58q66 40 69 68q5 22 -18.5 36.5t-65.5 14.5q-62 0 -88 -29q-15 -15 -24 -69h-113z" />
<glyph unicode="&#x30a;" horiz-adv-x="0" d="M-520 1343q12 72 79.5 120t155.5 48q91 0 141 -48.5t38 -123.5q-12 -72 -79.5 -120t-158.5 -48q-89 0 -139 48.5t-37 123.5zM-430 1343q-7 -41 21.5 -69.5t78.5 -28.5q49 0 88 27.5t45 66.5q8 41 -21.5 70t-78.5 29q-47 0 -87 -28.5t-46 -66.5z" />
<glyph unicode="&#x30b;" horiz-adv-x="0" d="M-545 1198l199 289h184l-270 -289h-113zM-244 1198l201 289h182l-270 -289h-113z" />
<glyph unicode="&#x30c;" horiz-adv-x="0" d="M-532 1487h133l77 -191l144 191h133l-217 -289h-156z" />
<glyph unicode="&#x30f;" horiz-adv-x="0" d="M-715 1487h183l100 -289h-113zM-414 1487h185l98 -289h-113z" />
<glyph unicode="&#x311;" horiz-adv-x="0" d="M-596 1202q44 146 119.5 212.5t193.5 66.5q100 0 155.5 -57t51.5 -162l-2 -60h-82q-8 85 -43.5 123.5t-109.5 38.5q-75 0 -120 -36t-83 -126h-80z" />
<glyph unicode="&#x323;" horiz-adv-x="0" d="M-698 -369l32 197h177l-33 -197h-176z" />
<glyph unicode="&#x326;" horiz-adv-x="0" d="M-727 -586l14 80q87 9 111 176h-82l37 207h158l-33 -192q-22 -123 -76 -194t-129 -77z" />
<glyph unicode="&#x32e;" horiz-adv-x="0" d="M-852 -152h82v-14q31 -52 71 -79t107 -27q72 0 117 28.5t80 91.5h100q-56 -119 -134 -178t-194 -59q-112 0 -165 59t-64 178z" />
<glyph unicode="&#x32f;" horiz-adv-x="0" d="M-895 -389q56 119 134 178t194 59q112 0 165 -59t64 -178h-82v14q-32 52 -72 79.5t-106 27.5q-72 0 -117 -29t-80 -92h-100z" />
<glyph unicode="&#x330;" horiz-adv-x="0" d="M-903 -389q35 114 86.5 166.5t126.5 52.5q48 0 108 -31l35 -18q52 -27 78 -27q34 0 55.5 21.5t40.5 72.5h84q-34 -109 -87 -166t-122 -57q-30 0 -92 27l-41 18q-73 31 -96 31q-31 0 -52.5 -20.5t-43.5 -69.5h-80z" />
<glyph unicode="&#x331;" horiz-adv-x="0" d="M-868 -328l20 117h526l-20 -117h-526z" />
<glyph unicode="&#x332;" horiz-adv-x="0" d="M-868 -328l20 117h526l-20 -117h-526z" />
<glyph unicode="&#x391;" horiz-adv-x="1120" d="M-59 0l710 1470h185l180 -1470h-178l-45 428h-484l-200 -428h-168zM391 604h375l-68 653z" />
<glyph unicode="&#x392;" horiz-adv-x="1120" d="M43 0l256 1470h530q132 0 207.5 -76.5t75.5 -211.5q0 -124 -55.5 -224t-165.5 -165q91 -49 127.5 -108.5t36.5 -156.5q0 -145 -65.5 -266.5t-179 -191.5t-249.5 -70h-518zM236 170h346q136 0 221.5 92t85.5 238q0 186 -244 186h-319zM352 848h295q146 0 221.5 79 t75.5 216q0 157 -217 157h-295z" />
<glyph unicode="&#x393;" horiz-adv-x="1026" d="M63 0l256 1470h834l-31 -176h-671l-226 -1294h-162z" />
<glyph unicode="&#x394;" horiz-adv-x="1028" d="M-72 0l684 1438h142l182 -1438h-1008zM152 147h612l-129 1014z" />
<glyph unicode="&#x395;" horiz-adv-x="1120" d="M63 0l256 1470h879l-31 -176h-714l-80 -450h661l-30 -176h-662l-84 -492h727l-31 -176h-891z" />
<glyph unicode="&#x396;" horiz-adv-x="1026" d="M-43 0l29 166l936 1128h-684l30 176h893l-31 -172l-935 -1122h741l-31 -176h-948z" />
<glyph unicode="&#x397;" horiz-adv-x="1212" d="M47 0l256 1470h164l-107 -608h631l105 608h164l-256 -1470h-164l121 686h-631l-119 -686h-164z" />
<glyph unicode="&#x398;" horiz-adv-x="1306" d="M94 535q0 149 36 293.5t103 266.5t157 215.5t205 146t239 52.5q224 0 347.5 -150.5t123.5 -424.5q0 -122 -25.5 -243t-71.5 -228t-113.5 -199.5t-148 -159.5t-179 -105t-202.5 -38q-226 0 -348.5 151t-122.5 423zM264 561q0 -198 88 -311t242 -113q147 0 272 105.5 t197 284t72 384.5q0 197 -88.5 309.5t-243.5 112.5q-146 0 -270 -103.5t-196.5 -281.5t-72.5 -387zM465 662l27 147h442l-27 -147h-442z" />
<glyph unicode="&#x399;" horiz-adv-x="466" d="M72 0l256 1470h161l-256 -1470h-161z" />
<glyph unicode="&#x39a;" horiz-adv-x="1120" d="M45 0l256 1470h164l-125 -712l709 712h225l-606 -593l362 -877h-211l-293 737l-229 -221l-88 -516h-164z" />
<glyph unicode="&#x39b;" horiz-adv-x="1120" d="M-59 0l710 1470h185l180 -1470h-178l-140 1257l-589 -1257h-168z" />
<glyph unicode="&#x39c;" horiz-adv-x="1398" d="M41 0l256 1470h233l129 -1249l562 1249h231l-256 -1470h-158l152 868l70 379l-562 -1247h-159l-127 1245l-47 -282q-11 -59 -15 -95l-151 -868h-158z" />
<glyph unicode="&#x39d;" horiz-adv-x="1212" d="M45 0l256 1470h195l397 -1194l209 1194h158l-256 -1470h-185l-407 1194l-209 -1194h-158z" />
<glyph unicode="&#x39e;" horiz-adv-x="1212" d="M-8 0l28 164h1065l-28 -164h-1065zM219 1307l29 163h1065l-29 -163h-1065zM274 662l25 147h733l-26 -147h-732z" />
<glyph unicode="&#x39f;" horiz-adv-x="1306" d="M94 535q0 149 36 293.5t103 266.5t157 215.5t205 146t239 52.5q224 0 347.5 -150.5t123.5 -424.5q0 -122 -25.5 -243t-71.5 -228t-113.5 -199.5t-148 -159.5t-179 -105t-202.5 -38q-226 0 -348.5 151t-122.5 423zM264 561q0 -198 88 -311t242 -113q147 0 272 105.5 t197 284t72 384.5q0 197 -88.5 309.5t-243.5 112.5q-146 0 -270 -103.5t-196.5 -281.5t-72.5 -387z" />
<glyph unicode="&#x3a0;" horiz-adv-x="1212" d="M47 0l256 1470h957l-256 -1470h-164l225 1294h-629l-225 -1294h-164z" />
<glyph unicode="&#x3a1;" horiz-adv-x="1120" d="M63 0l256 1470h543q135 0 214 -84t79 -229q0 -140 -56.5 -262.5t-159 -198t-226.5 -75.5h-379l-109 -621h-162zM365 791h323q143 0 220 91.5t77 241.5q0 176 -203 176h-329z" />
<glyph unicode="&#x3a3;" horiz-adv-x="1032" d="M-20 0l28 168l553 567l-354 568l29 167h909l-31 -178h-672l349 -557l-543 -557h672l-31 -178h-909z" />
<glyph unicode="&#x3a4;" horiz-adv-x="1026" d="M168 1294l31 176h979l-31 -176h-408l-225 -1294h-164l225 1294h-407z" />
<glyph unicode="&#x3a5;" horiz-adv-x="1120" d="M199 1470h190l221 -706l471 706h191l-608 -878l-103 -592h-164l103 592z" />
<glyph unicode="&#x3a6;" horiz-adv-x="1277" d="M158 735q30 172 180 293.5t342 147.5l51 294h162l-51 -294q89 -12 163.5 -49.5t125 -94t72.5 -134t7 -163.5q-30 -172 -180 -293t-342 -147l-51 -295h-162l51 295q-120 16 -210 74.5t-134 154.5t-24 211zM309 735q-19 -111 51.5 -186t192.5 -96l100 565 q-130 -21 -227 -97t-117 -186zM715 453q130 21 227 96.5t117 185.5q19 111 -51.5 186.5t-192.5 96.5z" />
<glyph unicode="&#x3a7;" horiz-adv-x="1120" d="M-49 0l561 754l-279 716h205l207 -563l404 563h194l-528 -716l291 -754h-201l-219 604l-439 -604h-196z" />
<glyph unicode="&#x3a8;" horiz-adv-x="1249" d="M217 1071l70 399h151l-69 -399q-28 -159 26 -286t174 -160l148 845h162l-148 -845q132 35 230.5 161t125.5 285l70 399h152l-70 -399q-37 -224 -187.5 -397.5t-346.5 -208.5l-82 -465h-162l82 465q-123 23 -207 112t-114 218.5t-5 275.5z" />
<glyph unicode="&#x3a9;" horiz-adv-x="1298" d="M-20 0l30 178h326l20 117q-87 67 -134.5 178.5t-47.5 245.5q0 141 53 280.5t140 246.5t209 174t251 67q131 0 229.5 -68.5t148.5 -182.5t50 -255q0 -206 -104 -396t-270 -290l-21 -117h326l-31 -178h-489l71 410q99 30 180.5 114t127 196.5t45.5 227.5q0 154 -78.5 257.5 t-214.5 103.5q-92 0 -177 -49.5t-145.5 -128t-96.5 -179.5t-36 -202q0 -122 52.5 -215.5t146.5 -124.5l-72 -410h-489z" />
<glyph unicode="&#x3b1;" horiz-adv-x="1300" d="M112.5 347q-4.5 82 8.5 171q27 155 105 290t199.5 220.5t258.5 85.5q131 0 208.5 -88.5t111.5 -237.5q91 217 161 318l121 -70q-54 -75 -104 -173.5t-76 -160.5t-74 -184q10 -289 78 -483l-143 -70q-45 124 -58 295q-187 -303 -428 -303q-80 0 -147.5 30t-112.5 83 t-74.5 124t-34 153zM268 518q-19 -106 2.5 -197.5t83.5 -149.5t154 -58q226 0 389 405q-2 71 -8 128t-22.5 118t-41.5 101.5t-68 66.5t-100 26q-73 0 -139.5 -37t-116 -99.5t-84 -140.5t-49.5 -163z" />
<glyph unicode="&#x3b2;" horiz-adv-x="1005" d="M-63 -471l272 1561q32 186 154.5 293.5t302.5 107.5q161 0 252.5 -78.5t91.5 -216.5q0 -240 -197 -377q68 -30 104.5 -100t36.5 -166q0 -107 -37.5 -211t-103 -187t-164.5 -134.5t-213 -51.5q-146 0 -264 62l-88 -502h-147zM197 178q118 -47 254 -47q159 0 252.5 108 t93.5 281q0 205 -246 205q-39 0 -66 -8l29 162q25 -5 45 -5q133 0 215 77t82 202q0 88 -57.5 135t-163.5 47q-123 0 -192 -69.5t-95 -221.5z" />
<glyph unicode="&#x3b3;" horiz-adv-x="1073" d="M217 1071h156l125 -829l411 829h156l-539 -1083l-80 -459h-147l80 459z" />
<glyph unicode="&#x3b4;" horiz-adv-x="944" d="M49 344q0 193 128.5 344t322.5 203q-66 64 -102 120t-36 122q0 131 101 234t225 103q157 0 254 -102l-106 -117q-75 62 -174 62q-60 0 -105 -51t-45 -115q0 -31 10.5 -58.5t35.5 -53.5t43 -41.5t56 -43.5t52 -39q85 -68 131.5 -166.5t46.5 -212.5q0 -51 -8 -92 q-33 -192 -175.5 -331.5t-318.5 -139.5q-153 0 -244.5 107.5t-91.5 267.5zM201 375q0 -105 57 -176.5t154 -71.5q114 0 204.5 93t112.5 220q6 37 6 74q0 85 -34 157t-97 122q-157 0 -280 -126.5t-123 -291.5z" />
<glyph unicode="&#x3b5;" horiz-adv-x="1030" d="M92 354q32 167 238 236q-142 84 -117 235q25 137 142.5 231.5t258.5 94.5q189 0 357 -137l-88 -101q-102 82 -295 82q-80 0 -147.5 -48.5t-80.5 -121.5q-10 -54 15 -92t78 -57t112 -27t133 -8l-22 -125q-54 0 -83 -0.5t-79.5 -3.5t-80 -9t-68 -17.5t-60.5 -28.5 t-40.5 -43t-24.5 -60q-21 -118 58.5 -198t207.5 -80q166 0 280 78l60 -95q-196 -139 -369 -139q-124 0 -219.5 56.5t-141 157t-24.5 220.5z" />
<glyph unicode="&#x3b6;" horiz-adv-x="878" d="M112.5 375.5q-0.5 78.5 12.5 161.5q41 241 191 454.5t372 356.5h-422l21 125h708l-20 -125h-80q-243 -113 -410.5 -333t-212.5 -478q-16 -71 -12 -140t20.5 -123.5t58 -88t101.5 -33.5h62q114 0 172.5 -93.5t36.5 -220.5q-22 -124 -113.5 -214.5t-204.5 -90.5l25 139 q54 0 94 49.5t51 116.5q11 64 -13 111t-77 47h-61q-72 0 -129 30t-92.5 81.5t-56.5 120.5t-21.5 147.5z" />
<glyph unicode="&#x3b7;" d="M31 0l100 580q-15 127 45 247l41 244h148l-7 -35q118 78 250 78q94 0 160 -56.5t90.5 -147t5.5 -195.5l-207 -1186h-147l207 1186q16 99 -19.5 171t-117.5 72q-72 0 -139 -31t-115 -85l-148 -842h-147z" />
<glyph unicode="&#x3b8;" horiz-adv-x="972" d="M156 719q18 104 38.5 190.5t51 182t70 167t90 131.5t117.5 91.5t145 31.5q68 0 119 -25t82 -66t49 -103.5t23 -128.5t1 -149.5t-14 -158.5t-25 -163q-132 -762 -506 -762q-373 0 -241 762zM260 323.5q2 -42.5 11.5 -84t28.5 -68t50 -42.5t74 -16q50 0 91.5 20t72.5 60 t54.5 85.5t42.5 111t31.5 121t26.5 130.5h-452q-11 -63 -18 -111.5t-11 -106t-2 -100zM317 797h453q11 68 18 117.5t12 112t3.5 106.5t-10.5 89t-27.5 73t-50 45.5t-74.5 17.5q-50 0 -92 -21.5t-73.5 -64.5t-55.5 -91t-43.5 -118.5t-32.5 -128.5t-27 -137z" />
<glyph unicode="&#x3b9;" horiz-adv-x="608" d="M199 322l131 749h147l-131 -749q-14 -87 6 -148t82 -61l-28 -156q-81 0 -134.5 53t-71 135t-1.5 177z" />
<glyph unicode="&#x3ba;" horiz-adv-x="839" d="M31 0l186 1071h143l-79 -453l456 453h189l-406 -399l240 -672h-191l-178 541l-147 -135l-70 -406h-143z" />
<glyph unicode="&#x3bb;" horiz-adv-x="1150" d="M31 0l635 971l-11 76q-11 77 -37.5 137.5t-78.5 101.5t-121 41l24 139q149 0 244.5 -105t118.5 -265l151 -1096h-155l-107 762l-499 -762h-164z" />
<glyph unicode="&#x3bc;" horiz-adv-x="1159" d="M61 -471l269 1542h147l-125 -717q4 -241 166 -241q164 0 248 241l125 717h147l-186 -1071h-147l10 55q-101 -98 -226 -98q-122 0 -188 98l-92 -526h-148z" />
<glyph unicode="&#x3bd;" horiz-adv-x="956" d="M162 1071h155l148 -909q132 109 218 252.5t114 300.5q29 174 20 356h152q8 -159 -25 -356q-38 -220 -171 -414.5t-333 -323.5l-106 37z" />
<glyph unicode="&#x3be;" d="M106 438q21 115 93.5 211t177.5 156q-68 52 -99 130.5t-16 170.5q27 145 154 242h-150l21 125h708l-20 -125h-307q-97 -21 -169 -86.5t-89 -155.5q-17 -98 48 -166t169 -68l-25 -139q-122 0 -224 -86t-124 -209q-19 -117 32 -201.5t154 -84.5h62q114 0 172.5 -93.5 t36.5 -220.5q-22 -124 -113.5 -214.5t-204.5 -90.5l25 139q54 0 94 49.5t51 116.5q11 64 -13 111t-77 47h-61q-108 0 -186.5 62t-109 163t-10.5 217z" />
<glyph unicode="&#x3bf;" d="M57 387q0 134 40.5 264t109.5 229.5t166.5 160.5t204.5 61q151 0 236 -110t85 -304q0 -135 -40.5 -265t-108.5 -229.5t-166 -161t-205 -61.5q-151 0 -236.5 110.5t-85.5 305.5zM211 406q0 -135 51 -207t146 -72q94 0 172.5 79.5t121.5 202.5t43 257q0 135 -50.5 207.5 t-145.5 72.5q-94 0 -173 -79t-122 -202.5t-43 -258.5z" />
<glyph unicode="&#x3c0;" horiz-adv-x="1150" d="M98 686q36 205 160.5 295t349.5 90h586l-29 -158h-102l-158 -913h-147l157 913h-260l-159 -913h-148l160 913q-111 0 -171.5 -55t-80.5 -172h-158z" />
<glyph unicode="&#x3c1;" horiz-adv-x="1064" d="M-51 -471l176 1008q26 150 97 279.5t183 213.5t240 84t211 -84t109 -213.5t0 -279.5t-97 -280.5t-183.5 -215t-240.5 -84.5q-156 0 -254 109l-94 -537h-147zM223 264q26 -71 93 -111t155 -40q54 0 103 24t87.5 64.5t70.5 95t53 115.5t32 125q16 78 10.5 154t-26.5 135 t-68.5 95.5t-114.5 36.5q-89 0 -163.5 -63t-119 -156t-63.5 -202z" />
<glyph unicode="&#x3c2;" d="M113.5 389q0.5 81 13.5 166q25 145 89 269.5t167.5 207t224.5 82.5q134 0 210 -100.5t48 -237.5l-131 2q15 75 -31 127.5t-124 52.5q-61 0 -114 -34.5t-90 -93.5t-62.5 -128.5t-39.5 -146.5q-16 -74 -13 -146t18.5 -129t57 -92.5t103.5 -35.5h62q114 0 172.5 -93.5 t36.5 -220.5q-22 -124 -113.5 -214.5t-204.5 -90.5l25 139q54 0 94 49.5t51 116.5q11 64 -13 111t-77 47h-61q-73 0 -130.5 31t-92 84.5t-55.5 125t-20.5 152.5z" />
<glyph unicode="&#x3c3;" horiz-adv-x="1107" d="M113 387q0 180 68 344.5t189 267.5t263 103q45 0 78 -8q165 12 417 90l23 -148q-110 -35 -272 -57q75 -107 75 -291q0 -135 -40.5 -265t-108.5 -229.5t-166 -161t-205 -61.5q-151 0 -236 110.5t-85 305.5zM266 406q0 -135 51 -207t146 -72q94 0 173 79.5t122 203 t43 256.5q0 135 -51 207.5t-146 72.5q-94 0 -173 -79t-122 -202.5t-43 -258.5z" />
<glyph unicode="&#x3c4;" horiz-adv-x="825" d="M190 920l29 155h598l-26 -155h-226l-104 -598q-15 -86 5 -147.5t81 -61.5l-27 -156q-82 0 -136 53t-71 135t0 177l105 598h-228z" />
<glyph unicode="&#x3c5;" d="M92 356l125 715h148l-125 -715q-8 -64 -0.5 -118t41 -89.5t86.5 -35.5q82 0 149.5 60t107.5 147.5t58 191.5q46 260 16 559h154q29 -263 -23 -559q-19 -107 -62.5 -205.5t-105.5 -177t-146.5 -125.5t-176.5 -47t-155 57t-86 147.5t-5 194.5z" />
<glyph unicode="&#x3c6;" horiz-adv-x="1437" d="M125 537q29 167 135 315t262 242l58 -115q-122 -73 -203 -191t-105 -251q-29 -160 61.5 -277t250.5 -141l69 393q20 116 56 218.5t89.5 191t131 140.5t168.5 52q71 0 123.5 -33t81.5 -88.5t42 -130.5t10 -156t-18 -169q-26 -147 -119 -273.5t-228 -206t-285 -96.5 l-76 -432h-148l76 432q-221 27 -346 190t-86 386zM731 119q167 24 298.5 141t160.5 277q12 68 18 121t4.5 112t-15 98t-45 64.5t-81.5 25.5q-44 0 -80 -17.5t-62.5 -52.5t-46.5 -74t-35.5 -94.5t-25.5 -101t-20 -106.5z" />
<glyph unicode="&#x3c7;" horiz-adv-x="1081" d="M-51 -471l481 772l-213 770h164l162 -590l366 590h164l-481 -770l213 -772h-164l-162 590l-366 -590h-164z" />
<glyph unicode="&#x3c8;" horiz-adv-x="1212" d="M92 356l125 715h148l-125 -715q-16 -97 50.5 -159t180.5 -78l236 1351h147l-236 -1351q120 16 209 78.5t105 158.5l125 715h147l-125 -715q-27 -157 -167 -265.5t-320 -129.5l-76 -432h-147l75 432q-113 14 -198.5 65.5t-128.5 138t-25 191.5z" />
<glyph unicode="&#x3c9;" horiz-adv-x="1267" d="M127 553q38 220 207 518h112q-117 -203 -172 -518q-7 -40 -10.5 -62t-9.5 -60.5t-8 -61.5t-4.5 -57t0 -55t6 -46.5t12 -41t20 -29.5t29 -20.5t39.5 -6.5q77 0 124.5 58t78.5 163q2 42 8.5 97t11 85.5t17 107.5t14.5 91h148q-48 -283 -50 -394q-5 -208 95 -208 q31 0 58 14.5t46.5 35.5t37 58.5t28.5 69.5t22.5 83.5t17.5 84.5l16 88q1 4 1 6q56 316 10 518h113q63 -297 24 -518q-102 -596 -401 -596q-158 0 -203 160q-95 -160 -243 -160q-297 0 -195 596z" />
<glyph unicode="&#x3d1;" horiz-adv-x="1046" d="M92 356l64 359h147l-63 -359q-18 -100 27.5 -173.5t135.5 -73.5t161 73.5t89 173.5l80 451q-108 12 -190 35t-148 63.5t-94.5 105.5t-13.5 152q27 150 131 259.5t235 109.5q105 0 176 -66t95 -170.5t2 -224.5l-27 -151h113l-21 -125l-112 2l-78 -441q-28 -161 -150 -278 t-272 -117q-151 0 -233 117t-54 278zM406 1163q-11 -63 11 -108t74 -71t115 -39t148 -19l24 145q13 62 9.5 122.5t-18 108.5t-50.5 77.5t-88 29.5q-82 0 -144.5 -73t-80.5 -173z" />
<glyph unicode="&#x3d5;" horiz-adv-x="1370" d="M125 537q24 143 111 267.5t215 204t270 97.5l63 364h150l-64 -364q136 -18 236 -98t144 -204t20 -267q-38 -219 -209 -381.5t-389 -190.5l-76 -436h-150l76 436q-136 18 -235.5 98t-143 205t-18.5 269zM272 537q-28 -157 51.5 -275.5t225.5 -146.5l145 841 q-155 -28 -274.5 -145.5t-147.5 -273.5zM698 115q155 28 276 146.5t148 275.5q28 155 -51 273t-225 146z" />
<glyph unicode="&#x3d6;" horiz-adv-x="1267" d="M127 553q38 220 207 518h112q-117 -203 -172 -518q-7 -40 -10.5 -62t-9.5 -60.5t-8 -61.5t-4.5 -57t0 -55t6 -46.5t12 -41t20 -29.5t29 -20.5t39.5 -6.5q77 0 124.5 58t78.5 163q2 42 8.5 97t11 85.5t17 107.5t14.5 91h148q-48 -283 -50 -394q-5 -208 95 -208 q31 0 58 14.5t46.5 35.5t37 58.5t28.5 69.5t22.5 83.5t17.5 84.5l16 88q1 4 1 6q15 85 24.5 150.5t15.5 146t3 140t-16.5 119t-40.5 97t-72 61t-107 23.5q-195 0 -393 -69l-20 100q219 78 432 78q103 0 176.5 -49t111.5 -129.5t53 -192t9 -228.5t-29 -247 q-102 -596 -401 -596q-158 0 -203 160q-95 -160 -243 -160q-297 0 -195 596z" />
<glyph unicode="&#x3f5;" horiz-adv-x="839" d="M43 352q0 195 67.5 366t192 277.5t277.5 106.5q123 0 195 -80t73 -219h-156q-13 73 -51 105t-109 32q-104 0 -183.5 -92.5t-117.5 -241.5h353l-25 -141h-352q-4 -62 -4 -96q0 -119 46 -181.5t134 -62.5q127 0 209 143h153q-129 -299 -389 -299q-146 0 -229.5 101.5 t-83.5 281.5z" />
<glyph unicode="&#x400;" horiz-adv-x="1120" d="M63 0l256 1470h879l-31 -176h-714l-80 -450h661l-30 -176h-662l-84 -492h727l-31 -176h-891zM686 1964h182l99 -289h-113z" />
<glyph unicode="&#x401;" horiz-adv-x="1120" d="M63 0l256 1470h879l-31 -176h-714l-80 -450h661l-30 -176h-662l-84 -492h727l-31 -176h-891zM553 1636l37 209h151l-34 -209h-154zM825 1636l35 209h154l-37 -209h-152z" />
<glyph unicode="&#x402;" horiz-adv-x="1271" d="M168 1294l31 176h815l-31 -176h-326l-84 -473q94 76 273 76q33 0 76.5 -7t98.5 -26t100.5 -47.5t76.5 -77.5t31 -110q0 -14 -6 -56l-101 -573q-11 -62 -47 -111t-82.5 -77.5t-103 -47.5t-102 -25.5t-85.5 -6.5v174q67 0 156.5 39.5t97.5 85.5l103 542l4 25q0 37 -48 67 t-105 44t-101 14q-72 0 -168.5 -40t-103.5 -83l-107 -600h-162l226 1294h-326z" />
<glyph unicode="&#x403;" horiz-adv-x="1026" d="M63 0l256 1470h834l-31 -176h-671l-226 -1294h-162zM373 1540l200 289h183l-271 -289h-112z" />
<glyph unicode="&#x404;" horiz-adv-x="1212" d="M121 733q63 356 252.5 566t447.5 210q135 0 232 -60.5t141 -172.5q25 -57 32.5 -109.5t2.5 -138.5h-158q-5 88 -20 136.5t-52 88.5q-78 78 -206 78q-167 0 -292.5 -128t-187.5 -359h568l-31 -178h-571q-34 -251 43 -389t251 -138q165 0 291 150q41 49 69.5 103t63.5 149 h158q-61 -173 -116.5 -267t-137.5 -165q-79 -71 -176.5 -109.5t-198.5 -38.5q-249 0 -358.5 208.5t-46.5 563.5z" />
<glyph unicode="&#x405;" horiz-adv-x="1120" d="M70 322q0 68 14 153h154q-9 -55 -9 -94q0 -117 76.5 -183.5t208.5 -66.5q166 0 263 84t97 229q0 74 -47.5 116t-171.5 79l-233 70q-205 62 -205 264q0 88 32.5 182t88.5 166q141 188 395 188q180 0 280.5 -91t100.5 -253q0 -60 -8 -125h-154q4 54 4 68q0 107 -67 169 t-184 62q-141 0 -231.5 -85t-90.5 -218q0 -107 115 -141l325 -96q215 -63 215 -295q0 -242 -156.5 -392.5t-406.5 -150.5q-121 0 -200.5 33.5t-133.5 107.5q-71 104 -71 220z" />
<glyph unicode="&#x406;" horiz-adv-x="466" d="M72 0l256 1470h161l-256 -1470h-161z" />
<glyph unicode="&#x407;" horiz-adv-x="466" d="M72 0l256 1470h161l-256 -1470h-161zM225 1636l37 209h152l-35 -209h-154zM498 1636l37 209h151l-37 -209h-151z" />
<glyph unicode="&#x408;" horiz-adv-x="839" d="M-2 246q0 42 6 82l27 145h151l-16 -102q-8 -39 -8 -86q0 -154 147 -154q193 0 236 254l190 1085h162l-186 -1073q-37 -209 -147.5 -322.5t-276.5 -113.5q-137 0 -211 74.5t-74 210.5z" />
<glyph unicode="&#x409;" horiz-adv-x="1734" d="M-168 0l31 176q31 0 61 18.5t57 56.5t52 85.5t49 116t45 135.5t43 157t39.5 169t38 182t35.5 185t34 189h783l-111 -620h377q137 0 215 -87t78 -237q0 -144 -59 -265t-160.5 -191t-222.5 -70h-541l229 1296h-452q-20 -115 -34 -190t-41 -205t-54 -220t-64.5 -204 t-81 -190.5t-95.5 -147t-116 -105t-135 -34.5zM870 170h328q138 0 214.5 92t76.5 236q0 182 -207 182h-321z" />
<glyph unicode="&#x40a;" horiz-adv-x="1806" d="M47 0l256 1470h164l-107 -608h631l105 608h168l-111 -612h377q137 0 215 -90.5t78 -241.5q0 -144 -59 -265t-161 -191t-223 -70h-540l121 686h-631l-119 -686h-164zM1034 170h328q138 0 214.5 92t76.5 236q0 91 -52.5 138.5t-154.5 47.5h-322z" />
<glyph unicode="&#x40b;" horiz-adv-x="1271" d="M168 1294l31 176h815l-31 -176h-326l-84 -473q94 76 273 76q33 0 76.5 -7t98.5 -26t100.5 -47.5t76.5 -77.5t31 -110q0 -14 -6 -56l-101 -573h-164l101 573l4 25q0 37 -48 67t-105 44t-101 14q-72 0 -168.5 -40t-103.5 -83l-107 -600h-162l226 1294h-326z" />
<glyph unicode="&#x40c;" horiz-adv-x="1157" d="M47 0l260 1470h164l-106 -596l73 3l619 593h225l-715 -688l467 -782h-211l-430 717h-55l-127 -717h-164zM356 1540l201 289h182l-270 -289h-113z" />
<glyph unicode="&#x40d;" horiz-adv-x="1216" d="M47 0l260 1470h158l-211 -1194l819 1194h193l-260 -1470h-158l211 1194l-830 -1194h-182zM707 1964h182l98 -289h-113z" />
<glyph unicode="&#x40e;" horiz-adv-x="1163" d="M92 0l412 610l-289 860h191l221 -706l471 706h190l-1016 -1470h-180zM649 1837l2 59h82q5 -51 15 -77q31 -84 139 -84q75 0 120 36t83 125h79q-20 -67 -38.5 -105t-47.5 -73q-83 -100 -227 -100q-101 0 -154 56t-53 163z" />
<glyph unicode="&#x40f;" horiz-adv-x="1214" d="M47 0l260 1470h164l-229 -1292h628l230 1292h164l-260 -1470h-386l-43 -246h-163l43 246h-408z" />
<glyph unicode="&#x410;" horiz-adv-x="1120" d="M-59 0l710 1470h185l180 -1470h-178l-45 428h-484l-200 -428h-168zM391 604h375l-68 653z" />
<glyph unicode="&#x411;" horiz-adv-x="1163" d="M43 0l260 1470h854l-33 -178h-688l-80 -444h295q98 0 172 -16t119 -42.5t73 -65.5t38 -79t10 -88q0 -153 -61.5 -279.5t-176.5 -202t-262 -75.5h-520zM238 170h348q131 0 218 95.5t87 234.5q0 188 -244 188h-319z" />
<glyph unicode="&#x412;" horiz-adv-x="1120" d="M43 0l256 1470h530q132 0 207.5 -76.5t75.5 -211.5q0 -118 -51 -215q-29 -58 -67 -96.5t-103 -77.5q91 -49 127.5 -108.5t36.5 -156.5q0 -145 -65.5 -266.5t-179 -191.5t-249.5 -70h-518zM236 170h346q136 0 221.5 92t85.5 238q0 186 -244 186h-319zM352 848h295 q171 0 244 104q23 35 38 88.5t15 102.5q0 157 -217 157h-295z" />
<glyph unicode="&#x413;" horiz-adv-x="1026" d="M63 0l256 1470h834l-31 -176h-671l-226 -1294h-162z" />
<glyph unicode="&#x414;" horiz-adv-x="1363" d="M-188 -246l73 422h109q31 0 61 18.5t57 56.5t52 85.5t49 115.5t45 136t42.5 157t39.5 169t37.5 182t35 185t33.5 189h783l-225 -1294h159l-73 -422h-164l43 246h-951l-43 -246h-163zM246 180h594l194 1116h-452q-30 -172 -52.5 -283.5t-64.5 -286t-97.5 -312.5 t-121.5 -234z" />
<glyph unicode="&#x415;" horiz-adv-x="1120" d="M63 0l256 1470h879l-31 -176h-714l-80 -450h661l-30 -176h-662l-84 -492h727l-31 -176h-891z" />
<glyph unicode="&#x416;" horiz-adv-x="1847" d="M-49 0l741 782l-469 688h226l405 -593h74l106 593h164l-106 -593h73l619 593h225l-715 -688l467 -782h-211l-430 717h-55l-127 -717h-164l127 717h-55l-684 -717h-211z" />
<glyph unicode="&#x417;" horiz-adv-x="1140" d="M44.5 284q-6.5 73 12.5 191h154q-19 -128 12 -201q61 -143 264 -143q147 0 240 66.5t115 187.5q6 43 7 84.5t-12.5 79.5t-37 66.5t-67.5 45.5t-103 17h-238l21 145h250q50 0 94.5 26t74.5 66.5t49.5 84.5t26.5 85q20 120 -40 187t-189 67q-172 0 -275 -125 q-51 -68 -77 -174h-154q25 98 47.5 154.5t59.5 110.5q72 99 183 151.5t247 52.5q220 0 305 -137q77 -130 47 -311q-38 -200 -180 -293q171 -96 123 -365q-37 -206 -184.5 -324t-368.5 -118q-138 0 -224.5 43.5t-138.5 140.5q-37 66 -43.5 139z" />
<glyph unicode="&#x418;" horiz-adv-x="1216" d="M47 0l260 1470h158l-211 -1194l819 1194h193l-260 -1470h-158l211 1194l-830 -1194h-182z" />
<glyph unicode="&#x419;" horiz-adv-x="1220" d="M47 0l260 1470h158l-211 -1194l819 1194h193l-260 -1470h-158l211 1194l-830 -1194h-182zM633 1837l2 59h82q5 -54 14 -77q31 -84 139 -84q75 0 120 36t83 125h80q-20 -67 -38.5 -105t-47.5 -73q-83 -100 -227 -100q-101 0 -154 56t-53 163z" />
<glyph unicode="&#x41a;" horiz-adv-x="1157" d="M47 0l260 1470h164l-106 -593h73l619 593h225l-715 -688l467 -782h-211l-430 717h-55l-127 -717h-164z" />
<glyph unicode="&#x41b;" horiz-adv-x="1189" d="M-168 0l31 176q31 0 61 18.5t57 56.5t52 85.5t49 116t45 135.5t43 157t39.5 169t38 182t35.5 185t34 189h783l-258 -1470h-164l227 1296h-452q-20 -115 -34 -190t-41 -205t-54 -220t-64.5 -204t-81 -190.5t-95.5 -147t-116 -105t-135 -34.5z" />
<glyph unicode="&#x41c;" horiz-adv-x="1398" d="M41 0l256 1470h233l129 -1249l562 1249h231l-256 -1470h-158l152 868l16 93l54 286l-562 -1247h-159l-127 1245l-47 -282q-3 -26 -8.5 -58t-6.5 -37l-151 -868h-158z" />
<glyph unicode="&#x41d;" horiz-adv-x="1212" d="M47 0l256 1470h164l-107 -608h631l105 608h164l-256 -1470h-164l121 686h-631l-119 -686h-164z" />
<glyph unicode="&#x41e;" horiz-adv-x="1306" d="M94 535q0 187 60 373.5t165 326.5q209 274 515 274q224 0 347.5 -150.5t123.5 -424.5q0 -185 -61 -370.5t-167 -327.5q-207 -275 -512 -275q-100 0 -185 32.5t-142 92.5q-65 68 -104.5 191t-39.5 258zM264 561q0 -198 88 -311t242 -113q131 0 243 79.5t187 225.5 q111 217 111 469q0 197 -88.5 309.5t-243.5 112.5q-146 0 -270 -103.5t-196.5 -281.5t-72.5 -387z" />
<glyph unicode="&#x41f;" horiz-adv-x="1214" d="M47 0l260 1470h957l-260 -1470h-164l227 1292h-629l-227 -1292h-164z" />
<glyph unicode="&#x420;" horiz-adv-x="1120" d="M63 0l256 1470h543q135 0 214 -84t79 -229q0 -98 -33 -198t-90 -175q-123 -163 -319 -163h-379l-109 -621h-162zM365 791h323q160 0 236 110q27 41 44 103t17 120q0 176 -203 176h-329z" />
<glyph unicode="&#x421;" horiz-adv-x="1212" d="M98 496q0 207 61 409t165 338q98 130 224 198t269 68q189 0 300.5 -116t111.5 -312q0 -30 -2 -53h-158q-3 87 -19 136t-55 89q-74 80 -207 80q-106 0 -200 -57t-164 -164q-70 -104 -113 -266t-43 -324q0 -186 78 -285.5t225 -99.5q167 0 293 150q40 50 69 105t64 149h158 q-63 -176 -117.5 -268.5t-136.5 -163.5q-168 -148 -375 -148q-201 0 -314.5 142t-113.5 393z" />
<glyph unicode="&#x422;" horiz-adv-x="1026" d="M168 1294l31 176h979l-31 -176h-408l-225 -1294h-164l225 1294h-407z" />
<glyph unicode="&#x423;" horiz-adv-x="1163" d="M92 0l412 610l-289 860h191l221 -706l471 706h190l-1016 -1470h-180z" />
<glyph unicode="&#x424;" horiz-adv-x="1437" d="M73.5 513q-21.5 98 0.5 230q27 155 87 256.5t163 180.5q112 86 211.5 113.5t242.5 27.5l27 149h162l-27 -149q144 0 237.5 -27.5t170.5 -113.5q85 -97 104.5 -186.5t-8.5 -250.5q-48 -274 -246 -413q-66 -46 -108.5 -72t-101 -53t-120 -39t-133.5 -12l-26 -154h-162 l26 154q-139 0 -244 44.5t-167 127.5q-67 89 -88.5 187zM241 607q2 -63 26.5 -115.5t66 -90t110 -58.5t158.5 -21l148 829q-114 0 -204 -32t-149 -89.5t-95 -129t-52 -159.5q-11 -71 -9 -134zM764 322q115 0 205.5 32.5t149.5 91t94.5 132t50.5 163.5q11 70 10 132t-25 113 t-65.5 87.5t-111 57t-161.5 20.5z" />
<glyph unicode="&#x425;" horiz-adv-x="1120" d="M-49 0l561 754l-279 716h205l207 -563l404 563h194l-528 -716l291 -754h-201l-219 604l-439 -604h-196z" />
<glyph unicode="&#x426;" horiz-adv-x="1320" d="M47 0l260 1470h164l-229 -1292h628l230 1292h164l-230 -1294h197l-74 -422h-164l43 246h-989z" />
<glyph unicode="&#x427;" horiz-adv-x="983" d="M68 842q0 13 6 55l100 573h164l-100 -573l-5 -25q0 -37 48.5 -67t106 -43.5t101.5 -13.5q71 0 168 39.5t105 82.5l104 600h164l-258 -1470h-164l115 649q-94 -76 -270 -76q-44 0 -102 12.5t-125 40.5t-112.5 84.5t-45.5 131.5z" />
<glyph unicode="&#x428;" horiz-adv-x="1425" d="M47 0l260 1470h164l-229 -1292l340 2l227 1290h164l-228 -1292h336l230 1292h164l-261 -1470h-1167z" />
<glyph unicode="&#x429;" horiz-adv-x="1425" d="M47 0l260 1470h164l-229 -1292l340 2l227 1290h164l-228 -1292h336l230 1292h164l-230 -1294h197l-74 -422h-164l43 246h-1200z" />
<glyph unicode="&#x42a;" horiz-adv-x="1480" d="M195 1292l30 178h621l-109 -620h377q137 0 215 -87t78 -237q0 -144 -59 -265t-160.5 -191t-222.5 -70h-541l227 1292h-456zM616 170h328q137 0 215 91.5t78 234.5q0 184 -209 184h-321z" />
<glyph unicode="&#x42b;" horiz-adv-x="1599" d="M47 0l260 1470h164l-111 -620h377q137 0 215 -87t78 -237q0 -144 -59 -265t-160.5 -191t-222.5 -70h-541zM242 170h327q138 0 214.5 92t76.5 236q0 182 -207 182h-321zM1227 0l260 1470h162l-260 -1470h-162z" />
<glyph unicode="&#x42c;" horiz-adv-x="1048" d="M47 0l260 1470h164l-111 -620h377q137 0 215 -87t78 -237q0 -144 -59 -265t-160.5 -191t-222.5 -70h-541zM242 170h327q138 0 214.5 92t76.5 236q0 182 -207 182h-321z" />
<glyph unicode="&#x42d;" horiz-adv-x="1208" d="M82 541h158q2 -95 11 -149t32 -103q77 -150 239 -150q174 0 300 138t182 389h-572l31 178h567q20 231 -60 359t-247 128q-126 0 -234 -78q-51 -39 -83 -88t-68 -137h-158q26 85 52 137.5t69 110.5q85 112 203.5 172.5t253.5 60.5q214 0 331 -145.5t117 -405.5 q0 -152 -34 -300.5t-98.5 -273t-149.5 -220t-193.5 -149.5t-224.5 -54q-100 0 -183.5 38t-138.5 110q-57 71 -79.5 165t-22.5 267z" />
<glyph unicode="&#x42e;" horiz-adv-x="1873" d="M47 0l260 1470h164l-109 -608h347q82 285 258 461q183 186 446 186q159 0 267 -82t159 -239q35 -113 35 -254q0 -245 -81.5 -444t-221.5 -343q-183 -186 -438 -186q-125 0 -221.5 48t-151.5 138q-96 158 -96 388q0 64 10 149h-342l-121 -684h-164zM831 561 q0 -195 88 -308.5t244 -113.5q142 0 267.5 107t199.5 285t74 378q0 194 -86.5 308t-237.5 114q-149 0 -276 -107t-200 -284t-73 -379z" />
<glyph unicode="&#x42f;" horiz-adv-x="1134" d="M-49 0l590 623h-111q-163 0 -239 117.5t-41 314.5q32 187 151 301t281 114h540l-260 -1470h-164l109 621h-57l-588 -621h-211zM315 1049q-47 -258 201 -258h322l90 509h-328q-122 0 -192 -62t-93 -189z" />
<glyph unicode="&#x430;" d="M20 207q0 161 91.5 273t240.5 134l250 37q49 7 76 51.5t27 116.5q0 65 -45.5 99t-131.5 34q-97 0 -151.5 -46.5t-89.5 -160.5h-135q19 80 38.5 127t53.5 89q53 68 136.5 104.5t184.5 36.5q136 0 213.5 -63t77.5 -173q0 -33 -6 -63l-107 -617l-4 -22q-2 -17 9 -29t30 -12 q17 0 53 8l-24 -131l-19 -6q-38 -14 -69 -14q-62 0 -94.5 29.5t-32.5 84.5q0 13 4 49q-88 -92 -168 -133t-174 -41q-109 0 -171.5 64t-62.5 174zM178 248q0 -63 33 -96t96 -33q113 0 208 74.5t112 177.5l30 176q-26 -21 -73 -33.5t-183 -34.5q-117 -20 -170 -75t-53 -156z " />
<glyph unicode="&#x431;" horiz-adv-x="978" d="M57 537q2 13 9.5 59t13.5 79t17.5 90t23.5 101.5t30.5 103t38.5 104t48 96.5t58.5 89t70.5 71.5t84 53.5q61 28 189 44t200 47q43 18 64 42.5t30 71.5h115q-26 -153 -136 -209q-84 -43 -210 -68t-166 -38q-87 -27 -181 -167q-50 -74 -54 -99q-1 -5 3 -2q123 96 266 96 q176 0 260 -158.5t41 -406.5q-44 -251 -185 -408.5t-322 -157.5q-180 0 -266 158t-42 408zM211 537q-32 -186 17.5 -297t164.5 -111q116 0 205 111t121 297q32 184 -16.5 295.5t-161.5 111.5q-120 0 -209 -109.5t-121 -297.5z" />
<glyph unicode="&#x432;" horiz-adv-x="888" d="M16 0l189 1071h368q134 0 208.5 -61t74.5 -164q0 -95 -48.5 -165.5t-139.5 -102.5q89 -16 126 -51t37 -119q0 -175 -130 -291.5t-326 -116.5h-359zM180 143h211q129 0 209 61t80 161q0 69 -63 98t-193 29h-182zM266 627h156q280 0 280 186q0 62 -54.5 89.5t-170.5 27.5 h-158z" />
<glyph unicode="&#x433;" horiz-adv-x="659" d="M16 0l189 1071h561l-27 -149h-413l-162 -922h-148z" />
<glyph unicode="&#x434;" horiz-adv-x="1097" d="M-156 -256l70 391h125q38 0 98.5 133.5t122 352t102.5 450.5h590l-164 -936h138l-70 -391h-141l45 256h-729l-45 -256h-142zM238 141h403l139 789h-295q-100 -572 -247 -789z" />
<glyph unicode="&#x435;" d="M59 352q0 149 47 299.5t125 255.5q70 95 163 145t198 50q78 0 138.5 -30t92.5 -85q30 -52 48 -123t18 -139q0 -84 -23 -248h-641q-12 -77 -12 -127q0 -104 53.5 -164.5t147.5 -60.5q89 0 164.5 59.5t103.5 151.5h147q-59 -173 -176.5 -270t-271.5 -97t-238 100t-84 283z M250 621h489q4 74 4 96q0 103 -50 163t-136 60q-106 0 -190.5 -88t-116.5 -231z" />
<glyph unicode="&#x436;" horiz-adv-x="1343" d="M-63 0l575 537l-367 534h187l299 -453l80 453h143l-80 -453l459 453h186l-555 -534l387 -537h-190l-320 428l-75 -428h-144l76 428l-471 -428h-190z" />
<glyph unicode="&#x437;" horiz-adv-x="839" d="M27 218q-2 48 8 126h143q-12 -114 32.5 -165.5t156.5 -51.5q97 0 160 45t77 123q8 30 4 64.5t-15.5 64t-44.5 49t-83 19.5h-141l24 141h119q48 0 83.5 13.5t55.5 38.5t30.5 50.5t16.5 57.5q12 71 -29 111t-126 40q-97 0 -153.5 -43.5t-78.5 -134.5h-143q38 162 139.5 249 t251.5 87q153 0 229 -92.5t48 -245.5q-24 -130 -121 -203q115 -72 86 -239q-28 -161 -143.5 -257t-282.5 -96q-109 0 -183 42t-102 120q-16 39 -18 87z" />
<glyph unicode="&#x438;" horiz-adv-x="964" d="M27 0l188 1071h147l-155 -885l536 885h189l-189 -1071h-147l154 874l-535 -874h-188z" />
<glyph unicode="&#x439;" horiz-adv-x="968" d="M27 0l188 1071h147l-155 -885l536 885h189l-189 -1071h-147l154 874l-535 -874h-188zM416 1438l2 59h82q5 -55 14 -78q31 -84 139 -84q75 0 120 36t83 126h80q-20 -67 -38.5 -105t-47.5 -73q-83 -100 -227 -100q-101 0 -154 56t-53 163z" />
<glyph unicode="&#x43a;" horiz-adv-x="841" d="M31 0l188 1071h143l-79 -453l458 453h187l-555 -534l387 -537h-191l-321 428l-74 -428h-143z" />
<glyph unicode="&#x43b;" horiz-adv-x="899" d="M-133 0l27 143q157 0 321 928h590l-189 -1071h-147l164 930h-295q-12 -71 -20.5 -117t-25.5 -128t-32.5 -139t-39.5 -134t-48.5 -130.5t-58 -110.5t-69.5 -91.5t-81.5 -57t-95.5 -22.5z" />
<glyph unicode="&#x43c;" horiz-adv-x="1136" d="M27 0l188 1071h215l76 -878l383 878h215l-189 -1071h-147l127 725l-344 -725h-160l-90 725l-127 -725h-147z" />
<glyph unicode="&#x43d;" horiz-adv-x="964" d="M27 0l188 1071h147l-73 -422h422l75 422h146l-189 -1071h-147l90 506h-422l-90 -506h-147z" />
<glyph unicode="&#x43e;" d="M57 387q0 136 45.5 277.5t122.5 242.5q147 195 353 195q151 0 236 -110t85 -304q0 -140 -45 -278.5t-123 -243.5q-145 -195 -352 -195q-151 0 -236.5 110.5t-85.5 305.5zM211 406q0 -135 51 -207t146 -72q77 0 142 48t112 140q83 160 83 351q0 135 -50.5 207.5 t-145.5 72.5q-77 0 -142 -48t-112 -140q-84 -162 -84 -352z" />
<glyph unicode="&#x43f;" horiz-adv-x="964" d="M27 0l188 1071h717l-189 -1071h-147l164 930h-422l-164 -930h-147z" />
<glyph unicode="&#x440;" d="M-59 -424l260 1495h141l-29 -158q80 106 146 147.5t157 41.5q131 0 207 -101t76 -274q0 -153 -48.5 -310t-131.5 -267q-134 -181 -322 -181q-82 0 -133 36t-80 114l-96 -543h-147zM231 365q0 -109 51.5 -174.5t137.5 -65.5q121 0 207 131q49 73 83.5 207t34.5 250 q0 109 -48 168t-138 59q-72 0 -131.5 -43t-99.5 -123q-43 -90 -70 -203t-27 -206z" />
<glyph unicode="&#x441;" horiz-adv-x="839" d="M43 352q0 149 47 299.5t125 255.5q147 195 365 195q125 0 196.5 -81t71.5 -222q0 -18 -4 -88h-144q-2 82 -10 114q-35 115 -158 115q-151 0 -241 -178q-40 -78 -64 -185.5t-24 -207.5q0 -119 46 -181.5t134 -62.5q169 0 260 254h143q-127 -410 -430 -410 q-146 0 -229.5 101.5t-83.5 281.5z" />
<glyph unicode="&#x442;" horiz-adv-x="684" d="M90 922l27 149h639l-27 -149h-246l-161 -922h-148l162 922h-246z" />
<glyph unicode="&#x443;" horiz-adv-x="843" d="M-63 -422l28 164q44 -18 86 -18q46 0 76 28t68 109l55 110l-133 1100h168l82 -878l389 878h164l-500 -1051q-56 -115 -90 -181t-70 -123.5t-58.5 -83t-55.5 -44t-62 -22.5t-76 -4q-27 0 -59 12l-6 2z" />
<glyph unicode="&#x444;" horiz-adv-x="1525" d="M78 561q41 243 167.5 392t289.5 149q89 0 142 -42.5t93 -146.5l66 373h139l-66 -373q76 104 144 146.5t157 42.5q163 0 236.5 -149t32.5 -392q-47 -267 -181 -429.5t-307 -162.5q-82 0 -133 36t-82 114l-94 -543h-154l93 543q-59 -79 -121.5 -114.5t-143.5 -35.5 q-173 0 -249 162.5t-29 429.5zM229 555q-35 -203 6.5 -315.5t153.5 -112.5q111 0 192.5 100.5t112.5 274.5q77 440 -164 440q-114 0 -190.5 -99t-110.5 -288zM838 502q-31 -174 16 -274.5t158 -100.5q112 0 194 112.5t117 315.5q34 189 -9 288t-157 99q-242 0 -319 -440z " />
<glyph unicode="&#x445;" horiz-adv-x="839" d="M-63 0l405 551l-205 520h191l137 -377l270 377h180l-387 -520l213 -551h-188l-147 403l-283 -403h-186z" />
<glyph unicode="&#x446;" horiz-adv-x="995" d="M27 0l188 1071h147l-163 -930h422l163 930h148l-164 -936h158l-70 -391h-141l45 256h-733z" />
<glyph unicode="&#x447;" horiz-adv-x="790" d="M39 653q0 29 4 45l66 373h147l-74 -412v-6q0 -31 43.5 -59.5t116.5 -28.5q75 0 131 20t62 58l77 428h148l-191 -1071h-147l84 467q-30 -22 -66 -32.5t-61 -11.5t-90 -1q-101 0 -175.5 65t-74.5 166z" />
<glyph unicode="&#x448;" horiz-adv-x="1239" d="M27 0l188 1071h147l-163 -930h274l164 930h147l-163 -930h274l164 930h147l-188 -1071h-991z" />
<glyph unicode="&#x449;" horiz-adv-x="1239" d="M27 0l188 1071h147l-163 -930h274l164 930h147l-163 -930h274l164 930h147l-164 -936h158l-70 -391h-141l45 256h-1007z" />
<glyph unicode="&#x44a;" horiz-adv-x="1003" d="M90 930l25 141h372l-77 -444h258q147 0 225 -71t78 -177q0 -162 -134.5 -270.5t-318.5 -108.5h-358l164 930h-234zM324 143h211q128 0 208 60.5t80 161.5q0 69 -63 98t-193 29h-182z" />
<glyph unicode="&#x44b;" horiz-adv-x="1230" d="M27 0l188 1071h139l-78 -444h259q147 0 225 -71t78 -177q0 -162 -134.5 -270.5t-318.5 -108.5h-358zM190 143h211q129 0 209 61t80 161q0 69 -63 98t-193 29h-182zM862 0l189 1071h147l-188 -1071h-148z" />
<glyph unicode="&#x44c;" horiz-adv-x="870" d="M27 0l188 1071h139l-78 -444h259q147 0 225 -71t78 -177q0 -162 -134.5 -270.5t-318.5 -108.5h-358zM190 143h211q129 0 209 61t80 161q0 69 -63 98t-193 29h-182z" />
<glyph unicode="&#x44d;" horiz-adv-x="880" d="M59 379h144q0 -252 170 -252q107 0 185.5 99t115.5 280h-340l24 143h332q6 142 -41 217.5t-143 75.5q-88 0 -147 -55t-99 -176h-143q110 391 403 391q190 0 274 -158.5t37 -427.5q-43 -250 -176 -398.5t-313 -148.5q-304 0 -283 410z" />
<glyph unicode="&#x44e;" horiz-adv-x="1368" d="M27 0l188 1071h147l-73 -422h241q60 207 192 330t296 123q146 0 230.5 -112t84.5 -298q0 -110 -26.5 -217.5t-75 -197.5t-112 -159t-143 -108t-163.5 -39q-174 0 -260 148.5t-51 386.5h-238l-90 -506h-147zM645 403q0 -129 51 -201.5t144 -72.5q95 0 174 78t121.5 201.5 t42.5 261.5q0 128 -50.5 201t-140.5 73q-95 0 -174.5 -77.5t-123.5 -201.5t-44 -262z" />
<glyph unicode="&#x44f;" horiz-adv-x="948" d="M-63 0l485 446q-167 0 -250.5 87.5t-62.5 209.5q27 147 147 237.5t301 90.5h358l-188 -1071h-139l78 446h-43l-496 -446h-190zM256 743q-15 -88 46.5 -124.5t205.5 -36.5h182l62 348h-211q-121 0 -194.5 -47.5t-90.5 -139.5z" />
<glyph unicode="&#x450;" d="M59 352q0 149 47 299.5t125 255.5q70 95 163 145t198 50q78 0 138.5 -30t92.5 -85q30 -52 48 -123t18 -139q0 -84 -23 -248h-641q-12 -77 -12 -127q0 -104 53.5 -164.5t147.5 -60.5q89 0 164.5 59.5t103.5 151.5h147q-59 -173 -176.5 -270t-271.5 -97t-238 100t-84 283z M250 621h489q4 74 4 96q0 103 -50 163t-136 60q-106 0 -190.5 -88t-116.5 -231zM498 1565h182l98 -289h-112z" />
<glyph unicode="&#x451;" d="M59 352q0 149 47 299.5t125 255.5q70 95 163 145t198 50q78 0 138.5 -30t92.5 -85q30 -52 48 -123t18 -139q0 -84 -23 -248h-641q-12 -77 -12 -127q0 -104 53.5 -164.5t147.5 -60.5q89 0 164.5 59.5t103.5 151.5h147q-59 -173 -176.5 -270t-271.5 -97t-238 100t-84 283z M250 621h489q4 74 4 96q0 103 -50 163t-136 60q-106 0 -190.5 -88t-116.5 -231zM387 1237l37 209h151l-34 -209h-154zM659 1237l35 209h154l-37 -209h-152z" />
<glyph unicode="&#x452;" horiz-adv-x="1017" d="M92 0l182 1038h-163l26 150h164l47 282h150l-49 -282h327l-26 -150h-328l-57 -329q82 100 147.5 139t153.5 39q115 0 179 -68.5t64 -193.5q0 -46 -10 -111l-90 -514q-25 -145 -90 -203.5t-203 -58.5v162q65 0 95 36t44 105l90 444q11 61 11 99q0 141 -140 141 q-119 0 -200.5 -93t-110.5 -263l-65 -369h-148z" />
<glyph unicode="&#x453;" horiz-adv-x="659" d="M16 0l189 1071h561l-27 -149h-413l-162 -922h-148zM258 1159l201 289h182l-270 -289h-113z" />
<glyph unicode="&#x454;" horiz-adv-x="835" d="M57 516q47 268 188.5 427t332.5 159q294 0 264 -391h-144q3 121 -36 176t-127 55q-96 0 -170 -75.5t-117 -217.5h332l-27 -143h-340q-28 -182 15.5 -280.5t152.5 -98.5q169 0 260 252h143q-127 -410 -430 -410q-180 0 -260 148t-37 399z" />
<glyph unicode="&#x455;" horiz-adv-x="839" d="M25 238q0 49 8 106h143q-4 -46 -4 -59q0 -76 50.5 -118t142.5 -42q105 0 172 55.5t67 143.5q0 43 -33.5 71t-117.5 54l-162 51q-162 52 -162 200q0 169 116 285.5t283 116.5q129 0 204 -71t75 -195q0 -12 -4 -70h-144l5 45q0 64 -45 99.5t-125 35.5q-95 0 -154 -51 t-59 -133q0 -40 27.5 -62.5t107.5 -48.5l141 -45q108 -35 155.5 -86.5t47.5 -132.5q0 -65 -24.5 -135.5t-65.5 -124.5q-124 -158 -334 -158q-149 0 -230 70.5t-81 198.5z" />
<glyph unicode="&#x456;" horiz-adv-x="372" d="M31 0l186 1071h148l-187 -1071h-147zM252 1266l35 204h147l-35 -204h-147z" />
<glyph unicode="&#x457;" horiz-adv-x="466" d="M78 0l186 1071h148l-187 -1071h-147zM156 1237l37 209h151l-35 -209h-153zM428 1237l35 209h153l-36 -209h-152z" />
<glyph unicode="&#x458;" horiz-adv-x="372" d="M-182 -424l26 156h31q71 0 94.5 23.5t36.5 107.5l211 1208h148l-213 -1229q-25 -140 -90 -206t-179 -66q-31 0 -65 6zM252 1266l35 204h147l-35 -204h-147z" />
<glyph unicode="&#x459;" horiz-adv-x="1345" d="M-133 0l27 143q157 0 321 928h588l-78 -444h258q147 0 225 -71t78 -177q0 -162 -134 -270.5t-318 -108.5h-359l158 930h-295q-12 -71 -20.5 -117t-25.5 -128t-32.5 -139t-39.5 -134t-48.5 -130.5t-58 -110.5t-69.5 -91.5t-81.5 -57t-95.5 -22.5zM639 143h211 q129 0 209 61t80 161q0 69 -63 98t-193 29h-183z" />
<glyph unicode="&#x45a;" horiz-adv-x="1591" d="M27 0l188 1071l147 2l-73 -424h422l75 426h140l-80 -430h258q75 0 134.5 -23t95.5 -61t54.5 -84.5t18.5 -97.5q0 -162 -134.5 -270.5t-318.5 -108.5h-358l90 506h-422l-90 -506h-147zM760 143h211q129 0 209 61t80 161q0 139 -256 139h-183z" />
<glyph unicode="&#x45b;" horiz-adv-x="1017" d="M92 0l182 1038h-163l26 150h164l47 282h150l-49 -282h327l-26 -150h-328l-57 -329q82 100 147.5 139t153.5 39q115 0 179 -68.5t64 -193.5q0 -46 -10 -111l-90 -514h-147l83 485q11 61 11 99q0 141 -140 141q-119 0 -200.5 -93t-110.5 -263l-65 -369h-148z" />
<glyph unicode="&#x45c;" horiz-adv-x="841" d="M31 0l188 1071h143l-79 -453l458 453h187l-555 -534l387 -537h-191l-321 428l-74 -428h-143zM258 1159l201 289h182l-270 -289h-113z" />
<glyph unicode="&#x45d;" horiz-adv-x="964" d="M27 0l188 1071l147 2l-155 -887l536 885q136 -2 189 0l-189 -1071h-147l154 874l-535 -874h-188zM494 1565h182l98 -289h-112z" />
<glyph unicode="&#x45e;" horiz-adv-x="843" d="M-63 -422l28 164q44 -18 86 -18q46 0 76 28t68 109l55 110l-133 1100h168l82 -878l389 878h164l-500 -1051q-56 -115 -90 -181t-70 -123.5t-58.5 -83t-55.5 -44t-62 -22.5t-76 -4q-27 0 -59 12l-6 2zM379 1438l2 59h82q5 -55 14 -78q31 -84 139 -84q75 0 120 36t83 126 h80q-20 -67 -38.5 -105t-47.5 -73q-83 -100 -227 -100q-101 0 -154 56t-53 163z" />
<glyph unicode="&#x45f;" horiz-adv-x="964" d="M27 0l188 1071h147l-163 -930h422l163 930h148l-189 -1071h-286l-45 -256h-142l45 256h-288z" />
<glyph unicode="&#x48c;" horiz-adv-x="1048" d="M47 0l260 1470h164l-111 -620h377q163 0 240 -118.5t43 -315.5q-34 -188 -152.5 -302t-279.5 -114h-541zM242 170h327q240 0 283 252q47 258 -199 258h-321z" />
<glyph unicode="&#x48d;" horiz-adv-x="870" d="M27 0l188 1073l139 -2l-78 -444h259q112 0 186 -43.5t100.5 -110t12.5 -143.5q-25 -147 -146 -238.5t-303 -91.5h-358zM190 143h211q121 0 195.5 48t89.5 139q17 88 -45 125t-207 37h-182z" />
<glyph unicode="&#x48e;" horiz-adv-x="1120" d="M63 0l256 1470h543q135 0 214 -84t79 -229q0 -98 -33 -198t-90 -175q-123 -163 -319 -163h-379l-109 -621h-162zM365 791h323q160 0 236 110q27 41 44 103t17 120q0 176 -203 176h-329z" />
<glyph unicode="&#x48f;" d="M-59 -424l260 1495h141l-29 -158q80 106 146 147.5t157 41.5q131 0 207 -101t76 -274q0 -153 -48.5 -310t-131.5 -267q-134 -181 -322 -181q-82 0 -133 36t-80 114l-96 -543h-147zM231 365q0 -109 51.5 -174.5t137.5 -65.5q121 0 207 131q49 73 83.5 207t34.5 250 q0 109 -48 168t-138 59q-72 0 -131.5 -43t-99.5 -123q-43 -90 -70 -203t-27 -206z" />
<glyph unicode="&#x490;" horiz-adv-x="1056" d="M63 0l261 1470h673l29 166h160l-62 -344h-669l-228 -1292h-164z" />
<glyph unicode="&#x491;" horiz-adv-x="704" d="M16 0l189 1071l430 4l22 135h134l-52 -288h-413l-162 -922h-148z" />
<glyph unicode="&#x492;" horiz-adv-x="1026" d="M35 836l24 143h177l83 491h834l-31 -176h-671l-54 -315h277l-25 -143h-276l-146 -836h-161l145 836h-176z" />
<glyph unicode="&#x493;" horiz-adv-x="659" d="M-14 532l24 144h127l68 395h561l-27 -149h-413l-43 -246h139l-25 -144h-139l-92 -532h-148l95 532h-127z" />
<glyph unicode="&#x494;" horiz-adv-x="1026" d="M63 0l256 1470h834l-31 -176h-671l-226 -1294h-162z" />
<glyph unicode="&#x495;" horiz-adv-x="659" d="M16 0l189 1071h561l-27 -149h-413l-162 -922h-148z" />
<glyph unicode="&#x496;" horiz-adv-x="1847" d="M-49 0l741 782l-469 688h226l405 -593h74l106 593h164l-106 -593h73l619 593h225l-715 -688l363 -606h135l-74 -422h-164l43 246h-47l-430 717h-55l-127 -717h-164l127 717h-55l-684 -717h-211z" />
<glyph unicode="&#x497;" horiz-adv-x="1343" d="M-63 0l575 537l-367 534h187l299 -453l80 453h143l-80 -453l459 453h186l-555 -534l289 -402h123l-70 -391h-141l45 256h-49l-320 428l-75 -428h-144l76 428l-471 -428h-190z" />
<glyph unicode="&#x498;" horiz-adv-x="1140" d="M44.5 284q-6.5 73 12.5 191h154q-19 -128 12 -201q61 -143 264 -143q147 0 240 66.5t115 187.5q6 43 7 84.5t-12.5 78.5t-37 65.5t-67.5 46t-103 18.5l-238 4l21 141h250q50 0 94.5 26t74.5 66.5t49.5 84.5t26.5 85q20 120 -40 187t-189 67q-172 0 -275 -125 q-51 -68 -77 -174h-154q25 98 47.5 154.5t59.5 110.5q72 99 183 151.5t247 52.5q220 0 305 -137q77 -130 47 -311q-38 -200 -180 -293q171 -96 123 -365q-37 -206 -184.5 -324t-368.5 -118q-138 0 -224.5 43.5t-138.5 140.5q-37 66 -43.5 139z" />
<glyph unicode="&#x499;" horiz-adv-x="839" d="M27 218q-2 48 8 126h143q-12 -114 32.5 -165.5t156.5 -51.5q97 0 160 45t77 123q8 30 4 64.5t-15.5 64t-44.5 49t-83 19.5h-141l24 141h119q48 0 83.5 13.5t55.5 38.5t30.5 50.5t16.5 57.5q12 71 -29 111t-126 40q-97 0 -153.5 -43.5t-78.5 -134.5h-143q38 162 139.5 249 t251.5 87q153 0 229 -92.5t48 -245.5q-24 -130 -121 -203q115 -72 86 -239q-28 -161 -143.5 -257t-282.5 -96q-109 0 -183 42t-102 120q-16 39 -18 87z" />
<glyph unicode="&#x49a;" horiz-adv-x="1157" d="M47 0l260 1470h164l-106 -596l73 3l619 593h225l-715 -688l363 -606h135l-74 -422h-164l43 246h-47l-430 717h-55l-127 -717h-164z" />
<glyph unicode="&#x49b;" horiz-adv-x="841" d="M31 0l188 1071h143l-79 -453l458 453h187l-555 -534l291 -402h120l-69 -391h-142l45 256h-49l-321 428l-74 -428h-143z" />
<glyph unicode="&#x49c;" horiz-adv-x="1157" d="M47 0l260 1470h164l-106 -596l73 3l619 593h225l-715 -688l467 -782h-211l-430 717h-55l-127 -717h-164z" />
<glyph unicode="&#x49d;" horiz-adv-x="841" d="M31 0l188 1071h143l-79 -453l458 453h187l-555 -534l387 -537h-191l-321 428l-74 -428h-143z" />
<glyph unicode="&#x49e;" horiz-adv-x="1157" d="M47 0l260 1470h164l-106 -596l73 3l619 593h225l-715 -688l467 -782h-211l-430 717h-55l-127 -717h-164z" />
<glyph unicode="&#x49f;" horiz-adv-x="841" d="M31 0l188 1071h143l-79 -453l458 453h187l-555 -534l387 -537h-191l-321 428l-74 -428h-143z" />
<glyph unicode="&#x4a0;" horiz-adv-x="1157" d="M47 0l260 1470h164l-106 -596l73 3l619 593h225l-715 -688l467 -782h-211l-430 717h-55l-127 -717h-164z" />
<glyph unicode="&#x4a1;" horiz-adv-x="841" d="M31 0l188 1071h143l-79 -453l458 453h187l-555 -534l387 -537h-191l-321 428l-74 -428h-143z" />
<glyph unicode="&#x4a2;" horiz-adv-x="1212" d="M47 0l256 1470h164l-107 -608h631l105 608h164l-226 -1294h156l-74 -422h-164l43 246h-155l121 686h-631l-119 -686h-164z" />
<glyph unicode="&#x4a3;" horiz-adv-x="964" d="M27 0l188 1071l147 2l-73 -424h422l75 426l146 -4l-164 -936h117l-70 -391h-141l45 256h-123l90 506h-422l-90 -506h-147z" />
<glyph unicode="&#x4a4;" horiz-adv-x="1212" d="M47 0l256 1470h164l-107 -608h631l105 608h164l-256 -1470h-164l121 686h-631l-119 -686h-164z" />
<glyph unicode="&#x4a5;" horiz-adv-x="964" d="M27 0l188 1071l147 2l-73 -424h422l75 426l146 -4l-189 -1071h-147l90 506h-422l-90 -506h-147z" />
<glyph unicode="&#x4a6;" horiz-adv-x="1214" d="M47 0l260 1470h957l-260 -1470h-164l227 1292h-629l-227 -1292h-164z" />
<glyph unicode="&#x4a7;" horiz-adv-x="964" d="M27 0l188 1071h717l-189 -1071h-147l164 930h-422l-164 -930h-147z" />
<glyph unicode="&#x4a8;" horiz-adv-x="1212" d="M98 496q0 207 61 409t165 338q98 130 224 198t269 68q189 0 300.5 -116t111.5 -312q0 -30 -2 -53h-158q-3 87 -19 136t-55 89q-74 80 -207 80q-106 0 -200 -57t-164 -164q-70 -104 -113 -266t-43 -324q0 -186 78 -285.5t225 -99.5q167 0 293 150q40 50 69 105t64 149h158 q-63 -176 -117.5 -268.5t-136.5 -163.5q-168 -148 -375 -148q-201 0 -314.5 142t-113.5 393z" />
<glyph unicode="&#x4a9;" horiz-adv-x="839" d="M43 352q0 149 47 299.5t125 255.5q147 195 365 195q125 0 196.5 -81t71.5 -222q0 -18 -4 -88h-144q-2 82 -10 114q-35 115 -158 115q-151 0 -241 -178q-40 -78 -64 -185.5t-24 -207.5q0 -119 46 -181.5t134 -62.5q169 0 260 254h143q-127 -410 -430 -410 q-146 0 -229.5 101.5t-83.5 281.5z" />
<glyph unicode="&#x4aa;" horiz-adv-x="1212" d="M98 496q0 207 61 409t165 338q98 130 224 198t269 68q189 0 300.5 -116t111.5 -312q0 -30 -2 -53h-158q-3 87 -19 136t-55 89q-74 80 -207 80q-106 0 -200 -57t-164 -164q-70 -104 -113 -266t-43 -324q0 -186 78 -285.5t225 -99.5q167 0 293 150q40 50 69 105t64 149h158 q-63 -176 -117.5 -268.5t-136.5 -163.5q-168 -148 -375 -148q-201 0 -314.5 142t-113.5 393z" />
<glyph unicode="&#x4ab;" horiz-adv-x="839" d="M43 352q0 149 47 299.5t125 255.5q147 195 365 195q125 0 196.5 -81t71.5 -222q0 -18 -4 -88h-144q-2 82 -10 114q-35 115 -158 115q-151 0 -241 -178q-40 -78 -64 -185.5t-24 -207.5q0 -119 46 -181.5t134 -62.5q169 0 260 254h143q-127 -410 -430 -410 q-146 0 -229.5 101.5t-83.5 281.5z" />
<glyph unicode="&#x4ac;" horiz-adv-x="1026" d="M168 1294l31 176h979l-31 -176h-408l-194 -1118h155l-73 -422h-164l43 246h-156l225 1294h-407z" />
<glyph unicode="&#x4ad;" horiz-adv-x="684" d="M90 922l27 149h639l-27 -149h-246l-137 -787h117l-70 -391h-141l45 256h-123l162 922h-246z" />
<glyph unicode="&#x4ae;" horiz-adv-x="1120" d="M199 1470h190l221 -706l471 706h191l-608 -878l-103 -592h-164l103 592z" />
<glyph unicode="&#x4af;" horiz-adv-x="1120" d="M195 1071h190l160 -706l409 706h191l-547 -878l-102 -592h-164l102 592z" />
<glyph unicode="&#x4b0;" horiz-adv-x="1120" d="M133 430l23 123h338l6 39l-301 878h190l221 -706l471 706h191l-608 -878l-7 -39h338l-22 -123h-338l-74 -430h-164l74 430h-338z" />
<glyph unicode="&#x4b1;" horiz-adv-x="1120" d="M137 70l21 123h276l-239 878h190l160 -706l409 706h191l-547 -878h276l-20 -123h-276l-82 -469h-164l82 469h-277z" />
<glyph unicode="&#x4b2;" horiz-adv-x="1120" d="M-49 0l561 754l-279 716h205l207 -563l404 563h194l-528 -716l221 -578h100l-73 -422h-164l43 246h-37l-219 604l-439 -604h-196z" />
<glyph unicode="&#x4b3;" horiz-adv-x="839" d="M-63 0l405 551l-205 520h191l137 -377l270 377h180l-387 -520l160 -416h78l-70 -391h-141l45 256h-47l-147 403l-283 -403h-186z" />
<glyph unicode="&#x4b4;" horiz-adv-x="1320" d="M47 0l260 1470h164l-229 -1292h628l230 1292h164l-230 -1294h197l-74 -422h-164l43 246h-989z" />
<glyph unicode="&#x4b5;" horiz-adv-x="995" d="M27 0l188 1071h147l-163 -930h422l163 930h148l-164 -936h158l-70 -391h-141l45 256h-733z" />
<glyph unicode="&#x4b6;" horiz-adv-x="983" d="M68 842q0 13 6 55l100 573h164l-100 -573l-5 -25q0 -37 48.5 -67t106 -43.5t101.5 -13.5q71 0 168 39.5t105 82.5l104 600h164l-258 -1470h-164l115 649q-94 -76 -270 -76q-44 0 -102 12.5t-125 40.5t-112.5 84.5t-45.5 131.5z" />
<glyph unicode="&#x4b7;" horiz-adv-x="790" d="M39 653q0 29 4 45l66 373l147 2l-74 -414v-6q0 -31 43.5 -59.5t116.5 -28.5q75 0 131 20t62 58l77 432l148 -4l-191 -1071h-147l84 467q-30 -22 -66 -32.5t-61 -11.5t-90 -1q-101 0 -175.5 65t-74.5 166z" />
<glyph unicode="&#x4b8;" horiz-adv-x="983" d="M68 842q0 13 6 55l100 573h164l-100 -573l-5 -25q0 -37 48.5 -67t106 -43.5t101.5 -13.5q71 0 168 39.5t105 82.5l104 600h164l-258 -1470h-164l115 649q-94 -76 -270 -76q-44 0 -102 12.5t-125 40.5t-112.5 84.5t-45.5 131.5z" />
<glyph unicode="&#x4b9;" horiz-adv-x="790" d="M39 653q0 29 4 45l66 373l147 2l-74 -414v-6q0 -31 43.5 -59.5t116.5 -28.5q75 0 131 20t62 58l77 432l148 -4l-191 -1071h-147l84 467q-30 -22 -66 -32.5t-61 -11.5t-90 -1q-101 0 -175.5 65t-74.5 166z" />
<glyph unicode="&#x4ba;" horiz-adv-x="983" d="M-14 0l258 1470h164l-115 -649q94 76 272 76q33 0 76.5 -7t98.5 -26t100.5 -47.5t76.5 -77.5t31 -110q0 -14 -6 -56l-100 -573h-164l100 573l4 25q0 37 -48 67t-105 44t-101 14q-72 0 -168.5 -40t-103.5 -83l-106 -600h-164z" />
<glyph unicode="&#x4bb;" horiz-adv-x="790" d="M-6 4l190 1071h148l-84 -467q30 22 66 32.5t61 11.5t90 1q101 0 175.5 -65t74.5 -166q0 -13 -4 -45l-66 -373l-147 -2l73 414v6q0 30 -43.5 59t-115.5 29q-75 0 -131.5 -20t-63.5 -58l-76 -432z" />
<glyph unicode="&#x4bc;" horiz-adv-x="1212" d="M98 496q0 207 61 409t165 338q98 130 224 198t269 68q189 0 300.5 -116t111.5 -312q0 -30 -2 -53h-158q-3 87 -19 136t-55 89q-74 80 -207 80q-106 0 -200 -57t-164 -164q-70 -104 -113 -266t-43 -324q0 -186 78 -285.5t225 -99.5q167 0 293 150q40 50 69 105t64 149h158 q-63 -176 -117.5 -268.5t-136.5 -163.5q-168 -148 -375 -148q-201 0 -314.5 142t-113.5 393z" />
<glyph unicode="&#x4bd;" horiz-adv-x="839" d="M43 352q0 149 47 299.5t125 255.5q147 195 365 195q125 0 196.5 -81t71.5 -222q0 -18 -4 -88h-144q-2 82 -10 114q-35 115 -158 115q-151 0 -241 -178q-40 -78 -64 -185.5t-24 -207.5q0 -119 46 -181.5t134 -62.5q169 0 260 254h143q-127 -410 -430 -410 q-146 0 -229.5 101.5t-83.5 281.5z" />
<glyph unicode="&#x4be;" horiz-adv-x="1212" d="M98 496q0 207 61 409t165 338q98 130 224 198t269 68q189 0 300.5 -116t111.5 -312q0 -30 -2 -53h-158q-3 87 -19 136t-55 89q-74 80 -207 80q-106 0 -200 -57t-164 -164q-70 -104 -113 -266t-43 -324q0 -186 78 -285.5t225 -99.5q167 0 293 150q40 50 69 105t64 149h158 q-63 -176 -117.5 -268.5t-136.5 -163.5q-168 -148 -375 -148q-201 0 -314.5 142t-113.5 393z" />
<glyph unicode="&#x4bf;" horiz-adv-x="839" d="M43 352q0 149 47 299.5t125 255.5q147 195 365 195q125 0 196.5 -81t71.5 -222q0 -18 -4 -88h-144q-2 82 -10 114q-35 115 -158 115q-151 0 -241 -178q-40 -78 -64 -185.5t-24 -207.5q0 -119 46 -181.5t134 -62.5q169 0 260 254h143q-127 -410 -430 -410 q-146 0 -229.5 101.5t-83.5 281.5z" />
<glyph unicode="&#x4c0;" horiz-adv-x="466" d="M72 0l256 1470h161l-256 -1470h-161z" />
<glyph unicode="&#x4c1;" horiz-adv-x="1847" d="M-49 0l741 782l-469 688h226l405 -593h74l106 593h164l-106 -593h73l619 593h225l-715 -688l467 -782h-211l-430 717h-55l-127 -717h-164l127 717h-55l-684 -717h-211zM936 1894l2 60h82q5 -55 14 -78q31 -84 140 -84q74 0 118.5 36t83.5 126h80q-20 -67 -38.5 -105 t-47.5 -73q-84 -101 -227 -101q-101 0 -154 56t-53 163z" />
<glyph unicode="&#x4c2;" horiz-adv-x="1343" d="M-63 0l575 537l-367 534h187l299 -453l80 453h143l-80 -453l459 453h186l-555 -534l387 -537h-190l-320 428l-75 -428h-144l76 428l-471 -428h-190zM604 1495l2 59h82q5 -54 14 -77q31 -84 140 -84q75 0 119.5 35.5t82.5 125.5h80q-20 -67 -38.5 -105t-47.5 -73 q-83 -100 -227 -100q-101 0 -154 56t-53 163z" />
<glyph unicode="&#x4c3;" horiz-adv-x="1157" d="M47 0l260 1470h164l-106 -596l73 3l619 593h225l-715 -688l467 -782h-211l-430 717h-55l-127 -717h-164z" />
<glyph unicode="&#x4c4;" horiz-adv-x="841" d="M31 0l188 1071h143l-79 -453l458 453h187l-555 -534l387 -537h-191l-321 428l-74 -428h-143z" />
<glyph unicode="&#x4c7;" horiz-adv-x="1212" d="M47 0l256 1470h164l-107 -608h631l105 608h164l-256 -1470h-164l121 686h-631l-119 -686h-164z" />
<glyph unicode="&#x4c8;" horiz-adv-x="964" d="M27 0l188 1071l147 2l-73 -424h422l75 426l146 -4l-189 -1071h-147l90 506h-422l-90 -506h-147z" />
<glyph unicode="&#x4cb;" horiz-adv-x="983" d="M68 842q0 13 6 55l100 573h164l-100 -573l-5 -25q0 -37 48.5 -67t106 -43.5t101.5 -13.5q71 0 168 39.5t105 82.5l104 600h164l-258 -1470h-164l115 649q-94 -76 -270 -76q-44 0 -102 12.5t-125 40.5t-112.5 84.5t-45.5 131.5z" />
<glyph unicode="&#x4cc;" horiz-adv-x="790" d="M39 653q0 29 4 45l66 373l147 2l-74 -414v-6q0 -31 43.5 -59.5t116.5 -28.5q75 0 131 20t62 58l77 432l148 -4l-191 -1071h-147l84 467q-30 -22 -66 -32.5t-61 -11.5t-90 -1q-101 0 -175.5 65t-74.5 166z" />
<glyph unicode="&#x4d0;" horiz-adv-x="1120" d="M-59 0l710 1470h185l180 -1470h-178l-45 428h-484l-200 -428h-168zM391 604h375l-68 653zM559 1894l2 60h82q5 -55 14 -78q31 -84 140 -84q74 0 118.5 36t83.5 126h80q-20 -67 -38.5 -105t-47.5 -73q-84 -101 -227 -101q-101 0 -154 56t-53 163z" />
<glyph unicode="&#x4d1;" d="M20 207q0 161 91.5 273t240.5 134l250 37q49 7 76 51.5t27 116.5q0 65 -45.5 99t-131.5 34q-97 0 -151.5 -46.5t-89.5 -160.5h-135q19 80 38.5 127t53.5 89q53 68 136.5 104.5t184.5 36.5q136 0 213.5 -63t77.5 -173q0 -33 -6 -63l-107 -617l-4 -22q-2 -17 9 -29t30 -12 q17 0 53 8l-24 -131l-19 -6q-38 -14 -69 -14q-62 0 -94.5 29.5t-32.5 84.5q0 13 4 49q-88 -92 -168 -133t-174 -41q-109 0 -171.5 64t-62.5 174zM178 248q0 -63 33 -96t96 -33q113 0 208 74.5t112 177.5l30 176q-26 -21 -73 -33.5t-183 -34.5q-117 -20 -170 -75t-53 -156z M408 1495l2 59h82q5 -54 14 -77q31 -84 139 -84q75 0 120 36t83 125h80q-20 -67 -38.5 -105t-47.5 -73q-83 -100 -228 -100q-101 0 -153.5 56t-52.5 163z" />
<glyph unicode="&#x4d2;" horiz-adv-x="1120" d="M-59 0l710 1470h185l180 -1470h-178l-45 428h-484l-200 -428h-168zM391 604h375l-68 653zM559 1675l37 209h152l-35 -209h-154zM831 1675l35 209h154l-37 -209h-152z" />
<glyph unicode="&#x4d3;" d="M20 207q0 161 91.5 273t240.5 134l250 37q49 7 76 51.5t27 116.5q0 65 -45.5 99t-131.5 34q-97 0 -151.5 -46.5t-89.5 -160.5h-135q19 80 38.5 127t53.5 89q53 68 136.5 104.5t184.5 36.5q136 0 213.5 -63t77.5 -173q0 -33 -6 -63l-107 -617l-4 -22q-2 -17 9 -29t30 -12 q17 0 53 8l-24 -131l-19 -6q-38 -14 -69 -14q-62 0 -94.5 29.5t-32.5 84.5q0 13 4 49q-88 -92 -168 -133t-174 -41q-109 0 -171.5 64t-62.5 174zM178 248q0 -63 33 -96t96 -33q113 0 208 74.5t112 177.5l30 176q-26 -21 -73 -33.5t-183 -34.5q-117 -20 -170 -75t-53 -156z M408 1276l36 209h152l-35 -209h-153zM680 1276l35 209h153l-37 -209h-151z" />
<glyph unicode="&#x4d4;" horiz-adv-x="1679" d="M-68 0l746 1470h1081l-30 -176h-656l-78 -450h598l-30 -176h-598l-86 -492h667l-30 -176h-830l74 428h-445l-206 -428h-177zM406 604h385l120 690h-161z" />
<glyph unicode="&#x4d5;" horiz-adv-x="1492" d="M20 207q0 161 91.5 273t240.5 134l250 37q49 7 76 51.5t27 116.5q0 65 -45.5 99t-131.5 34q-96 0 -151 -47t-90 -160h-135q19 80 38.5 127t53.5 89q111 141 334 141q97 0 151 -32t107 -120q86 86 153.5 119t159.5 33q161 0 231 -115q30 -52 48 -123t18 -139 q0 -84 -23 -248h-641q-12 -76 -12 -127q0 -104 53.5 -164.5t145.5 -60.5q91 0 166.5 59.5t103.5 151.5h147q-59 -174 -177 -270.5t-273 -96.5q-120 0 -188 52t-103 172q-92 -120 -181.5 -172t-203.5 -52q-113 0 -176.5 63t-63.5 175zM178 250q0 -131 129 -131 q112 0 206.5 74.5t113.5 177.5l30 176q-26 -22 -75 -35t-181 -33q-117 -20 -170 -74.5t-53 -154.5zM807 621h489q4 74 4 96q0 103 -50 163t-136 60q-106 0 -191 -88.5t-116 -230.5z" />
<glyph unicode="&#x4d6;" horiz-adv-x="1120" d="M63 0l256 1470h879l-31 -176h-714l-80 -450h661l-30 -176h-662l-84 -492h727l-31 -176h-891zM590 1894l2 60h82q5 -55 14 -78q31 -84 139 -84q75 0 120 36t83 126h80q-20 -67 -38.5 -105t-47.5 -73q-84 -101 -227 -101q-101 0 -154 56t-53 163z" />
<glyph unicode="&#x4d7;" d="M59 352q0 149 47 299.5t125 255.5q70 95 163 145t198 50q78 0 138.5 -30t92.5 -85q30 -52 48 -123t18 -139q0 -84 -23 -248h-641q-12 -77 -12 -127q0 -104 53.5 -164.5t147.5 -60.5q89 0 164.5 59.5t103.5 151.5h147q-59 -173 -176.5 -270t-271.5 -97t-238 100t-84 283z M250 621h489q4 74 4 96q0 103 -50 163t-136 60q-106 0 -190.5 -88t-116.5 -231zM401 1495l2 59h82q5 -51 15 -77q31 -84 139 -84q75 0 120 36t83 125h80q-20 -67 -38.5 -105t-47.5 -73q-83 -100 -228 -100q-101 0 -154 56t-53 163z" />
<glyph unicode="&#x4d8;" horiz-adv-x="1212" d="M98 389q0 30 2 53h158q3 -87 19 -136t55 -89q74 -80 207 -80q106 0 200 57t164 164q70 104 113 266t43 324q0 186 -78 285.5t-225 99.5q-168 0 -293 -149q-40 -50 -69 -105t-64 -149h-158q63 176 117.5 268.5t136.5 163.5q167 147 375 147q201 0 314.5 -141.5 t113.5 -392.5q0 -208 -60.5 -410t-164.5 -338q-98 -130 -224.5 -198t-269.5 -68q-189 0 -300.5 116t-111.5 312z" />
<glyph unicode="&#x4d9;" horiz-adv-x="839" d="M43 272q0 18 4 88h143q2 -77 11 -114q35 -115 157 -115q152 0 242 178q40 78 64 185.5t24 207.5q0 119 -46 181.5t-134 62.5q-169 0 -260 -254h-144q127 410 431 410q146 0 229.5 -101.5t83.5 -281.5q0 -149 -47 -299.5t-125 -255.5q-147 -195 -365 -195 q-125 0 -196.5 81t-71.5 222z" />
<glyph unicode="&#x4da;" horiz-adv-x="1212" d="M98 389q0 30 2 53h158q3 -87 19 -136t55 -89q74 -80 207 -80q106 0 200 57t164 164q70 104 113 266t43 324q0 186 -78 285.5t-225 99.5q-168 0 -293 -149q-40 -50 -69 -105t-64 -149h-158q63 176 117.5 268.5t136.5 163.5q167 147 375 147q201 0 314.5 -141.5 t113.5 -392.5q0 -208 -60.5 -410t-164.5 -338q-98 -130 -224.5 -198t-269.5 -68q-189 0 -300.5 116t-111.5 312zM614 1675l37 209h152l-35 -209h-154zM887 1675l35 209h153l-37 -209h-151z" />
<glyph unicode="&#x4db;" horiz-adv-x="839" d="M43 272q0 18 4 88h143q2 -77 11 -114q35 -115 157 -115q152 0 242 178q40 78 64 185.5t24 207.5q0 119 -46 181.5t-134 62.5q-169 0 -260 -254h-144q127 410 431 410q146 0 229.5 -101.5t83.5 -281.5q0 -149 -47 -299.5t-125 -255.5q-147 -195 -365 -195 q-125 0 -196.5 81t-71.5 222zM379 1276l37 209h151l-35 -209h-153zM651 1276l35 209h154l-37 -209h-152z" />
<glyph unicode="&#x4dc;" horiz-adv-x="1847" d="M-49 0l741 782l-469 688h226l405 -593h74l106 593h164l-106 -593h73l619 593h225l-715 -688l467 -782h-211l-430 717h-55l-127 -717h-164l127 717h-55l-684 -717h-211zM936 1675l37 209h151l-34 -209h-154zM1208 1675l35 209h154l-37 -209h-152z" />
<glyph unicode="&#x4dd;" horiz-adv-x="1343" d="M-63 0l575 537l-367 534h187l299 -453l80 453h143l-80 -453l459 453h186l-555 -534l387 -537h-190l-320 428l-75 -428h-144l76 428l-471 -428h-190zM604 1276l37 209h152l-35 -209h-154zM877 1276l34 209h154l-37 -209h-151z" />
<glyph unicode="&#x4de;" horiz-adv-x="1140" d="M44.5 284q-6.5 73 12.5 191h154q-19 -128 12 -201q61 -143 264 -143q147 0 240 66.5t115 187.5q6 43 7 84.5t-12.5 78.5t-37 65.5t-67.5 46t-103 18.5l-238 4l21 141h250q50 0 94.5 26t74.5 66.5t49.5 84.5t26.5 85q20 120 -40 187t-189 67q-172 0 -275 -125 q-51 -68 -77 -174h-154q25 98 47.5 154.5t59.5 110.5q72 99 183 151.5t247 52.5q220 0 305 -137q77 -130 47 -311q-38 -200 -180 -293q171 -96 123 -365q-37 -206 -184.5 -324t-368.5 -118q-138 0 -224.5 43.5t-138.5 140.5q-37 66 -43.5 139zM535 1675l36 209h152l-35 -209 h-153zM807 1675l35 209h153l-37 -209h-151z" />
<glyph unicode="&#x4df;" horiz-adv-x="839" d="M27 218q-2 48 8 126h143q-12 -114 32.5 -165.5t156.5 -51.5q97 0 160 45t77 123q8 30 4 64.5t-15.5 64t-44.5 49t-83 19.5h-141l24 141h119q48 0 83.5 13.5t55.5 38.5t30.5 50.5t16.5 57.5q12 71 -29 111t-126 40q-97 0 -153.5 -43.5t-78.5 -134.5h-143q38 162 139.5 249 t251.5 87q153 0 229 -92.5t48 -245.5q-24 -130 -121 -203q115 -72 86 -239q-28 -161 -143.5 -257t-282.5 -96q-109 0 -183 42t-102 120q-16 39 -18 87zM348 1276l37 209h152l-35 -209h-154zM621 1276l34 209h154l-37 -209h-151z" />
<glyph unicode="&#x4e0;" horiz-adv-x="1140" d="M44.5 284q-6.5 73 12.5 191h154q-19 -128 12 -201q61 -143 264 -143q147 0 240 66.5t115 187.5q6 43 7 84.5t-12.5 78.5t-37 65.5t-67.5 46t-103 18.5l-238 4l21 141h250q50 0 94.5 26t74.5 66.5t49.5 84.5t26.5 85q20 120 -40 187t-189 67q-172 0 -275 -125 q-51 -68 -77 -174h-154q25 98 47.5 154.5t59.5 110.5q72 99 183 151.5t247 52.5q220 0 305 -137q77 -130 47 -311q-38 -200 -180 -293q171 -96 123 -365q-37 -206 -184.5 -324t-368.5 -118q-138 0 -224.5 43.5t-138.5 140.5q-37 66 -43.5 139z" />
<glyph unicode="&#x4e1;" horiz-adv-x="839" d="M27 218q-2 48 8 126h143q-12 -114 32.5 -165.5t156.5 -51.5q97 0 160 45t77 123q8 30 4 64.5t-15.5 64t-44.5 49t-83 19.5h-141l24 141h119q48 0 83.5 13.5t55.5 38.5t30.5 50.5t16.5 57.5q12 71 -29 111t-126 40q-97 0 -153.5 -43.5t-78.5 -134.5h-143q38 162 139.5 249 t251.5 87q153 0 229 -92.5t48 -245.5q-24 -130 -121 -203q115 -72 86 -239q-28 -161 -143.5 -257t-282.5 -96q-109 0 -183 42t-102 120q-16 39 -18 87z" />
<glyph unicode="&#x4e2;" horiz-adv-x="1216" d="M47 0l260 1470h158l-211 -1194l819 1194h193l-260 -1470h-158l211 1194l-830 -1194h-182zM557 1675l21 117h526l-21 -117h-526z" />
<glyph unicode="&#x4e3;" horiz-adv-x="964" d="M27 0l188 1071l147 2l-155 -887l536 885q136 -2 189 0l-189 -1071h-147l154 874l-535 -874h-188zM346 1276l21 117h526l-21 -117h-526z" />
<glyph unicode="&#x4e4;" horiz-adv-x="1216" d="M47 0l260 1470h158l-211 -1194l819 1194h193l-260 -1470h-158l211 1194l-830 -1194h-182zM608 1675l37 209h152l-35 -209h-154zM881 1675l34 209h154l-37 -209h-151z" />
<glyph unicode="&#x4e5;" horiz-adv-x="964" d="M27 0l188 1071l147 2l-155 -887l536 885q136 -2 189 0l-189 -1071h-147l154 874l-535 -874h-188zM397 1276l37 209h152l-35 -209h-154zM670 1276l35 209h153l-37 -209h-151z" />
<glyph unicode="&#x4e6;" horiz-adv-x="1306" d="M94 535q0 187 60 373.5t165 326.5q209 274 515 274q224 0 347.5 -150.5t123.5 -424.5q0 -185 -61 -370.5t-167 -327.5q-207 -275 -512 -275q-100 0 -185 32.5t-142 92.5q-65 68 -104.5 191t-39.5 258zM264 561q0 -198 88 -311t242 -113q131 0 243 79.5t187 225.5 q111 217 111 469q0 197 -88.5 309.5t-243.5 112.5q-146 0 -270 -103.5t-196.5 -281.5t-72.5 -387zM651 1675l37 209h152l-35 -209h-154zM924 1675l34 209h154l-37 -209h-151z" />
<glyph unicode="&#x4e7;" d="M57 387q0 136 45.5 277.5t122.5 242.5q147 195 353 195q151 0 236 -110t85 -304q0 -140 -45 -278.5t-123 -243.5q-145 -195 -352 -195q-151 0 -236.5 110.5t-85.5 305.5zM211 406q0 -135 51 -207t146 -72q77 0 142 48t112 140q83 160 83 351q0 135 -50.5 207.5 t-145.5 72.5q-77 0 -142 -48t-112 -140q-84 -162 -84 -352zM395 1276l37 209h152l-35 -209h-154zM668 1276l34 209h154l-37 -209h-151z" />
<glyph unicode="&#x4e8;" horiz-adv-x="1306" d="M94 535q0 187 60 373.5t165 326.5q209 274 515 274q224 0 347.5 -150.5t123.5 -424.5q0 -185 -61 -370.5t-167 -327.5q-207 -275 -512 -275q-100 0 -185 32.5t-142 92.5q-65 68 -104.5 191t-39.5 258zM264 561q0 -198 88 -311t242 -113q131 0 243 79.5t187 225.5 q111 217 111 469q0 197 -88.5 309.5t-243.5 112.5q-146 0 -270 -103.5t-196.5 -281.5t-72.5 -387z" />
<glyph unicode="&#x4e9;" d="M57 387q0 136 45.5 277.5t122.5 242.5q147 195 353 195q151 0 236 -110t85 -304q0 -140 -45 -278.5t-123 -243.5q-145 -195 -352 -195q-151 0 -236.5 110.5t-85.5 305.5zM211 406q0 -135 51 -207t146 -72q77 0 142 48t112 140q83 160 83 351q0 135 -50.5 207.5 t-145.5 72.5q-77 0 -142 -48t-112 -140q-84 -162 -84 -352z" />
<glyph unicode="&#x4ea;" horiz-adv-x="1306" d="M94 535q0 187 60 373.5t165 326.5q209 274 515 274q224 0 347.5 -150.5t123.5 -424.5q0 -185 -61 -370.5t-167 -327.5q-207 -275 -512 -275q-100 0 -185 32.5t-142 92.5q-65 68 -104.5 191t-39.5 258zM264 561q0 -198 88 -311t242 -113q131 0 243 79.5t187 225.5 q111 217 111 469q0 197 -88.5 309.5t-243.5 112.5q-146 0 -270 -103.5t-196.5 -281.5t-72.5 -387zM651 1675l37 209h152l-35 -209h-154zM924 1675l34 209h154l-37 -209h-151z" />
<glyph unicode="&#x4eb;" d="M57 387q0 136 45.5 277.5t122.5 242.5q147 195 353 195q151 0 236 -110t85 -304q0 -140 -45 -278.5t-123 -243.5q-145 -195 -352 -195q-151 0 -236.5 110.5t-85.5 305.5zM211 406q0 -135 51 -207t146 -72q77 0 142 48t112 140q83 160 83 351q0 135 -50.5 207.5 t-145.5 72.5q-77 0 -142 -48t-112 -140q-84 -162 -84 -352zM395 1276l37 209h152l-35 -209h-154zM668 1276l34 209h154l-37 -209h-151z" />
<glyph unicode="&#x4ec;" horiz-adv-x="1208" d="M82 541h158q2 -95 11 -149t32 -103q77 -150 239 -150q174 0 300 138t182 389h-572l31 178h567q20 231 -60 359t-247 128q-126 0 -234 -78q-51 -39 -83 -88t-68 -137h-158q26 85 52 137.5t69 110.5q85 112 203.5 172.5t253.5 60.5q258 0 374 -210t54 -566 q-63 -355 -247 -563.5t-433 -208.5q-100 0 -183.5 38t-138.5 110q-57 71 -79.5 165t-22.5 267zM604 1675l37 209h152l-35 -209h-154zM877 1675l34 209h154l-37 -209h-151z" />
<glyph unicode="&#x4ed;" horiz-adv-x="880" d="M59 379h144q0 -252 170 -252q107 0 185.5 99t115.5 280h-340l24 143h332q6 142 -41 217.5t-143 75.5q-88 0 -147 -55t-99 -176h-143q110 391 403 391q190 0 274 -158.5t37 -427.5q-43 -250 -176 -398.5t-313 -148.5q-304 0 -283 410zM379 1276l37 209h151l-35 -209h-153z M651 1276l35 209h154l-37 -209h-152z" />
<glyph unicode="&#x4ee;" horiz-adv-x="1163" d="M92 0l412 610l-289 860h191l221 -706l471 706h190l-1016 -1470h-180zM524 1675l21 117h526l-20 -117h-527z" />
<glyph unicode="&#x4ef;" horiz-adv-x="843" d="M-63 -422l28 164q44 -18 86 -18q46 0 76 28t68 109l55 110l-133 1100h168l82 -878l389 878h164l-500 -1051q-56 -115 -90 -181t-70 -123.5t-58.5 -83t-55.5 -44t-62 -22.5t-76 -4q-27 0 -59 12l-6 2zM291 1276l20 117h527l-21 -117h-526z" />
<glyph unicode="&#x4f0;" horiz-adv-x="1163" d="M92 0l412 610l-289 860h191l221 -706l471 706h190l-1016 -1470h-180zM575 1675l37 209h152l-35 -209h-154zM848 1675l35 209h153l-37 -209h-151z" />
<glyph unicode="&#x4f1;" horiz-adv-x="843" d="M-63 -422l28 164q44 -18 86 -18q46 0 76 28t68 109l55 110l-133 1100h168l82 -878l389 878h164l-500 -1051q-56 -115 -90 -181t-70 -123.5t-58.5 -83t-55.5 -44t-62 -22.5t-76 -4q-27 0 -59 12l-6 2zM342 1276l37 209h151l-34 -209h-154zM614 1276l35 209h154l-37 -209 h-152z" />
<glyph unicode="&#x4f2;" horiz-adv-x="1163" d="M92 0l412 610l-289 860h191l221 -706l471 706h190l-1016 -1470h-180zM471 1675l199 289h184l-270 -289h-113zM772 1675l201 289h182l-270 -289h-113z" />
<glyph unicode="&#x4f3;" horiz-adv-x="843" d="M-63 -422l28 164q44 -18 86 -18q46 0 76 28t68 109l55 110l-133 1100h168l82 -878l389 878h164l-500 -1051q-56 -115 -90 -181t-70 -123.5t-58.5 -83t-55.5 -44t-62 -22.5t-76 -4q-27 0 -59 12l-6 2zM238 1276l198 289h185l-271 -289h-112zM539 1276l200 289h183 l-271 -289h-112z" />
<glyph unicode="&#x4f4;" horiz-adv-x="983" d="M68 842q0 13 6 55l100 573h164l-100 -573l-5 -25q0 -37 48.5 -67t106 -43.5t101.5 -13.5q71 0 168 39.5t105 82.5l104 600h164l-258 -1470h-164l115 649q-94 -76 -270 -76q-44 0 -102 12.5t-125 40.5t-112.5 84.5t-45.5 131.5zM418 1632l37 209h151l-35 -209h-153z M690 1632l35 209h154l-37 -209h-152z" />
<glyph unicode="&#x4f5;" horiz-adv-x="790" d="M39 653q0 29 4 45l66 373h147l-74 -412v-6q0 -31 43.5 -59.5t116.5 -28.5q75 0 131 20t62 58l77 428h148l-191 -1071h-147l84 467q-30 -22 -66 -32.5t-61 -11.5t-90 -1q-101 0 -175.5 65t-74.5 166zM252 1286l37 209h151l-34 -209h-154zM524 1286l35 209h154l-37 -209 h-152z" />
<glyph unicode="&#x4f8;" horiz-adv-x="1599" d="M47 0l260 1470h164l-111 -620h377q163 0 240 -118.5t43 -315.5q-34 -188 -152.5 -302t-279.5 -114h-541zM242 170h327q240 0 283 252q47 258 -199 258h-321zM801 1675l37 209h151l-35 -209h-153zM1073 1675l35 209h154l-37 -209h-152zM1227 0l260 1470h162l-260 -1470 h-162z" />
<glyph unicode="&#x4f9;" horiz-adv-x="1230" d="M27 0l188 1073l139 -2l-78 -444h259q112 0 186 -43.5t100.5 -110t12.5 -143.5q-25 -147 -146 -238.5t-303 -91.5h-358zM190 143h211q121 0 195.5 48t89.5 139q17 88 -45 125t-207 37h-182zM530 1276l37 209h152l-35 -209h-154zM803 1276l35 209h153l-37 -209h-151zM862 0 l189 1071h147l-188 -1071h-148z" />
<glyph unicode="&#xe3f;" horiz-adv-x="1120" d="M43 0l256 1470h369l30 170h109l-31 -170h53q132 0 207.5 -76.5t75.5 -211.5q0 -124 -55.5 -224t-165.5 -165q91 -49 127.5 -108.5t36.5 -156.5q0 -145 -65.5 -266.5t-179 -191.5t-249.5 -70h-41l-28 -170h-111l31 170h-369zM236 170h204l90 516h-204zM352 848h207l80 452 h-207zM551 170h31q136 0 221.5 92t85.5 238q0 186 -244 186h-4zM668 848q135 6 205.5 84.5t70.5 210.5q0 151 -196 157z" />
<glyph unicode="&#x1e0c;" horiz-adv-x="1212" d="M53 0l256 1470h490q189 0 295 -133.5t106 -369.5q0 -182 -49.5 -356.5t-135.5 -310t-211.5 -218t-266.5 -82.5h-484zM246 170h315q132 0 241 107.5t168.5 284.5t59.5 382q0 172 -73 264t-209 92h-306zM369 -369l32 197h177l-33 -197h-176z" />
<glyph unicode="&#x1e0d;" d="M59 379q0 198 62.5 364t171.5 262.5t239 96.5q90 0 145 -45.5t89 -147.5l98 561h148l-256 -1470h-140l27 154q-66 -100 -132 -142.5t-155 -42.5q-142 0 -219.5 106.5t-77.5 303.5zM211 381q0 -122 45.5 -189t128.5 -67q139 0 232.5 155t93.5 404q0 256 -181 256 q-78 0 -140.5 -48.5t-100.5 -129.5t-58 -178.5t-20 -202.5zM233 -369l33 197h176l-32 -197h-177z" />
<glyph unicode="&#x1e0e;" horiz-adv-x="1212" d="M53 0l256 1470h490q189 0 295 -133.5t106 -369.5q0 -182 -49.5 -356.5t-135.5 -310t-211.5 -218t-266.5 -82.5h-484zM201 -328l20 117h527l-21 -117h-526zM246 170h315q132 0 241 107.5t168.5 284.5t59.5 382q0 172 -73 264t-209 92h-306z" />
<glyph unicode="&#x1e0f;" d="M59 379q0 198 62.5 364t171.5 262.5t239 96.5q90 0 145 -45.5t89 -147.5l98 561h148l-256 -1470h-140l27 154q-66 -100 -132 -142.5t-155 -42.5q-142 0 -219.5 106.5t-77.5 303.5zM66 -328l20 117h526l-20 -117h-526zM211 381q0 -122 45.5 -189t128.5 -67 q139 0 232.5 155t93.5 404q0 256 -181 256q-78 0 -140.5 -48.5t-100.5 -129.5t-58 -178.5t-20 -202.5z" />
<glyph unicode="&#x1e24;" horiz-adv-x="1212" d="M47 0l256 1470h164l-107 -608h631l105 608h164l-256 -1470h-164l121 686h-631l-119 -686h-164zM373 -369l33 197h176l-33 -197h-176z" />
<glyph unicode="&#x1e25;" d="M27 0l256 1470h149l-96 -546q82 100 147.5 139t153.5 39q116 0 180 -69t64 -193q0 -40 -11 -111l-127 -729h-147l121 700q10 55 10 99q0 141 -139 141q-119 0 -201 -93t-111 -263l-102 -584h-147zM233 -369l33 197h176l-32 -197h-177z" />
<glyph unicode="&#x1e26;" horiz-adv-x="1212" d="M47 0l256 1470h164l-107 -608h631l105 608h164l-256 -1470h-164l121 686h-631l-119 -686h-164zM553 1622l35 197h180l-35 -197h-180zM883 1622l35 197h180l-35 -197h-180z" />
<glyph unicode="&#x1e27;" d="M27 0l256 1470h149l-96 -546q82 100 147.5 139t153.5 39q116 0 180 -69t64 -193q0 -40 -11 -111l-127 -729h-147l121 700q10 55 10 99q0 141 -139 141q-119 0 -201 -93t-111 -263l-102 -584h-147zM414 1622l35 197h180l-35 -197h-180zM743 1622l35 197h180l-34 -197h-181 z" />
<glyph unicode="&#x1e2a;" horiz-adv-x="1212" d="M47 0l256 1470h164l-107 -608h631l105 608h164l-256 -1470h-164l121 686h-631l-119 -686h-164zM219 -152h82v-14q31 -52 71 -79t107 -27q72 0 117 28.5t80 91.5h100q-56 -119 -133.5 -178t-193.5 -59q-112 0 -165.5 59t-64.5 178z" />
<glyph unicode="&#x1e2b;" d="M27 0l256 1470h149l-96 -546q82 100 147.5 139t153.5 39q116 0 180 -69t64 -193q0 -40 -11 -111l-127 -729h-147l121 700q10 55 10 99q0 141 -139 141q-119 0 -201 -93t-111 -263l-102 -584h-147zM80 -152h82v-14q31 -52 71 -79t107 -27q72 0 117 28.5t80 91.5h100 q-56 -119 -134 -178t-194 -59q-112 0 -165 59t-64 178z" />
<glyph unicode="&#x1e36;" d="M45 0l256 1470h164l-225 -1294h610l-31 -176h-774zM281 -369l32 197h176l-32 -197h-176z" />
<glyph unicode="&#x1e37;" horiz-adv-x="372" d="M-47 -369l33 197h176l-33 -197h-176zM31 0l256 1470h147l-256 -1470h-147z" />
<glyph unicode="&#x1e38;" d="M45 0l256 1470h164l-225 -1294h610l-31 -176h-774zM152 1663l20 117h526l-20 -117h-526zM281 -369l32 197h176l-32 -197h-176z" />
<glyph unicode="&#x1e39;" horiz-adv-x="372" d="M-47 -369l33 197h176l-33 -197h-176zM31 0l256 1470h147l-256 -1470h-147zM131 1663l21 117h526l-21 -117h-526z" />
<glyph unicode="&#x1e42;" horiz-adv-x="1398" d="M41 0l256 1470h233l129 -1249l562 1249h231l-256 -1470h-158l152 868l70 379l-562 -1247h-159l-127 1245l-47 -282q-11 -59 -15 -95l-151 -868h-158zM467 -369l33 197h176l-33 -197h-176z" />
<glyph unicode="&#x1e43;" horiz-adv-x="1398" d="M27 0l186 1071h141l-28 -158q75 100 146.5 144.5t158.5 44.5q82 0 128.5 -41t71.5 -133q95 103 155.5 138.5t139.5 35.5q104 0 164 -68t60 -186q0 -43 -11 -107l-129 -741h-147l121 692q8 44 8 101q0 147 -125 147q-89 0 -163.5 -82.5t-96.5 -204.5l-115 -653h-147 l129 741q6 30 6 64q0 66 -28 100.5t-79 34.5q-109 0 -189 -96.5t-108 -259.5l-102 -584h-147zM467 -369l33 197h176l-33 -197h-176z" />
<glyph unicode="&#x1e44;" horiz-adv-x="1212" d="M45 0l256 1470h195l397 -1194l209 1194h158l-256 -1470h-185l-407 1194l-209 -1194h-158zM721 1622l35 197h176l-35 -197h-176z" />
<glyph unicode="&#x1e45;" d="M27 0l186 1071h139l-26 -158q77 100 150 144.5t163 44.5q114 0 178 -69.5t64 -192.5q0 -40 -11 -111l-127 -729h-147l115 659q10 68 10 123q0 158 -141 158q-112 0 -193.5 -95t-110.5 -261l-102 -584h-147zM514 1243l35 197h176l-35 -197h-176z" />
<glyph unicode="&#x1e46;" horiz-adv-x="1212" d="M45 0l256 1470h195l397 -1194l209 1194h158l-256 -1470h-185l-407 1194l-209 -1194h-158zM373 -369l33 197h176l-33 -197h-176z" />
<glyph unicode="&#x1e47;" d="M27 0l186 1071h139l-26 -158q77 100 150 144.5t163 44.5q114 0 178 -69.5t64 -192.5q0 -40 -11 -111l-127 -729h-147l115 659q10 68 10 123q0 158 -141 158q-112 0 -193.5 -95t-110.5 -261l-102 -584h-147zM233 -369l33 197h176l-32 -197h-177z" />
<glyph unicode="&#x1e58;" horiz-adv-x="1212" d="M66 0l256 1470h559q164 0 250 -74.5t86 -217.5q0 -150 -57 -260.5t-181 -194.5q60 -34 81 -71.5t21 -112.5q0 -47 -6 -93l-37 -266q-6 -44 -6 -69t9 -41.5t32 -36.5l-6 -33h-201v35q0 120 37 334q10 68 10 102q0 78 -46 119t-134 41h-395l-109 -631h-163zM369 801h376 q147 0 222 88t75 241q0 86 -44 128t-136 42h-407zM688 1622l35 197h176l-35 -197h-176z" />
<glyph unicode="&#x1e59;" horiz-adv-x="559" d="M47 0l186 1071h140l-33 -184q80 117 145.5 166t143.5 49q19 0 37 -6l-33 -187h-55q-97 0 -175 -81t-100 -205l-108 -623h-148zM328 1243l34 197h177l-35 -197h-176z" />
<glyph unicode="&#x1e5a;" horiz-adv-x="1212" d="M66 0l256 1470h559q164 0 250 -74.5t86 -217.5q0 -150 -57 -260.5t-181 -194.5q60 -34 81 -71.5t21 -112.5q0 -47 -6 -93l-37 -266q-6 -44 -6 -69t9 -41.5t32 -36.5l-6 -33h-201v35q0 120 37 334q10 68 10 102q0 78 -46 119t-134 41h-395l-109 -631h-163zM340 -369 l33 197h176l-33 -197h-176zM369 801h376q147 0 222 88t75 241q0 86 -44 128t-136 42h-407z" />
<glyph unicode="&#x1e5b;" horiz-adv-x="559" d="M-31 -369l33 197h176l-33 -197h-176zM47 0l186 1071h140l-33 -184q80 117 145.5 166t143.5 49q19 0 37 -6l-33 -187h-55q-97 0 -175 -81t-100 -205l-108 -623h-148z" />
<glyph unicode="&#x1e5c;" horiz-adv-x="1212" d="M66 0l256 1470h559q164 0 250 -74.5t86 -217.5q0 -150 -57 -260.5t-181 -194.5q60 -34 81 -71.5t21 -112.5q0 -47 -6 -93l-37 -266q-6 -44 -6 -69t9 -41.5t32 -36.5l-6 -33h-201v35q0 120 37 334q10 68 10 102q0 78 -46 119t-134 41h-395l-109 -631h-163zM340 -369 l33 197h176l-33 -197h-176zM369 801h376q147 0 222 88t75 241q0 86 -44 128t-136 42h-407zM518 1663l21 117h526l-21 -117h-526z" />
<glyph unicode="&#x1e5d;" horiz-adv-x="559" d="M-31 -369l33 197h176l-33 -197h-176zM47 0l186 1071h140l-33 -184q80 117 145.5 166t143.5 49q19 0 37 -6l-33 -187h-55q-97 0 -175 -81t-100 -205l-108 -623h-148zM162 1315l20 117h527l-21 -117h-526z" />
<glyph unicode="&#x1e62;" horiz-adv-x="1120" d="M70 322q0 68 14 153h154q-9 -55 -9 -94q0 -117 76.5 -183.5t208.5 -66.5q166 0 263 84t97 229q0 74 -47.5 116t-171.5 79l-233 70q-205 62 -205 264q0 142 64.5 264t184 197t267.5 75q180 0 280.5 -91t100.5 -253q0 -60 -8 -125h-154q4 54 4 68q0 107 -67 169t-184 62 q-141 0 -231.5 -85t-90.5 -218q0 -107 115 -141l325 -96q215 -63 215 -295q0 -242 -156.5 -392.5t-406.5 -150.5q-190 0 -297.5 100.5t-107.5 260.5zM324 -369l32 197h176l-32 -197h-176z" />
<glyph unicode="&#x1e63;" horiz-adv-x="839" d="M25 238q0 49 8 106h143q-4 -46 -4 -59q0 -76 50.5 -118t142.5 -42q105 0 172 55.5t67 143.5q0 43 -33.5 71t-117.5 54l-162 51q-162 52 -162 200q0 169 116 285.5t283 116.5q129 0 204 -71t75 -195q0 -12 -4 -70h-144l5 45q0 64 -45 99.5t-125 35.5q-95 0 -154 -51 t-59 -133q0 -40 28 -63t107 -48l141 -45q107 -35 155 -87t48 -132q0 -174 -123.5 -296t-300.5 -122q-149 0 -230 70.5t-81 198.5zM186 -369l33 197h176l-33 -197h-176z" />
<glyph unicode="&#x1e6c;" horiz-adv-x="1026" d="M168 1294l31 176h979l-31 -176h-408l-225 -1294h-164l225 1294h-407zM281 -369l32 197h176l-32 -197h-176z" />
<glyph unicode="&#x1e6d;" horiz-adv-x="466" d="M0 -369l33 197h176l-33 -197h-176zM90 129q0 47 8 86l123 707h-119l27 149h119l51 299h150l-54 -299h142l-27 -149h-141l-121 -697q-2 -8 -2 -24q0 -32 18 -46t58 -14h53l-25 -141q-116 -14 -123 -14q-66 0 -101.5 37t-35.5 106z" />
<glyph unicode="&#x1e6e;" horiz-adv-x="1026" d="M113 -328l20 117h526l-20 -117h-526zM168 1294l31 176h979l-31 -176h-408l-225 -1294h-164l225 1294h-407z" />
<glyph unicode="&#x1e6f;" horiz-adv-x="466" d="M-168 -328l21 117h526l-21 -117h-526zM90 129q0 47 8 86l123 707h-119l27 149h119l51 299h150l-54 -299h142l-27 -149h-141l-121 -697q-2 -8 -2 -24q0 -32 18 -46t58 -14h53l-25 -141q-116 -14 -123 -14q-66 0 -101.5 37t-35.5 106z" />
<glyph unicode="&#x1e80;" horiz-adv-x="1585" d="M201 0v1470h192v-1204l484 1204h239v-1204l436 1204h181l-574 -1470h-235v1227l-494 -1227h-229zM786 1843h203l86 -248h-112z" />
<glyph unicode="&#x1e81;" horiz-adv-x="1212" d="M129 1071h182v-850l320 850h190v-850l328 850h147l-442 -1071h-186v838l-320 -838h-151zM508 1485h203l80 -289h-113z" />
<glyph unicode="&#x1e82;" horiz-adv-x="1585" d="M201 0v1470h192v-1204l484 1204h239v-1204l436 1204h181l-574 -1470h-235v1227l-494 -1227h-229zM961 1595l172 248h202l-262 -248h-112z" />
<glyph unicode="&#x1e83;" horiz-adv-x="1212" d="M129 1071h182v-850l320 850h190v-850l328 850h147l-442 -1071h-186v838l-320 -838h-151zM676 1196l180 289h203l-271 -289h-112z" />
<glyph unicode="&#x1e84;" horiz-adv-x="1585" d="M201 0v1470h192v-1204l484 1204h239v-1204l436 1204h181l-574 -1470h-235v1227l-494 -1227h-229zM768 1622l35 197h180l-35 -197h-180zM1098 1622l35 197h180l-35 -197h-180z" />
<glyph unicode="&#x1e85;" horiz-adv-x="1212" d="M129 1071h182v-850l320 850h190v-850l328 850h147l-442 -1071h-186v838l-320 -838h-151zM485 1243l35 197h180l-34 -197h-181zM815 1243l35 197h180l-35 -197h-180z" />
<glyph unicode="&#x1e92;" horiz-adv-x="1026" d="M-43 0l29 166l936 1128h-684l30 176h893l-31 -172l-935 -1122h741l-31 -176h-948zM307 -369l33 197h176l-33 -197h-176z" />
<glyph unicode="&#x1e93;" horiz-adv-x="839" d="M-31 0l25 141l665 781h-489l27 149h680l-27 -147l-657 -774h538l-26 -150h-736zM186 -369l33 197h176l-33 -197h-176z" />
<glyph unicode="&#x1e97;" horiz-adv-x="466" d="M90 129q0 47 8 86l123 707h-119l27 149h119l51 299h150l-54 -299h142l-27 -149h-141l-121 -697q-2 -8 -2 -24q0 -32 18 -46t58 -14h53l-25 -141q-116 -14 -123 -14q-66 0 -101.5 37t-35.5 106zM145 1522l35 196h180l-34 -196h-181zM475 1522l35 196h180l-35 -196h-180z " />
<glyph unicode="&#x1ea0;" horiz-adv-x="1120" d="M-59 0l710 1470h185l180 -1470h-178l-45 428h-484l-200 -428h-168zM328 -369l32 197h177l-33 -197h-176zM391 604h375l-68 653z" />
<glyph unicode="&#x1ea1;" d="M20 207q0 161 91.5 273t240.5 134l250 37q49 7 76 51.5t27 116.5q0 65 -45.5 99t-131.5 34q-97 0 -151.5 -46.5t-89.5 -160.5h-135q41 182 143 269.5t270 87.5q136 0 213.5 -63t77.5 -173q0 -33 -6 -63l-111 -639q0 -41 39 -41q17 0 53 8l-24 -131l-19 -6 q-38 -14 -69 -14q-62 0 -94.5 29.5t-32.5 84.5q0 13 4 49q-88 -92 -168 -133t-174 -41q-109 0 -171.5 64t-62.5 174zM178 248q0 -63 33 -96t96 -33q112 0 206.5 74.5t113.5 177.5l30 176q-26 -21 -73 -33.5t-183 -34.5q-117 -20 -170 -75t-53 -156zM221 -369l33 197h176 l-33 -197h-176z" />
<glyph unicode="&#x1ea2;" horiz-adv-x="1120" d="M-59 0l710 1470h185l180 -1470h-178l-45 428h-484l-200 -428h-168zM391 604h375l-68 653zM590 1747q15 92 78 140t168 48q93 0 141 -38t37 -103q-6 -39 -30.5 -66t-84.5 -61q-47 -30 -60 -41t-16 -24l-8 -50h-115l11 56q6 37 30.5 60.5t87.5 57.5q67 40 70 68 q5 22 -18.5 36.5t-65.5 14.5q-63 0 -88 -28q-16 -16 -25 -70h-112z" />
<glyph unicode="&#x1ea3;" d="M20 207q0 161 91.5 273t240.5 134l250 37q49 7 76 51.5t27 116.5q0 65 -45.5 99t-131.5 34q-97 0 -151.5 -46.5t-89.5 -160.5h-135q41 182 143 269.5t270 87.5q136 0 213.5 -63t77.5 -173q0 -33 -6 -63l-111 -639q0 -41 39 -41q17 0 53 8l-24 -131l-19 -6 q-38 -14 -69 -14q-62 0 -94.5 29.5t-32.5 84.5q0 13 4 49q-88 -92 -168 -133t-174 -41q-109 0 -171.5 64t-62.5 174zM178 248q0 -63 33 -96t96 -33q112 0 206.5 74.5t113.5 177.5l30 176q-26 -21 -73 -33.5t-183 -34.5q-117 -20 -170 -75t-53 -156zM406 1348q15 92 78 140 t167 48q93 0 141 -38t37 -103q-6 -39 -30.5 -66t-83.5 -61q-46 -30 -59.5 -41.5t-16.5 -24.5l-8 -49h-115l10 55q6 37 31 61t88 58q67 40 70 68q5 22 -18.5 36.5t-65.5 14.5q-62 0 -88 -29q-16 -16 -25 -69h-112z" />
<glyph unicode="&#x1ea4;" horiz-adv-x="1120" d="M-59 0l710 1470h185l180 -1470h-178l-45 428h-484l-200 -428h-168zM391 604h375l-68 653zM492 1597l239 248h158l153 -248h-135l-114 150l-168 -150h-133zM760 1886l174 248h203l-265 -248h-112z" />
<glyph unicode="&#x1ea5;" d="M20 207q0 161 91.5 273t240.5 134l250 37q49 7 76 51.5t27 116.5q0 65 -45.5 99t-131.5 34q-97 0 -151.5 -46.5t-89.5 -160.5h-135q41 182 143 269.5t270 87.5q136 0 213.5 -63t77.5 -173q0 -33 -6 -63l-111 -639q0 -41 39 -41q17 0 53 8l-24 -131l-19 -6 q-38 -14 -69 -14q-62 0 -94.5 29.5t-32.5 84.5q0 13 4 49q-88 -92 -168 -133t-174 -41q-109 0 -171.5 64t-62.5 174zM178 248q0 -63 33 -96t96 -33q112 0 206.5 74.5t113.5 177.5l30 176q-26 -21 -73 -33.5t-183 -34.5q-117 -20 -170 -75t-53 -156zM307 1198l240 248h158 l153 -248h-135l-115 150l-168 -150h-133zM575 1487l175 248h202l-264 -248h-113z" />
<glyph unicode="&#x1ea6;" horiz-adv-x="1120" d="M-59 0l710 1470h185l180 -1470h-178l-45 428h-484l-200 -428h-168zM391 604h375l-68 653zM492 1597l239 248h158l153 -248h-135l-114 150l-168 -150h-133zM584 2134h202l88 -248h-112z" />
<glyph unicode="&#x1ea7;" d="M20 207q0 161 91.5 273t240.5 134l250 37q49 7 76 51.5t27 116.5q0 65 -45.5 99t-131.5 34q-97 0 -151.5 -46.5t-89.5 -160.5h-135q41 182 143 269.5t270 87.5q136 0 213.5 -63t77.5 -173q0 -33 -6 -63l-111 -639q0 -41 39 -41q17 0 53 8l-24 -131l-19 -6 q-38 -14 -69 -14q-62 0 -94.5 29.5t-32.5 84.5q0 13 4 49q-88 -92 -168 -133t-174 -41q-109 0 -171.5 64t-62.5 174zM178 248q0 -63 33 -96t96 -33q112 0 206.5 74.5t113.5 177.5l30 176q-26 -21 -73 -33.5t-183 -34.5q-117 -20 -170 -75t-53 -156zM307 1198l240 248h158 l153 -248h-135l-115 150l-168 -150h-133zM399 1735h203l88 -248h-112z" />
<glyph unicode="&#x1ea8;" horiz-adv-x="1120" d="M-59 0l710 1470h185l180 -1470h-178l-45 428h-484l-200 -428h-168zM391 604h375l-68 653zM492 1597l239 248h158l153 -248h-135l-114 150l-168 -150h-133zM707 2060q31 170 243 170q93 0 142 -35t38 -92q-6 -35 -29.5 -59.5t-82.5 -56.5q-45 -25 -58.5 -35.5t-15.5 -22.5 l-8 -43h-115l10 49q6 34 29.5 55t85.5 52q67 37 70 61q4 20 -19.5 32.5t-66.5 12.5q-65 0 -86 -24q-16 -13 -25 -64h-112z" />
<glyph unicode="&#x1ea9;" d="M20 207q0 161 91.5 273t240.5 134l250 37q49 7 76 51.5t27 116.5q0 65 -45.5 99t-131.5 34q-97 0 -151.5 -46.5t-89.5 -160.5h-135q41 182 143 269.5t270 87.5q136 0 213.5 -63t77.5 -173q0 -33 -6 -63l-111 -639q0 -41 39 -41q17 0 53 8l-24 -131l-19 -6 q-38 -14 -69 -14q-62 0 -94.5 29.5t-32.5 84.5q0 13 4 49q-88 -92 -168 -133t-174 -41q-109 0 -171.5 64t-62.5 174zM178 248q0 -63 33 -96t96 -33q112 0 206.5 74.5t113.5 177.5l30 176q-26 -21 -73 -33.5t-183 -34.5q-117 -20 -170 -75t-53 -156zM307 1198l240 248h158 l153 -248h-135l-115 150l-168 -150h-133zM522 1661q15 83 77.5 126.5t166.5 43.5q93 0 142 -35t38 -92q-6 -35 -29.5 -60t-82.5 -57q-46 -25 -59.5 -35t-14.5 -22l-8 -43h-115l10 49q6 34 29.5 54.5t85.5 51.5q66 37 69 62q4 20 -19.5 32.5t-66.5 12.5q-64 0 -86 -25 q-15 -12 -24 -63h-113z" />
<glyph unicode="&#x1eaa;" horiz-adv-x="1120" d="M-59 0l710 1470h185l180 -1470h-178l-45 428h-484l-200 -428h-168zM391 604h375l-68 653zM492 1597l239 248h158l153 -248h-135l-114 150l-168 -150h-133zM535 1907q35 114 86.5 166.5t126.5 52.5q48 0 108 -31l35 -18q52 -27 78 -27q34 0 55.5 21.5t40.5 72.5h84 q-34 -109 -87 -166t-122 -57q-30 0 -92 27l-41 18q-73 31 -96 31q-31 0 -53 -20.5t-44 -69.5h-79z" />
<glyph unicode="&#x1eab;" d="M20 207q0 161 91.5 273t240.5 134l250 37q49 7 76 51.5t27 116.5q0 65 -45.5 99t-131.5 34q-97 0 -151.5 -46.5t-89.5 -160.5h-135q41 182 143 269.5t270 87.5q136 0 213.5 -63t77.5 -173q0 -33 -6 -63l-111 -639q0 -41 39 -41q17 0 53 8l-24 -131l-19 -6 q-38 -14 -69 -14q-62 0 -94.5 29.5t-32.5 84.5q0 13 4 49q-88 -92 -168 -133t-174 -41q-109 0 -171.5 64t-62.5 174zM178 248q0 -63 33 -96t96 -33q112 0 206.5 74.5t113.5 177.5l30 176q-26 -21 -73 -33.5t-183 -34.5q-117 -20 -170 -75t-53 -156zM307 1198l240 248h158 l153 -248h-135l-115 150l-168 -150h-133zM350 1507q35 114 86.5 166.5t126.5 52.5q51 0 109 -30l35 -19q50 -26 77 -26q34 0 56 21.5t41 72.5h84q-34 -109 -87 -166t-122 -57q-33 0 -92 26l-41 19q-71 30 -97 30q-31 0 -52.5 -20.5t-43.5 -69.5h-80z" />
<glyph unicode="&#x1eac;" horiz-adv-x="1120" d="M-59 0l710 1470h185l180 -1470h-178l-45 428h-484l-200 -428h-168zM328 -369l32 197h177l-33 -197h-176zM391 604h375l-68 653zM489 1597l240 248h158l153 -248h-135l-114 150l-168 -150h-134z" />
<glyph unicode="&#x1ead;" d="M20 207q0 161 91.5 273t240.5 134l250 37q49 7 76 51.5t27 116.5q0 65 -45.5 99t-131.5 34q-97 0 -151.5 -46.5t-89.5 -160.5h-135q41 182 143 269.5t270 87.5q136 0 213.5 -63t77.5 -173q0 -33 -6 -63l-111 -639q0 -41 39 -41q17 0 53 8l-24 -131l-19 -6 q-38 -14 -69 -14q-62 0 -94.5 29.5t-32.5 84.5q0 13 4 49q-88 -92 -168 -133t-174 -41q-109 0 -171.5 64t-62.5 174zM178 248q0 -63 33 -96t96 -33q112 0 206.5 74.5t113.5 177.5l30 176q-26 -21 -73 -33.5t-183 -34.5q-117 -20 -170 -75t-53 -156zM221 -369l33 197h176 l-33 -197h-176zM338 1198l217 289h156l114 -289h-133l-78 191l-143 -191h-133z" />
<glyph unicode="&#x1eae;" horiz-adv-x="1120" d="M-59 0l710 1470h185l180 -1470h-178l-45 428h-484l-200 -428h-168zM391 604h375l-68 653zM530 1839h82l2 -14q32 -52 72 -79.5t107 -27.5q72 0 115 29t79 92h100q-56 -119 -132.5 -178t-192.5 -59q-112 0 -166.5 59.5t-65.5 177.5zM762 1896l174 248h203l-265 -248h-112z " />
<glyph unicode="&#x1eaf;" d="M20 207q0 161 91.5 273t240.5 134l250 37q49 7 76 51.5t27 116.5q0 65 -45.5 99t-131.5 34q-97 0 -151.5 -46.5t-89.5 -160.5h-135q41 182 143 269.5t270 87.5q136 0 213.5 -63t77.5 -173q0 -33 -6 -63l-111 -639q0 -41 39 -41q17 0 53 8l-24 -131l-19 -6 q-38 -14 -69 -14q-62 0 -94.5 29.5t-32.5 84.5q0 13 4 49q-88 -92 -168 -133t-174 -41q-109 0 -171.5 64t-62.5 174zM178 248q0 -63 33 -96t96 -33q112 0 206.5 74.5t113.5 177.5l30 176q-26 -21 -73 -33.5t-183 -34.5q-117 -20 -170 -75t-53 -156zM346 1440h82l2 -15 q31 -52 71 -79t107 -27q72 0 115.5 29t79.5 92h100q-57 -119 -133 -178.5t-192 -59.5q-112 0 -166.5 60t-65.5 178zM578 1497l174 248h202l-264 -248h-112z" />
<glyph unicode="&#x1eb0;" horiz-adv-x="1120" d="M-59 0l710 1470h185l180 -1470h-178l-45 428h-484l-200 -428h-168zM391 604h375l-68 653zM530 1839h82l2 -14q32 -52 72 -79.5t107 -27.5q72 0 115 29t79 92h100q-56 -119 -132.5 -178t-192.5 -59q-112 0 -166.5 59.5t-65.5 177.5zM586 2144h202l86 -248h-112z" />
<glyph unicode="&#x1eb1;" d="M20 207q0 161 91.5 273t240.5 134l250 37q49 7 76 51.5t27 116.5q0 65 -45.5 99t-131.5 34q-97 0 -151.5 -46.5t-89.5 -160.5h-135q41 182 143 269.5t270 87.5q136 0 213.5 -63t77.5 -173q0 -33 -6 -63l-111 -639q0 -41 39 -41q17 0 53 8l-24 -131l-19 -6 q-38 -14 -69 -14q-62 0 -94.5 29.5t-32.5 84.5q0 13 4 49q-88 -92 -168 -133t-174 -41q-109 0 -171.5 64t-62.5 174zM178 248q0 -63 33 -96t96 -33q112 0 206.5 74.5t113.5 177.5l30 176q-26 -21 -73 -33.5t-183 -34.5q-117 -20 -170 -75t-53 -156zM346 1440h82l2 -15 q31 -52 71 -79t107 -27q72 0 115.5 29t79.5 92h100q-57 -119 -133 -178.5t-192 -59.5q-112 0 -166.5 60t-65.5 178zM401 1745h203l86 -248h-112z" />
<glyph unicode="&#x1eb2;" horiz-adv-x="1120" d="M-59 0l710 1470h185l180 -1470h-178l-45 428h-484l-200 -428h-168zM391 604h375l-68 653zM530 1839h82l2 -14q32 -52 72 -79.5t107 -27.5q72 0 115 29t79 92h100q-56 -119 -132.5 -178t-192.5 -59q-112 0 -166.5 59.5t-65.5 177.5zM629 1995q14 82 75.5 125t165.5 43 q94 0 143 -34.5t40 -92.5q-6 -35 -30 -59.5t-83 -55.5q-46 -25 -59.5 -35t-16.5 -22l-6 -45h-115l9 49q6 34 30 55.5t86 52.5q63 32 70 60q3 21 -20.5 34t-65.5 13q-61 0 -88 -27q-18 -18 -23 -61h-112z" />
<glyph unicode="&#x1eb3;" d="M20 207q0 161 91.5 273t240.5 134l250 37q49 7 76 51.5t27 116.5q0 65 -45.5 99t-131.5 34q-97 0 -151.5 -46.5t-89.5 -160.5h-135q41 182 143 269.5t270 87.5q136 0 213.5 -63t77.5 -173q0 -33 -6 -63l-111 -639q0 -41 39 -41q17 0 53 8l-24 -131l-19 -6 q-38 -14 -69 -14q-62 0 -94.5 29.5t-32.5 84.5q0 13 4 49q-88 -92 -168 -133t-174 -41q-109 0 -171.5 64t-62.5 174zM178 248q0 -63 33 -96t96 -33q112 0 206.5 74.5t113.5 177.5l30 176q-26 -21 -73 -33.5t-183 -34.5q-117 -20 -170 -75t-53 -156zM346 1440h82l2 -15 q31 -52 71 -79t107 -27q72 0 115.5 29t79.5 92h100q-57 -119 -133 -178.5t-192 -59.5q-112 0 -166.5 60t-65.5 178zM444 1595q13 82 75.5 125t166.5 43q94 0 142.5 -34.5t39.5 -92.5q-6 -35 -29.5 -59t-82.5 -55q-45 -24 -59 -35t-17 -23l-6 -45h-115l8 49q6 34 31 56t86 53 q63 32 70 59q3 21 -20.5 34t-65.5 13q-62 0 -88 -26q-18 -18 -23 -62h-113z" />
<glyph unicode="&#x1eb4;" horiz-adv-x="1120" d="M-59 0l710 1470h185l180 -1470h-178l-45 428h-484l-200 -428h-168zM391 604h375l-68 653zM530 1839h82l2 -14q32 -52 72 -79.5t107 -27.5q72 0 115 29t79 92h100q-56 -119 -132.5 -178t-192.5 -59q-112 0 -166.5 59.5t-65.5 177.5zM535 1915q35 114 86.5 166.5 t126.5 52.5q48 0 108 -31l35 -18q52 -27 78 -27q34 0 55.5 21.5t40.5 72.5h84q-34 -109 -87 -166t-122 -57q-30 0 -92 27l-41 18q-73 31 -96 31q-31 0 -53 -20.5t-44 -69.5h-79z" />
<glyph unicode="&#x1eb5;" d="M20 207q0 161 91.5 273t240.5 134l250 37q49 7 76 51.5t27 116.5q0 65 -45.5 99t-131.5 34q-97 0 -151.5 -46.5t-89.5 -160.5h-135q41 182 143 269.5t270 87.5q136 0 213.5 -63t77.5 -173q0 -33 -6 -63l-111 -639q0 -41 39 -41q17 0 53 8l-24 -131l-19 -6 q-38 -14 -69 -14q-62 0 -94.5 29.5t-32.5 84.5q0 13 4 49q-88 -92 -168 -133t-174 -41q-109 0 -171.5 64t-62.5 174zM178 248q0 -63 33 -96t96 -33q112 0 206.5 74.5t113.5 177.5l30 176q-26 -21 -73 -33.5t-183 -34.5q-117 -20 -170 -75t-53 -156zM346 1440h82l2 -15 q31 -52 71 -79t107 -27q72 0 115.5 29t79.5 92h100q-57 -119 -133 -178.5t-192 -59.5q-112 0 -166.5 60t-65.5 178zM350 1516q35 114 86.5 166.5t126.5 52.5q49 0 109 -31l35 -18q52 -27 77 -27q34 0 56 21.5t41 72.5h84q-34 -109 -87 -166t-122 -57q-33 0 -92 26l-41 19 q-73 31 -97 31q-31 0 -52.5 -20.5t-43.5 -69.5h-80z" />
</font>
</defs>
</svg>
