<?xml version="1.0" standalone="no"?>
<!DOCTYPE svg PUBLIC "-//W3C//DTD SVG 1.1//EN" "http://www.w3.org/Graphics/SVG/1.1/DTD/svg11.dtd" >
<svg xmlns="http://www.w3.org/2000/svg">
<metadata></metadata>
<defs>
<font id="pf_dindisplay_proregular" horiz-adv-x="1024" >
<font-face units-per-em="2048" ascent="1536" descent="-512" />
<missing-glyph horiz-adv-x="491" />
<glyph horiz-adv-x="0" />
<glyph horiz-adv-x="682" />
<glyph unicode=" "  horiz-adv-x="491" />
<glyph unicode="&#x09;" horiz-adv-x="491" />
<glyph unicode="&#xa0;" horiz-adv-x="491" />
<glyph unicode="!" horiz-adv-x="485" d="M123 113q0 46 31.5 81t85.5 35q57 0 91 -35t34 -81q0 -53 -33.5 -88t-91.5 -35q-56 0 -86.5 34t-30.5 89zM152 1425h182l-15 -1038h-153z" />
<glyph unicode="&#x22;" horiz-adv-x="626" d="M115 1042v383h141v-383h-141zM365 1042v383h141v-383h-141z" />
<glyph unicode="#" horiz-adv-x="1077" d="M51 436v133h203l41 293h-186v131h204l62 430h141l-57 -430h231l60 430h143l-59 -430h192v-131h-211l-39 -293h193v-133h-211l-60 -436h-149l61 436h-227l-59 -436h-152l64 436h-185zM401 569h228l41 293h-230z" />
<glyph unicode="$" d="M53 166l99 133q184 -137 372 -137q135 0 205 59.5t70 169.5q0 33 -6.5 60.5t-21.5 49t-29.5 37.5t-41.5 29.5t-44.5 22t-51.5 17t-50 12t-52 10.5q-7 1 -10 2q-66 14 -120 32t-108 49.5t-90.5 72t-59 100t-22.5 133.5q0 157 103.5 266t261.5 127v170h123l-5 -168 q200 -10 357 -108l-80 -152q-162 98 -328 98q-106 0 -181 -63t-75 -174q0 -32 11 -59t24 -45.5t41.5 -36.5t46.5 -27.5t55.5 -21.5t52.5 -15.5t54 -13.5q46 -12 70.5 -18.5t66.5 -19.5t66 -24.5t58 -30t54 -38.5t42.5 -48t34.5 -60.5t20 -74t8 -90.5q0 -171 -108 -275 t-290 -118h5v-199h-123v199q-227 15 -404 168z" />
<glyph unicode="%" horiz-adv-x="1638" d="M98 791v391q0 107 85 172t206 65t206 -65t85 -172v-391q0 -107 -85 -172.5t-206 -65.5q-126 0 -208.5 65t-82.5 173zM248 807q0 -33 13.5 -58t35 -38.5t45 -20t47.5 -6.5q54 0 100 30.5t46 92.5v354q0 43 -25 72.5t-56.5 41t-64.5 11.5q-53 0 -97 -31t-44 -94v-354z M317 -35l871 1495h137l-872 -1495h-136zM956 229v392q0 107 85 172t206 65t206 -65t85 -172v-392q0 -107 -85 -172t-206 -65q-126 0 -208.5 64.5t-82.5 172.5zM1106 246q0 -33 13.5 -58t35 -38.5t45 -20t47.5 -6.5q54 0 100 30.5t46 92.5v354q0 43 -25 72.5t-56.5 41 t-64.5 11.5q-53 0 -97 -31t-44 -94v-354z" />
<glyph unicode="&#x26;" horiz-adv-x="1701" d="M96 1018q0 124 50 238t140 201.5t224.5 139.5t292.5 52q142 0 263 -40t208.5 -111.5t149 -169t92 -214t30.5 -244.5q0 -185 -73.5 -348.5t-202.5 -290.5q157 -147 313 -211l-70 -129q-93 42 -191 108t-171 138q-92 -70 -207.5 -110.5t-226.5 -40.5q-126 0 -225 44.5 t-159.5 137.5t-60.5 223q0 138 87 245.5t247 199.5q-56 79 -80 140t-24 126q0 133 77.5 218t213.5 85q129 0 215 -80t86 -197q0 -110 -66.5 -190t-198.5 -160q182 -264 342 -446q109 109 170.5 245.5t61.5 290.5q0 130 -39 245.5t-112 204.5t-187 141t-254 52 q-128 0 -236.5 -39t-181 -105t-113 -154t-40.5 -185q0 -146 86 -280l-123 -72q-107 158 -107 342zM424 395q0 -130 77.5 -201t198.5 -71q184 0 355 117q-195 209 -363 471q-128 -71 -198 -145t-70 -171zM662 1112q0 -46 21 -92t67 -113q95 51 142.5 100t47.5 121 q0 59 -43 98.5t-104 39.5q-66 0 -98.5 -47.5t-32.5 -106.5z" />
<glyph unicode="'" horiz-adv-x="526" d="M199 1042v383h141v-383h-141z" />
<glyph unicode="(" horiz-adv-x="593" d="M104 625q0 127 30 252t84 234.5t119 203.5t144 180l94 -57q-131 -166 -208.5 -383.5t-77.5 -419.5q0 -214 78 -429t206 -386l-86 -66q-168 181 -275.5 406.5t-107.5 464.5z" />
<glyph unicode=")" horiz-adv-x="593" d="M41 -180q129 172 207 387t78 428q0 202 -77.5 416.5t-207.5 386.5l92 57q168 -182 273.5 -403.5t105.5 -466.5q0 -239 -108 -463.5t-277 -407.5z" />
<glyph unicode="*" horiz-adv-x="739" d="M57 1151l39 133l228 -96l-21 246h139l-20 -246q193 81 227 96l39 -135l-233 -59l159 -185l-114 -88l-127 213l-129 -215l-115 88l160 187q-38 9 -116 30.5t-116 30.5z" />
<glyph unicode="+" d="M59 537v131h387v389h132v-389h385v-131h-385v-394h-132v394h-387z" />
<glyph unicode="," horiz-adv-x="512" d="M117 -193q50 37 77 79.5t31 101.5q-42 4 -68 37t-26 81q0 47 34 83t89 36q71 0 105 -49.5t34 -114.5q0 -109 -63.5 -201.5t-151.5 -131.5z" />
<glyph unicode="-" horiz-adv-x="802" d="M106 471v154h590v-154h-590z" />
<glyph unicode="." horiz-adv-x="448" d="M109 113q0 46 31 81t85 35q57 0 91 -35t34 -81q0 -53 -33.5 -88t-91.5 -35q-56 0 -86 33.5t-30 89.5z" />
<glyph unicode="/" horiz-adv-x="649" d="M-2 -86l514 1571h133l-514 -1571h-133z" />
<glyph unicode="0" d="M82 352v705q0 83 38 154t99.5 117t138 71.5t154.5 25.5t154.5 -25.5t138 -71.5t99.5 -117t38 -154v-705q0 -109 -65 -194t-162 -126.5t-203 -41.5q-80 0 -156.5 25t-137.5 70t-98.5 114.5t-37.5 152.5zM262 397q0 -64 23.5 -113t61.5 -76.5t79.5 -40.5t85.5 -13 q33 0 67 7.5t67.5 26t59.5 46t42 69.5t16 94v615q0 65 -24 114.5t-62.5 76.5t-80.5 40.5t-85 13.5q-44 0 -85.5 -13t-79.5 -40.5t-61.5 -77t-23.5 -114.5v-615z" />
<glyph unicode="1" d="M195 1165l297 246h165v-1411h-176v1194l-192 -158z" />
<glyph unicode="2" d="M86 0v166q0 83 28 158.5t79.5 139.5t110 115.5t134.5 102.5q316 196 316 365q0 70 -41.5 119t-101 70t-128.5 21q-163 0 -288 -106l-93 133q162 141 381 141q90 0 168.5 -21t144 -63t104 -115.5t38.5 -170.5q0 -59 -25.5 -121t-63.5 -112t-91 -100.5t-98 -85t-95 -67.5 q-128 -88 -183 -141q-112 -110 -112 -217v-53h664v-158h-848z" />
<glyph unicode="3" d="M23 127l94 139q59 -53 141.5 -83.5t159.5 -30.5q132 0 210.5 65t78.5 180q0 117 -63.5 188.5t-166.5 71.5h-160v158h164q88 0 154.5 62.5t66.5 177.5q0 54 -22.5 94.5t-61 63t-83.5 33.5t-97 11q-73 0 -152 -31.5t-136 -80.5l-97 135q71 62 179.5 102.5t230.5 40.5 q81 0 152 -19t133 -59t98.5 -112.5t36.5 -169.5q0 -108 -52 -193.5t-147 -121.5q94 -40 148.5 -134.5t54.5 -199.5q0 -104 -37 -187t-101 -134.5t-146 -79t-175 -27.5q-122 0 -228 39.5t-177 101.5z" />
<glyph unicode="4" d="M53 217v152l469 1042h189l-459 -1034h416v422h180v-422h121v-160h-121v-217h-180v217h-615z" />
<glyph unicode="5" d="M96 133l103 141q127 -118 284 -118q26 0 57 5.5t69.5 21.5t68.5 40.5t51 67t21 96.5v182q0 99 -50 150t-135 51q-61 0 -151.5 -40t-139.5 -81l-165 66v696h778v-166h-596v-401q75 52 152.5 79t140.5 27q157 0 250.5 -99t93.5 -261v-228q0 -111 -61.5 -197t-161 -130.5 t-218.5 -44.5q-230 0 -391 143z" />
<glyph unicode="6" d="M90 358v693q0 114 59.5 200.5t156.5 130t214 43.5q226 0 387 -143l-102 -143q-128 116 -281 116q-41 0 -83 -13t-81.5 -39.5t-64.5 -75.5t-25 -113v-232q179 115 326 115q154 0 246 -100.5t92 -261.5v-168q0 -114 -60 -201.5t-155.5 -131.5t-208.5 -44q-184 0 -302 98 t-118 270zM270 397q0 -62 22 -110.5t58.5 -76t77 -41t82.5 -13.5t83.5 14t78 41.5t59.5 76t23 109.5v121q0 101 -50.5 153t-132.5 52q-69 0 -140 -29t-161 -88v-209z" />
<glyph unicode="7" d="M92 1036v375h840v-158l-516 -1253h-193l508 1247h-469v-211h-170z" />
<glyph unicode="8" d="M63 387q0 104 60 199.5t147 132.5q-84 31 -130 114.5t-46 190.5q0 95 36 172.5t95.5 126t133 74.5t151.5 26q79 0 153 -26t133.5 -74.5t95.5 -126.5t36 -174q0 -102 -44 -184t-126 -119q100 -42 149 -130t49 -190q0 -103 -38.5 -184t-103 -129t-142.5 -73t-164 -25 q-124 0 -222.5 42.5t-160.5 134.5t-62 222zM252 391q0 -112 68.5 -173.5t191.5 -61.5q120 0 189 62t69 177q0 103 -75 168.5t-183 65.5t-184 -65.5t-76 -172.5zM270 1024q0 -102 72.5 -166.5t169.5 -64.5q96 0 168 65.5t72 167.5q0 107 -69.5 167t-170.5 60q-100 0 -171 -60 t-71 -169z" />
<glyph unicode="9" d="M72 889v158q0 115 60 202.5t155.5 131.5t208.5 44q112 0 206 -42t153.5 -127t59.5 -199v-695q0 -114 -60 -200t-156.5 -129t-213.5 -43q-226 0 -387 143l103 143q128 -116 278 -116q41 0 83 13t81.5 39.5t64.5 75.5t25 113v238q-188 -113 -323 -113q-159 0 -248.5 95.5 t-89.5 267.5zM250 905q0 -104 50.5 -154.5t133.5 -50.5q67 0 137.5 29t161.5 86v203q0 62 -21.5 109.5t-56.5 75t-75.5 41t-83.5 13.5q-42 0 -83.5 -13.5t-79 -41t-60.5 -75.5t-23 -109v-113z" />
<glyph unicode=":" horiz-adv-x="512" d="M133 113q0 46 31.5 81t85.5 35q57 0 91 -35t34 -81q0 -53 -33.5 -88t-91.5 -35q-56 0 -86.5 34t-30.5 89zM133 733q0 46 31.5 81.5t85.5 35.5q57 0 91 -35.5t34 -81.5q0 -53 -33.5 -88t-91.5 -35q-56 0 -86.5 34t-30.5 89z" />
<glyph unicode=";" horiz-adv-x="512" d="M109 -193q50 37 77 79.5t31 101.5q-42 4 -68 37t-26 81q0 47 34 83t89 36q71 0 105 -49.5t34 -114.5q0 -109 -63.5 -201.5t-151.5 -131.5zM133 733q0 46 31.5 81.5t85.5 35.5q57 0 91 -35.5t34 -81.5q0 -53 -33.5 -88t-91.5 -35q-56 0 -86.5 34t-30.5 89z" />
<glyph unicode="&#x3c;" d="M94 543v123l834 415v-145l-668 -332l668 -330v-145z" />
<glyph unicode="=" d="M59 338v137h904v-137h-904zM59 731v137h904v-137h-904z" />
<glyph unicode="&#x3e;" d="M94 129v145l668 330l-668 332v145l834 -415v-123z" />
<glyph unicode="?" horiz-adv-x="940" d="M59 1309q168 125 385 125q164 0 278 -103t114 -256q0 -64 -29.5 -131.5t-71 -125t-83.5 -113t-71.5 -114.5t-29.5 -110v-92h-176v86q0 79 27 148.5t65 119.5t76 97t65 103t27 116q0 87 -59 145t-150 58q-158 0 -276 -97zM350 113q0 46 31.5 81t85.5 35q57 0 91 -35 t34 -81q0 -53 -33.5 -88t-91.5 -35q-56 0 -86.5 34t-30.5 89z" />
<glyph unicode="@" horiz-adv-x="1703" d="M94 721q0 160 65.5 302t176 242t260 158t313.5 58q169 0 309.5 -57.5t233 -156t143 -229t50.5 -278.5q0 -84 -20.5 -156t-54.5 -122t-78 -85.5t-90 -52t-91 -16.5q-171 0 -240 106q-85 -45 -153 -70.5t-138 -25.5q-116 0 -184 66t-68 178q0 51 20 93t50.5 68.5t70 44.5 t76 25.5t70.5 7.5h225v47q0 154 -190 154q-111 0 -203 -74l-76 103q132 104 283 104q156 0 242 -73t86 -214v-307q0 -58 31 -83t94 -25q81 0 143.5 81t62.5 228q0 165 -72.5 299.5t-211.5 214.5t-320 80q-138 0 -264 -49.5t-218 -133.5t-147 -202t-55 -248 q0 -270 181.5 -448.5t457.5 -178.5q120 0 262 56l45 -125q-149 -58 -307 -58q-219 0 -395 96.5t-275.5 268.5t-99.5 387zM674 582q0 -54 36 -83.5t97 -29.5q13 0 27 1.5t29 5.5t26.5 7.5t28.5 11t26 11t27 13t24 12t24.5 13t20.5 11.5v143h-202q-164 0 -164 -116z" />
<glyph unicode="A" horiz-adv-x="1222" d="M27 0l491 1411h191l493 -1411h-198l-111 317h-561l-109 -317h-196zM393 489h441l-113 336l-105 328h-8l-102 -328z" />
<glyph unicode="B" horiz-adv-x="1214" d="M117 0v1411h585q93 0 170 -30.5t127 -82t77.5 -119t27.5 -141.5q0 -202 -174 -299q98 -51 147 -139t49 -186q0 -61 -16 -120t-49.5 -112.5t-80 -94t-112.5 -64t-143 -23.5h-608zM307 170h381q124 0 188 63t64 181q0 109 -76 174t-180 65h-377v-483zM307 823h375 q99 0 167.5 55.5t68.5 155.5q0 105 -67.5 155t-184.5 50h-359v-416z" />
<glyph unicode="C" horiz-adv-x="1079" d="M111 449v516q0 138 71.5 244.5t187 161t251.5 54.5q242 0 395 -127l-94 -147q-54 46 -137 73t-164 27q-62 0 -117 -18.5t-101.5 -56t-74 -102t-27.5 -148.5v-441q0 -83 28 -147.5t74.5 -102t100.5 -56.5t112 -19q192 0 312 98l90 -145q-69 -57 -174 -92t-223 -35 q-138 0 -253 54.5t-186 161.5t-71 247z" />
<glyph unicode="D" horiz-adv-x="1239" d="M119 0v1411h530q208 0 344.5 -125.5t136.5 -335.5v-491q0 -202 -139 -330.5t-344 -128.5h-528zM307 168h297q62 0 118.5 17.5t106.5 53.5t79.5 100.5t29.5 149.5v429q0 86 -28.5 150t-77 100t-106 53.5t-122.5 17.5h-297v-1071z" />
<glyph unicode="E" horiz-adv-x="1140" d="M125 0v1411h942v-172h-754v-448h645v-170h-645v-451h754v-170h-942z" />
<glyph unicode="F" horiz-adv-x="1095" d="M125 0v1411h942v-172h-754v-446h645v-172h-645v-621h-188z" />
<glyph unicode="G" horiz-adv-x="1187" d="M111 449v516q0 138 74 244.5t195 161t267 54.5q242 0 395 -127l-94 -147q-54 46 -137 73t-164 27q-67 0 -127 -18.5t-110 -56t-79.5 -102t-29.5 -148.5v-441q0 -84 27.5 -148t74.5 -101.5t104.5 -56.5t123.5 -19q159 0 270 84v329h-225v170h411v-573q-82 -94 -205.5 -139 t-250.5 -45q-138 0 -255 54.5t-191 161.5t-74 247z" />
<glyph unicode="H" horiz-adv-x="1263" d="M111 0v1411h188v-610h662v610h192v-1411h-192v629h-662v-629h-188z" />
<glyph unicode="I" horiz-adv-x="516" d="M164 0v1411h188v-1411h-188z" />
<glyph unicode="J" horiz-adv-x="1067" d="M31 92l88 152q137 -84 268 -84q153 0 239.5 80.5t86.5 255.5v915h188v-956q0 -141 -66 -249t-175 -164t-242 -56q-103 0 -209.5 27.5t-177.5 78.5z" />
<glyph unicode="K" horiz-adv-x="1171" d="M117 0v1411h188v-733h14l599 733h227l-455 -557l502 -854h-221l-408 698l-258 -307v-391h-188z" />
<glyph unicode="L" horiz-adv-x="1095" d="M135 0v1411h189v-1241h753v-170h-942z" />
<glyph unicode="M" horiz-adv-x="1519" d="M119 0v1411h180l285 -575l178 -375h12l174 375l281 575h174v-1411h-189v961h-10l-129 -273l-237 -479h-142l-225 440l-154 312h-10v-961h-188z" />
<glyph unicode="N" horiz-adv-x="1320" d="M121 0v1411h178l510 -764l188 -293h15v1057h188v-1411h-182l-494 737l-200 310h-15v-1047h-188z" />
<glyph unicode="O" horiz-adv-x="1255" d="M106 461v487q0 213 145 345t376 132q229 0 375.5 -132.5t146.5 -344.5v-487q0 -213 -148.5 -344t-373.5 -131q-232 0 -376.5 130t-144.5 345zM297 483q0 -162 93.5 -242.5t236.5 -80.5q144 0 237.5 80.5t93.5 242.5v443q0 163 -93 244t-238 81t-237.5 -81t-92.5 -244 v-443z" />
<glyph unicode="P" horiz-adv-x="1134" d="M111 0v1411h585q97 0 175.5 -37.5t126.5 -98.5t73 -135t25 -151q0 -76 -28 -151t-77.5 -135.5t-127 -98t-167.5 -37.5h-397v-567h-188zM299 741h358q112 0 182 66.5t70 181.5q0 114 -70 182t-182 68h-358v-498z" />
<glyph unicode="Q" horiz-adv-x="1286" d="M117 461v487q0 213 144.5 345t375.5 132q229 0 375.5 -132.5t146.5 -344.5v-487q0 -193 -123 -320.5t-317 -148.5v-39q0 -103 42 -137q34 -27 111 -27q18 0 39 2v-149q-44 -5 -82 -5q-122 0 -191 53q-91 70 -91 206v96q-196 25 -313 150t-117 319zM307 483 q0 -162 93.5 -242.5t236.5 -80.5q69 0 127.5 18.5t105 56.5t73 101.5t26.5 146.5v443q0 163 -93.5 244t-238.5 81t-237.5 -81t-92.5 -244v-443z" />
<glyph unicode="R" horiz-adv-x="1171" d="M117 0v1411h585q102 0 182 -37t126.5 -99t70 -134.5t23.5 -151.5q0 -121 -67.5 -230t-182.5 -157l264 -602h-209l-239 567h-365v-567h-188zM305 741h359q112 0 181.5 66.5t69.5 181.5q0 114 -69.5 182t-181.5 68h-359v-498z" />
<glyph unicode="S" horiz-adv-x="1138" d="M53 162l107 135q197 -139 415 -139q143 0 225.5 61.5t82.5 171.5q0 52 -19.5 91.5t-49.5 64t-75 43t-85.5 28.5t-91.5 21q-14 3 -21 4q-73 14 -130.5 31.5t-116.5 48.5t-97.5 71t-63 101t-24.5 137q0 180 123.5 293t332.5 113q285 0 463 -111l-88 -160q-166 99 -377 99 q-117 0 -193.5 -61.5t-76.5 -176.5q0 -32 11.5 -59.5t27.5 -46.5t45 -36.5t51.5 -27.5t60.5 -21t59.5 -15.5t59.5 -12.5q63 -15 101.5 -25t93.5 -29t89 -39t72.5 -51.5t60 -69t36 -89.5t14.5 -115q0 -187 -137 -295t-365 -108q-296 0 -520 174z" />
<glyph unicode="T" horiz-adv-x="1069" d="M33 1237v174h1003v-174h-405v-1237h-191v1237h-407z" />
<glyph unicode="U" horiz-adv-x="1249" d="M106 446v965h191v-930q0 -162 93.5 -242.5t236.5 -80.5q141 0 236 81t95 242v930h191v-965q0 -141 -72 -247t-189.5 -159.5t-260.5 -53.5q-145 0 -262 53.5t-188 159.5t-71 247z" />
<glyph unicode="V" horiz-adv-x="1157" d="M20 1411h207l207 -661l137 -459h13l143 483l201 637h207l-455 -1411h-205z" />
<glyph unicode="W" horiz-adv-x="1765" d="M20 1411h205l160 -649l111 -467h10l112 469l164 647h199l168 -668l108 -448h11l106 455l164 661h205l-373 -1411h-213l-166 639l-102 434h-12l-107 -442l-164 -631h-213z" />
<glyph unicode="X" horiz-adv-x="1126" d="M18 0l439 723l-410 688h219l297 -532l299 532h219l-409 -688l438 -723h-219l-328 569l-325 -569h-220z" />
<glyph unicode="Y" horiz-adv-x="1099" d="M25 1411h206l164 -336l148 -330h14l152 340l159 326h205l-428 -868v-543h-190v541z" />
<glyph unicode="Z" horiz-adv-x="1071" d="M76 0v166l696 1073h-668v172h895v-162l-704 -1079h702v-170h-921z" />
<glyph unicode="[" horiz-adv-x="534" d="M150 -215v1645h346v-115h-193v-1415h193v-115h-346z" />
<glyph unicode="\" horiz-adv-x="649" d="M-2 1485h133l514 -1571h-133z" />
<glyph unicode="]" horiz-adv-x="534" d="M55 -100h191v1415h-191v115h344v-1645h-344v115z" />
<glyph unicode="^" d="M47 672l414 751h123l415 -751h-145l-332 604l-329 -604h-146z" />
<glyph unicode="_" d="M0 -141h1024v-123h-1024v123z" />
<glyph unicode="`" horiz-adv-x="1005" d="M397 1481l166 51l148 -363l-109 -41z" />
<glyph unicode="a" horiz-adv-x="1015" d="M78 297q0 64 25 116.5t64.5 86t89.5 56.5t97.5 32.5t91.5 9.5h297v78q0 102 -57 146t-172 44q-169 0 -285 -94l-86 133q159 121 385 121q198 0 294 -87t96 -267v-672h-154l-21 94l-6 4q-112 -62 -189 -84t-147 -22q-148 0 -235.5 82t-87.5 223zM258 297q0 -71 48.5 -109 t129.5 -38q16 0 33 2t31.5 5t34 9t31.5 10t33.5 13.5t30 13t31.5 15t28.5 14t28.5 15t25 13.5v193h-268q-217 0 -217 -156z" />
<glyph unicode="b" horiz-adv-x="1026" d="M92 0v1466h176v-557q119 67 193.5 92t134.5 25q164 0 249 -93.5t85 -268.5v-312q0 -170 -93.5 -266t-248.5 -96q-143 0 -320 106l-20 -96h-156zM268 266q65 -45 155 -76.5t150 -31.5q84 0 132.5 51.5t48.5 163.5v268q0 213 -181 213q-110 0 -305 -125v-463z" />
<glyph unicode="c" horiz-adv-x="878" d="M96 350v301q0 112 56.5 199t147.5 131.5t198 44.5q227 0 342 -125l-105 -133q-101 94 -229 94q-42 0 -81.5 -13t-74.5 -40t-56.5 -75t-21.5 -111v-230q0 -122 68 -180.5t166 -58.5q53 0 115.5 20.5t105.5 63.5l109 -123q-125 -125 -334 -125q-179 0 -292.5 100.5 t-113.5 259.5z" />
<glyph unicode="d" horiz-adv-x="1026" d="M96 352v312q0 167 101.5 264.5t255.5 97.5q129 0 305 -57v497h174v-1466h-154l-20 106q-113 -67 -186.5 -91.5t-135.5 -24.5q-155 0 -247.5 90t-92.5 272zM272 362q0 -111 46.5 -157.5t134.5 -46.5q59 0 147.5 34.5t157.5 83.5v521q-176 63 -289 63h-6q-85 0 -137 -52 q-54 -54 -54 -165v-281z" />
<glyph unicode="e" horiz-adv-x="989" d="M96 360v269q0 179 114.5 287t295.5 108q184 0 296.5 -103t112.5 -278v-201h-643v-67q0 -114 72.5 -169.5t181.5 -55.5q145 0 250 100l111 -121q-136 -139 -365 -139q-118 0 -213 40t-154 125.5t-59 204.5zM274 586h463v39q0 121 -65 180t-166 59q-99 0 -165.5 -60 t-66.5 -173v-45z" />
<glyph unicode="f" horiz-adv-x="620" d="M53 858v158h125v184q0 129 75 197.5t191 68.5h183v-155h-166q-61 0 -85 -35t-24 -96v-164h275v-158h-275v-858h-174v858h-125z" />
<glyph unicode="g" horiz-adv-x="1021" d="M88 350v314q0 170 93.5 266t246.5 96q129 0 320 -119l20 109h156v-1077q0 -86 -36 -156t-96.5 -114.5t-137.5 -68.5t-162 -24q-216 0 -367 133l108 129q48 -43 122.5 -70.5t133.5 -27.5q110 0 184.5 58t74.5 179v119q-173 -106 -320 -106q-153 0 -246.5 95t-93.5 265z M264 373q0 -113 47 -165q45 -50 127 -50h6q63 0 146.5 29.5t157.5 76.5v465q-75 56 -159.5 90.5t-144.5 34.5q-89 0 -134.5 -49t-45.5 -166v-266z" />
<glyph unicode="h" horiz-adv-x="1017" d="M96 0v1466h176v-565q193 125 334 125q164 0 246 -93t82 -269v-664h-176v641q0 213 -180 213q-62 0 -144.5 -30.5t-161.5 -82.5v-741h-176z" />
<glyph unicode="i" horiz-adv-x="464" d="M123 1323q0 44 32.5 76.5t75.5 32.5q44 0 77.5 -32.5t33.5 -76.5t-33.5 -77.5t-77.5 -33.5q-43 0 -75.5 33.5t-32.5 77.5zM145 0v1016h174v-1016h-174z" />
<glyph unicode="j" horiz-adv-x="497" d="M-37 -258h80q83 0 113 36.5t30 139.5v1096h174v-1120q0 -165 -75 -238.5t-222 -73.5h-100v160zM170 1323q0 43 29.5 72.5t72.5 29.5t73 -29.5t30 -72.5t-30 -73.5t-73 -30.5t-72.5 30.5t-29.5 73.5z" />
<glyph unicode="k" horiz-adv-x="985" d="M94 0v1466h174v-798h150q72 0 120.5 26.5t86.5 104.5l112 221h197l-123 -258q-33 -67 -66 -104.5t-90 -59.5q41 -14 70.5 -36.5t49 -55.5t29.5 -58t23 -67l127 -381h-194l-107 326q-33 102 -76.5 137t-127.5 35h-181v-498h-174z" />
<glyph unicode="l" horiz-adv-x="567" d="M170 248v1218h174v-1196q0 -76 33 -98q27 -17 91 -17q15 0 32 1l4 -160q-52 -8 -103 -8q-133 0 -182 63.5t-49 196.5z" />
<glyph unicode="m" horiz-adv-x="1550" d="M86 0v1016h156l18 -117q101 75 170 101t133 26q185 0 258 -156q114 92 189 124t139 32q150 0 231.5 -82t81.5 -250v-694h-176v657q0 104 -39 150.5t-129 46.5q-98 0 -262 -127q6 -25 6 -68v-659h-176v664q0 99 -41.5 144.5t-112.5 45.5q-64 0 -124.5 -23.5t-145.5 -82.5 v-748h-176z" />
<glyph unicode="n" horiz-adv-x="1017" d="M90 0v1016h156l20 -113q119 75 197.5 99t146.5 24q150 0 234 -95t84 -267v-664h-176v641q0 113 -48 164q-47 49 -127 49h-6q-60 0 -142.5 -31t-162.5 -82v-741h-176z" />
<glyph unicode="o" horiz-adv-x="1034" d="M98 358v295q0 113 57.5 199t152.5 130t210 44q187 0 303.5 -100.5t116.5 -272.5v-295q0 -170 -122 -269t-300 -99q-181 0 -299.5 98t-118.5 270zM274 393q0 -125 67.5 -182t178.5 -57q43 0 84.5 13t78 40t59 75t22.5 111v230q0 63 -22.5 111t-59 75t-78 40t-84.5 13 q-45 0 -86.5 -13t-78.5 -40t-59 -75t-22 -111v-230z" />
<glyph unicode="p" horiz-adv-x="1030" d="M102 -406v1420h154l20 -107q114 67 187.5 92t134.5 25q156 0 248 -91t92 -271v-312q0 -172 -94.5 -267t-261.5 -95q-149 0 -306 63v-457h-174zM276 217q154 -63 289 -63q197 0 197 204v291q0 111 -46.5 158t-133.5 47q-55 0 -146 -36.5t-160 -82.5v-518z" />
<glyph unicode="q" horiz-adv-x="1017" d="M92 352v312q0 170 93.5 266t246.5 96q129 0 324 -111l20 99h152v-1422h-174v500q-181 -102 -322 -102q-153 0 -246.5 96t-93.5 266zM268 375q0 -113 48 -164q47 -49 127 -49h6q135 0 305 108v475q-80 50 -165 81.5t-140 31.5q-181 0 -181 -215v-268z" />
<glyph unicode="r" horiz-adv-x="679" d="M133 0v1016h156l18 -150h2q62 62 164 112t199 50v-186q-215 -19 -363 -115v-727h-176z" />
<glyph unicode="s" horiz-adv-x="929" d="M57 121l97 129q132 -111 329 -111q84 0 146.5 40t62.5 116q0 61 -43 91.5t-123 43.5q-183 29 -258 59q-162 63 -173 208q-1 12 -1 24q0 138 106.5 221.5t264.5 83.5q119 0 206 -24t167 -82l-88 -132q-133 82 -285 82q-90 0 -145.5 -41.5t-55.5 -105.5q0 -43 33.5 -70.5 t87 -41.5t118 -25.5t129 -29.5t118 -46.5t87 -84t33.5 -134.5q0 -139 -112.5 -221t-290.5 -82q-114 0 -213.5 29.5t-196.5 103.5z" />
<glyph unicode="t" horiz-adv-x="743" d="M61 858v158h148l41 235h129v-235h283v-158h-283v-496q0 -117 38.5 -160.5t117.5 -43.5q39 0 165 16l29 -149q-104 -35 -219 -35q-162 0 -233.5 74t-71.5 245v549h-144z" />
<glyph unicode="u" horiz-adv-x="1034" d="M98 352v664h176v-645q0 -111 50 -163q48 -50 127 -50h6q62 0 143 33t162 92v733h176v-1016h-156l-20 109q-117 -72 -188 -95.5t-134 -23.5q-162 0 -252 94.5t-90 267.5z" />
<glyph unicode="v" horiz-adv-x="935" d="M20 1014h193l133 -398l121 -378h12l115 374l131 402h190l-360 -1014h-172z" />
<glyph unicode="w" horiz-adv-x="1437" d="M41 1016h182l94 -369l97 -381h8l121 371l96 281h178l107 -320l106 -332h10l88 359l99 391h174l-275 -1016h-168l-124 379l-105 317h-8l-103 -323l-120 -373h-168z" />
<glyph unicode="x" horiz-adv-x="888" d="M-2 0l344 520l-324 496h211l211 -354l215 354h209l-327 -492l342 -524h-213l-228 381l-233 -381h-207z" />
<glyph unicode="y" horiz-adv-x="958" d="M20 1016h191l123 -447l112 -405h7l143 405l154 447h188l-518 -1428h-189l150 430l-86 72z" />
<glyph unicode="z" horiz-adv-x="921" d="M84 0v139l534 719h-505v156h729v-144l-535 -714h535v-156h-758z" />
<glyph unicode="{" horiz-adv-x="534" d="M31 555v104q78 11 118.5 86t40.5 181v278q0 100 53.5 160.5t135.5 60.5h139v-110h-84q-35 0 -57 -28.5t-29.5 -66t-7.5 -83.5v-256q0 -62 -17.5 -113.5t-44.5 -82t-50 -48t-42 -25.5v-6q19 -7 42 -25t50 -48.5t44.5 -81t17.5 -109.5v-266q0 -46 7.5 -83.5t29.5 -66 t57 -28.5h84v-109h-139q-85 0 -137 54t-52 165v285q0 113 -40 182.5t-119 79.5z" />
<glyph unicode="|" horiz-adv-x="417" d="M143 -332v1798h133v-1798h-133z" />
<glyph unicode="}" horiz-adv-x="534" d="M23 -102h86q49 0 71.5 52.5t22.5 125.5v266q0 60 17 110.5t43 81t49.5 48t43.5 24.5v6q-20 7 -43.5 25t-49.5 48.5t-43 82t-17 113.5v256q0 33 -0.5 51t-5.5 46t-14 43t-28 26.5t-46 11.5h-86v102h135q95 0 144.5 -58.5t49.5 -154.5v-278q0 -106 40 -181t118 -86v-104 q-79 -10 -118.5 -79.5t-39.5 -182.5v-285q0 -98 -53.5 -158.5t-134.5 -60.5h-141v109z" />
<glyph unicode="~" d="M53 561q102 172 277 172q53 0 124 -31.5t138.5 -62.5t114.5 -31q48 0 82 25.5t79 85.5l109 -80q-59 -95 -122 -137.5t-155 -42.5q-46 0 -115.5 31.5t-140 63.5t-118.5 32q-52 0 -85.5 -23t-78.5 -82z" />
<glyph unicode="&#xa2;" horiz-adv-x="878" d="M96 350v301q0 155 103 258t254 115v207h92v-207q193 -11 295 -123l-105 -133q-85 81 -190 92v-704q46 5 96 26t86 56l109 -123q-113 -113 -291 -123v-232h-92v232q-160 12 -258.5 111t-98.5 247zM272 393q0 -105 51 -163.5t130 -71.5v698q-75 -13 -128 -72.5t-53 -160.5 v-230z" />
<glyph unicode="&#xa3;" d="M115 0v131q170 228 178 461h-178v139h141q-9 31 -33.5 100t-37.5 121.5t-13 104.5q0 95 45 178t134 135.5t204 52.5q139 0 235.5 -44t172.5 -150l-132 -105q-106 140 -274 140q-31 0 -63 -11.5t-62.5 -35t-50 -65.5t-19.5 -95q0 -67 38 -181t44 -145h326v-139h-311 q-5 -126 -32 -231t-93 -205h627v-156h-846z" />
<glyph unicode="&#xa5;" d="M33 1411h207l270 -653h14l271 653h204l-303 -678h240v-125h-295l-29 -65v-103h324v-116h-324v-324h-190v324h-328v116h328v101l-31 67h-297v125h242z" />
<glyph unicode="&#xa8;" horiz-adv-x="1001" d="M190 1309q0 41 29 69.5t70 28.5t70.5 -28.5t29.5 -69.5t-29.5 -71t-70.5 -30t-70 30t-29 71zM590 1309q0 41 29.5 69.5t70.5 28.5q42 0 71.5 -28.5t29.5 -69.5t-30 -71t-71 -30t-70.5 30t-29.5 71z" />
<glyph unicode="&#xa9;" horiz-adv-x="1644" d="M115 698q0 152 55 286t149.5 228.5t226.5 149.5t281 55q150 0 282.5 -55t227.5 -150t150 -228.5t55 -285.5q0 -151 -55 -283.5t-150 -227t-227.5 -149t-282.5 -54.5q-204 0 -367 93t-254 256t-91 365zM244 698q0 -252 166.5 -420.5t416.5 -168.5t417 168.5t167 420.5 q0 167 -76 303t-209.5 213.5t-298.5 77.5t-298.5 -77.5t-209 -213.5t-75.5 -303zM483 555v268q0 143 104 231.5t249 88.5q164 0 274 -88l-66 -103q-38 32 -95 51t-113 19q-92 0 -157 -56t-65 -169v-215q0 -111 66 -168.5t154 -57.5q133 0 215 68l63 -100q-47 -39 -120 -63.5 t-156 -24.5q-147 0 -250 87.5t-103 231.5z" />
<glyph unicode="&#xab;" horiz-adv-x="940" d="M90 475l260 381h160l-254 -381l254 -381h-160zM442 475l260 381h160l-252 -381l252 -381h-160z" />
<glyph unicode="&#xad;" horiz-adv-x="802" d="M106 471v154h590v-154h-590z" />
<glyph unicode="&#xae;" horiz-adv-x="1146" d="M143 1008q0 184 123 307t305 123q183 0 305.5 -123t122.5 -307q0 -183 -122.5 -303.5t-305.5 -120.5q-182 0 -305 121t-123 303zM225 1008q0 -149 99 -249t247 -100t247.5 100t99.5 249q0 152 -99.5 252t-247.5 100t-247 -100t-99 -252zM412 760v495h204 q63 0 105.5 -38.5t42.5 -102.5q0 -46 -26 -81.5t-70 -53.5l114 -219h-96l-104 207h-86v-207h-84zM496 1044h106q35 0 56.5 19t21.5 51q0 66 -76 66h-108v-136z" />
<glyph unicode="&#xb4;" horiz-adv-x="1005" d="M395 1169l148 363l166 -51l-205 -353z" />
<glyph unicode="&#xb8;" horiz-adv-x="882" d="M293 -389l33 86q79 -25 153 -25q49 0 75 21t26 53q0 31 -24.5 56.5t-78.5 25.5q-14 0 -28 -2l-64 37l66 219l92 -8l-49 -154q106 -7 155 -58.5t49 -113.5q0 -65 -52.5 -117.5t-158.5 -52.5q-111 0 -194 33z" />
<glyph unicode="&#xbb;" horiz-adv-x="940" d="M92 94l252 381l-252 381h160l260 -381l-260 -381h-160zM444 94l254 381l-254 381h160l260 -381l-260 -381h-160z" />
<glyph unicode="&#x2c6;" horiz-adv-x="1005" d="M162 1208l307 314h109l292 -310l-82 -79l-272 217l-274 -220z" />
<glyph unicode="&#x2da;" horiz-adv-x="1005" d="M311 1319q0 87 62.5 148t150.5 61t149.5 -60.5t61.5 -148.5t-61.5 -149.5t-149.5 -61.5t-150.5 61.5t-62.5 149.5zM410 1319q0 -47 33.5 -80t80.5 -33t80 33t33 80t-33 79t-80 32q-48 0 -81 -32t-33 -79z" />
<glyph unicode="&#x2dc;" horiz-adv-x="1005" d="M137 1249q41 86 100 134.5t121 48.5q53 0 147.5 -48.5t127.5 -48.5q65 0 125 92l106 -59q-86 -182 -219 -182q-51 0 -142.5 43t-129.5 43q-35 0 -63 -17.5t-66 -64.5z" />
<glyph unicode="&#x401;" horiz-adv-x="1140" d="M125 0v1411h942v-172h-754v-448h645v-170h-645v-451h754v-170h-942zM307 1661q0 41 29 69.5t70 28.5t70.5 -28.5t29.5 -69.5t-29.5 -70.5t-70.5 -29.5t-70 29.5t-29 70.5zM707 1661q0 41 29.5 69.5t70.5 28.5t70.5 -28.5t29.5 -69.5t-29.5 -70.5t-70.5 -29.5t-70.5 29.5 t-29.5 70.5z" />
<glyph unicode="&#x404;" horiz-adv-x="1077" d="M111 449v516q0 138 71.5 244.5t187 161t251.5 54.5q242 0 395 -127l-94 -147q-54 46 -137 73t-164 27q-62 0 -117 -18.5t-101.5 -56t-74 -102t-27.5 -148.5v-119h496v-168h-496v-154q0 -83 28 -147.5t74.5 -102t100.5 -56.5t112 -19q192 0 312 98l90 -145 q-69 -57 -174 -92t-223 -35q-225 0 -367.5 125t-142.5 338z" />
<glyph unicode="&#x406;" horiz-adv-x="516" d="M164 0v1411h188v-1411h-188z" />
<glyph unicode="&#x407;" horiz-adv-x="516" d="M-39 1675q0 41 28.5 70t69.5 29t71 -29t30 -70t-30 -70.5t-71 -29.5t-69.5 29.5t-28.5 70.5zM164 0v1411h188v-1411h-188zM360 1675q0 41 30 70t71 29t70.5 -29t29.5 -70t-29.5 -70.5t-70.5 -29.5t-71 29.5t-30 70.5z" />
<glyph unicode="&#x410;" horiz-adv-x="1222" d="M27 0l491 1411h191l493 -1411h-198l-111 317h-561l-109 -317h-196zM393 489h441l-113 336l-105 328h-8l-102 -328z" />
<glyph unicode="&#x411;" horiz-adv-x="1153" d="M111 0v1411h843v-174h-655v-408h391q97 0 176 -35.5t128 -94t75.5 -131t26.5 -150.5t-25 -151t-73 -133.5t-126.5 -97t-175.5 -36.5h-585zM299 172h358q112 0 182 66t70 180q0 112 -72 174.5t-186 62.5h-352v-483z" />
<glyph unicode="&#x412;" horiz-adv-x="1214" d="M117 0v1411h585q93 0 170 -30.5t127 -82t77.5 -119t27.5 -141.5q0 -202 -174 -299q98 -51 147 -139t49 -186q0 -61 -16 -120t-49.5 -112.5t-80 -94t-112.5 -64t-143 -23.5h-608zM307 170h381q124 0 188 63t64 181q0 109 -76 174t-180 65h-377v-483zM307 823h375 q99 0 167.5 55.5t68.5 155.5q0 105 -67.5 155t-184.5 50h-359v-416z" />
<glyph unicode="&#x413;" horiz-adv-x="1050" d="M125 0v1411h942v-172h-754v-1239h-188z" />
<glyph unicode="&#x414;" horiz-adv-x="1415" d="M20 176h105q97 71 142 218.5t57 455.5l22 561h891l2 -1239h115v-477h-185v305h-964v-305h-185v481zM360 170h684v1069h-526l-20 -405q-13 -295 -39.5 -435.5t-98.5 -228.5z" />
<glyph unicode="&#x415;" horiz-adv-x="1140" d="M125 0v1411h942v-172h-754v-448h645v-170h-645v-451h754v-170h-942z" />
<glyph unicode="&#x416;" horiz-adv-x="1810" d="M51 0l137 451q33 112 85 183t135 99q-68 23 -120 90t-81 170l-131 418h186l127 -401q21 -66 52.5 -110t70 -63.5t71 -26.5t72.5 -7h156v608h188v-608h156q40 0 72.5 7t71 26.5t70 63.5t52.5 110l127 401h187l-131 -418q-29 -103 -81 -170t-120 -90q83 -28 134.5 -98.5 t84.5 -183.5l137 -451h-200l-123 422q-20 68 -48 113t-64 67.5t-71.5 30.5t-81.5 8h-172v-641h-188v641h-172q-46 0 -81 -8t-71 -30.5t-64 -67.5t-48 -113l-123 -422h-201z" />
<glyph unicode="&#x417;" horiz-adv-x="1040" d="M16 127l99 139q59 -46 159.5 -80t176.5 -34q165 0 243 70t78 198q0 116 -68 176.5t-192 60.5h-160v158h148q61 0 118 24.5t98.5 81.5t41.5 134q0 100 -76 151t-199 51q-75 0 -169.5 -32t-145.5 -78l-98 139q88 66 189 101.5t241 35.5q89 0 165 -20t138.5 -61t98.5 -112.5 t36 -166.5q0 -107 -52.5 -193t-148.5 -122q108 -34 162.5 -126t54.5 -200q0 -110 -38 -194.5t-107 -136.5t-159.5 -78.5t-200.5 -26.5q-123 0 -243.5 41t-189.5 100z" />
<glyph unicode="&#x418;" horiz-adv-x="1320" d="M121 0v1411h188v-1079h15l180 282l514 797h182v-1411h-188v1094h-15l-204 -328l-494 -766h-178z" />
<glyph unicode="&#x419;" horiz-adv-x="1320" d="M121 0v1411h188v-1079h15l180 282l514 797h182v-1411h-188v1094h-15l-204 -328l-494 -766h-178zM346 1737h150q5 -48 44 -88.5t101 -40.5q68 0 107.5 41t39.5 88h146q-3 -35 -12.5 -68.5t-31 -70t-52.5 -63.5t-82 -44.5t-115 -17.5q-79 0 -139 26t-92.5 67t-48 84.5 t-15.5 86.5z" />
<glyph unicode="&#x41a;" horiz-adv-x="1171" d="M117 0v1411h188v-608h219q31 0 56 3.5t57 16t57 34t50 60.5t42 93l129 401h181l-127 -412q-68 -219 -201 -266q83 -28 133.5 -97t83.5 -181l135 -455h-196l-123 422q-20 68 -49.5 113.5t-66 67t-71.5 30t-79 8.5h-230v-641h-188z" />
<glyph unicode="&#x41b;" horiz-adv-x="1273" d="M-4 115q77 39 127 86t88 125t55 194.5t17 284.5v606h868v-1411h-193v1239h-487v-446q0 -195 -25 -338.5t-77 -241t-122 -158.5t-169 -102z" />
<glyph unicode="&#x41c;" horiz-adv-x="1519" d="M119 0v1411h180l285 -575l178 -375h12l174 375l281 575h174v-1411h-189v961h-10l-129 -273l-237 -479h-142l-225 440l-154 312h-10v-961h-188z" />
<glyph unicode="&#x41d;" horiz-adv-x="1263" d="M111 0v1411h188v-610h662v610h192v-1411h-192v629h-662v-629h-188z" />
<glyph unicode="&#x41e;" horiz-adv-x="1255" d="M106 461v487q0 213 145 345t376 132q229 0 375.5 -132.5t146.5 -344.5v-487q0 -213 -148.5 -344t-373.5 -131q-232 0 -376.5 130t-144.5 345zM297 483q0 -162 93.5 -242.5t236.5 -80.5q144 0 237.5 80.5t93.5 242.5v443q0 163 -93 244t-238 81t-237.5 -81t-92.5 -244 v-443z" />
<glyph unicode="&#x41f;" horiz-adv-x="1263" d="M111 0v1411h1042v-1411h-192v1239h-662v-1239h-188z" />
<glyph unicode="&#x420;" horiz-adv-x="1134" d="M111 0v1411h585q97 0 175.5 -37.5t126.5 -98.5t73 -135t25 -151q0 -76 -28 -151t-77.5 -135.5t-127 -98t-167.5 -37.5h-397v-567h-188zM299 741h358q112 0 182 66.5t70 181.5q0 114 -70 182t-182 68h-358v-498z" />
<glyph unicode="&#x421;" horiz-adv-x="1079" d="M111 449v516q0 138 71.5 244.5t187 161t251.5 54.5q242 0 395 -127l-94 -147q-54 46 -137 73t-164 27q-62 0 -117 -18.5t-101.5 -56t-74 -102t-27.5 -148.5v-441q0 -83 28 -147.5t74.5 -102t100.5 -56.5t112 -19q192 0 312 98l90 -145q-69 -57 -174 -92t-223 -35 q-138 0 -253 54.5t-186 161.5t-71 247z" />
<glyph unicode="&#x422;" horiz-adv-x="1069" d="M33 1237v174h1003v-174h-405v-1237h-191v1237h-407z" />
<glyph unicode="&#x423;" horiz-adv-x="1060" d="M18 1411h197l320 -874h10l321 874h189l-420 -1100q-65 -186 -141.5 -257.5t-182.5 -71.5h-155v178h118q48 0 82.5 20.5t61.5 77.5l16 45z" />
<glyph unicode="&#x424;" horiz-adv-x="1581" d="M125 643v199q0 103 40.5 196t112.5 164t180.5 114.5t237.5 47.5v61h191v-61q129 -4 237 -46.5t181 -113.5t113 -164.5t40 -197.5v-193q0 -108 -38 -203t-109 -167.5t-180.5 -116t-243.5 -47.5v-115h-191v115q-134 4 -243.5 46.5t-180.5 114t-109 165.5t-38 202zM315 653 q0 -164 106 -261.5t275 -102.5v901q-171 -5 -276 -105t-105 -262v-170zM887 289q169 5 275 102.5t106 261.5v170q0 162 -105 262t-276 105v-901z" />
<glyph unicode="&#x425;" horiz-adv-x="1126" d="M18 0l439 723l-410 688h219l297 -532l299 532h219l-409 -688l438 -723h-219l-328 569l-325 -569h-220z" />
<glyph unicode="&#x426;" horiz-adv-x="1302" d="M111 0v1411h188v-1241h662v1241h192v-1237l117 -2v-477h-187v305h-972z" />
<glyph unicode="&#x427;" horiz-adv-x="1206" d="M59 997v416h191v-393q0 -174 64.5 -250t220.5 -76q87 0 190 36t168 83v600h190v-1411h-190v619q-75 -45 -178 -75t-191 -30q-129 0 -220.5 34t-144.5 99.5t-76.5 150.5t-23.5 197z" />
<glyph unicode="&#x428;" horiz-adv-x="1781" d="M113 0v1411h188v-1241h496v1241h184v-1241h500v1241h188v-1411h-1556z" />
<glyph unicode="&#x429;" horiz-adv-x="1814" d="M113 0v1411h188v-1241h496v1241h184v-1241h496v1241h192v-1237l117 -2v-477h-187v305h-1486z" />
<glyph unicode="&#x42a;" horiz-adv-x="1527" d="M12 1237v174h637v-582h391q91 0 168.5 -35.5t128.5 -94t80 -131.5t29 -150q0 -78 -25 -151t-72.5 -133.5t-126 -97t-175.5 -36.5h-586v1237h-449zM649 172h359q112 0 182 66t70 180q0 112 -72.5 174.5t-186.5 62.5h-352v-483z" />
<glyph unicode="&#x42b;" horiz-adv-x="1581" d="M123 0v1411h188v-582h391q91 0 168.5 -35.5t128.5 -94t80 -131.5t29 -150q0 -78 -25 -151t-72.5 -133.5t-126 -97t-175.5 -36.5h-586zM311 172h359q112 0 182 66t70 180q0 112 -72 174.5t-186 62.5h-353v-483zM1270 0v1411h188v-1411h-188z" />
<glyph unicode="&#x42c;" horiz-adv-x="1163" d="M123 0v1411h188v-582h391q91 0 168.5 -35.5t128.5 -94t80 -131.5t29 -150q0 -78 -25 -151t-72.5 -133.5t-126 -97t-175.5 -36.5h-586zM311 172h359q112 0 182 66t70 180q0 112 -72 174.5t-186 62.5h-353v-483z" />
<glyph unicode="&#x42d;" horiz-adv-x="1073" d="M51 113l90 145q120 -98 312 -98q66 0 121.5 18.5t99.5 56.5t69 102t25 148v160h-535v168h535v113q0 325 -307 325q-80 0 -158 -26.5t-133 -73.5l-94 147q153 127 393 127q231 0 360 -114.5t129 -345.5v-516q0 -140 -70.5 -247t-185.5 -161.5t-253 -54.5q-118 0 -223.5 35 t-174.5 92z" />
<glyph unicode="&#x42e;" horiz-adv-x="1583" d="M125 0v1411h188v-610h197v147q0 217 127 347t352 130q223 0 352 -130.5t129 -346.5v-487q0 -217 -130 -346t-351 -129q-229 0 -354 126.5t-125 348.5v168h-197v-629h-188zM700 483q0 -323 289 -323q291 0 291 323v443q0 325 -291 325q-289 0 -289 -325v-443z" />
<glyph unicode="&#x42f;" horiz-adv-x="1220" d="M88 0l115 408q30 100 61.5 152.5t93.5 82.5q-233 70 -233 346q0 179 108.5 300.5t296.5 121.5h582v-1411h-188v608h-281q-186 -12 -252 -221l-110 -387h-193zM305 989q0 -116 71 -169.5t195 -53.5h353v473h-357q-127 0 -194.5 -64t-67.5 -186z" />
<glyph unicode="&#x430;" horiz-adv-x="1015" d="M78 297q0 64 25 116.5t64.5 86t89.5 56.5t97.5 32.5t91.5 9.5h297v78q0 102 -57 146t-172 44q-169 0 -285 -94l-86 133q159 121 385 121q198 0 294 -87t96 -267v-672h-154l-21 94l-6 4q-112 -62 -189 -84t-147 -22q-148 0 -235.5 82t-87.5 223zM258 297q0 -71 48.5 -109 t129.5 -38q16 0 33 2t31.5 5t34 9t31.5 10t33.5 13.5t30 13t31.5 15t28.5 14t28.5 15t25 13.5v193h-268q-217 0 -217 -156z" />
<glyph unicode="&#x431;" horiz-adv-x="1036" d="M98 369v290q0 99 9.5 181.5t35 170.5t77.5 159t128 118q31 19 72 39t69 31.5t80.5 32t71.5 28.5q80 34 172 76l64 -147q-85 -36 -152.5 -62.5t-101.5 -42.5q-94 -40 -145 -68t-93 -69t-61.5 -91t-32.5 -130l4 -8q50 50 122 72t130 22q190 0 290.5 -97t100.5 -276v-229 q0 -115 -58.5 -203t-153.5 -132t-210 -44q-197 0 -307.5 100.5t-110.5 278.5zM274 393q0 -125 67.5 -182t178.5 -57q49 0 91 13t77.5 40t55.5 74.5t20 111.5v174q0 128 -62.5 184t-181.5 56q-44 0 -86.5 -15t-79 -43.5t-58.5 -78t-22 -111.5v-166z" />
<glyph unicode="&#x432;" horiz-adv-x="987" d="M90 0v1014h490q150 0 228.5 -80t78.5 -199q0 -60 -30.5 -116t-90.5 -89q70 -33 104.5 -94.5t34.5 -128.5q0 -57 -20.5 -111t-59.5 -98.5t-101.5 -71t-139.5 -26.5h-494zM268 156h285q174 0 174 151q0 65 -46.5 104.5t-109.5 39.5h-303v-295zM268 608h295q69 0 108.5 32.5 t39.5 92.5q0 62 -46 93.5t-112 31.5h-285v-250z" />
<glyph unicode="&#x433;" horiz-adv-x="819" d="M94 0v1016h723v-158h-545v-858h-178z" />
<glyph unicode="&#x434;" horiz-adv-x="1167" d="M29 147l69 5q75 51 108.5 144t45.5 288l24 430h734v-860l84 -2v-412h-166v260h-733v-260h-166v407zM330 154h504v704h-404l-12 -268q-8 -170 -27 -270t-61 -166z" />
<glyph unicode="&#x435;" horiz-adv-x="989" d="M96 360v269q0 179 114.5 287t295.5 108q184 0 296.5 -103t112.5 -278v-201h-643v-67q0 -114 72.5 -169.5t181.5 -55.5q145 0 250 100l111 -121q-136 -139 -365 -139q-118 0 -213 40t-154 125.5t-59 204.5zM274 586h463v39q0 121 -65 180t-166 59q-99 0 -165.5 -60 t-66.5 -173v-45z" />
<glyph unicode="&#x436;" horiz-adv-x="1435" d="M51 0l101 330q12 36 20 57t22 48.5t29 43.5t37.5 30t50.5 21q-54 16 -89 64t-60 127l-92 295h180l90 -293q14 -47 35 -76.5t49.5 -42.5t52 -16.5t58.5 -3.5h96v432h174v-432h96q36 0 59 3.5t51 16.5t49 42.5t36 76.5l90 293h180l-92 -295q-51 -161 -150 -191 q64 -16 98.5 -65t61.5 -135l100 -330h-184l-80 281q-27 91 -72.5 120t-123.5 29h-119v-430h-174v430h-119q-78 0 -124 -29t-73 -120l-79 -281h-185z" />
<glyph unicode="&#x437;" horiz-adv-x="868" d="M27 119l106 121q51 -45 122.5 -69t135.5 -24q120 0 177 45t57 109q0 70 -53 107.5t-138 37.5h-139v146h143q80 0 126 39t46 100q0 64 -56.5 97.5t-137.5 33.5q-148 0 -242 -82l-108 121q133 125 360 125q169 0 261.5 -80t92.5 -201q0 -162 -141 -217q84 -33 120 -99 t36 -126q0 -139 -102 -225t-292 -86q-230 0 -374 127z" />
<glyph unicode="&#x438;" horiz-adv-x="1046" d="M102 0v1014h179v-731h8l151 231l338 500h166v-1014h-180v733h-10l-154 -235l-336 -498h-162z" />
<glyph unicode="&#x439;" horiz-adv-x="1046" d="M102 0v1014h179v-731h8l151 231l338 500h166v-1014h-180v733h-10l-154 -235l-336 -498h-162zM231 1427h150q5 -48 44 -88.5t101 -40.5q68 0 108 41t40 88h145q-3 -35 -12.5 -68.5t-31 -70t-52.5 -63.5t-82 -44.5t-115 -17.5q-79 0 -139 26t-92.5 67t-48 84.5t-15.5 86.5z " />
<glyph unicode="&#x43a;" horiz-adv-x="991" d="M102 0v1016h174v-432h173q28 0 46.5 2t42.5 9.5t41 22t34.5 41t29.5 64.5l98 293h181l-101 -295q-27 -80 -61 -127.5t-88 -63.5q63 -16 96.5 -64t62.5 -136l109 -330h-184l-88 281q-30 91 -74.5 120t-122.5 29h-195v-430h-174z" />
<glyph unicode="&#x43b;" horiz-adv-x="1058" d="M6 113q45 21 71.5 36.5t55.5 41t44.5 57t29 79.5t19 113t5.5 154v420h705v-1014h-176v858h-354v-274q0 -123 -16 -217.5t-43 -157.5t-71 -110.5t-89.5 -75t-108.5 -52.5z" />
<glyph unicode="&#x43c;" horiz-adv-x="1241" d="M106 0v1014h164l205 -385l141 -275l146 273l213 387h160v-1014h-179v641h-10l-110 -209l-162 -287h-121l-133 240l-127 242h-8v-627h-179z" />
<glyph unicode="&#x43d;" horiz-adv-x="1044" d="M104 0v1014h177v-422h483v422h178v-1014h-178v432h-483v-432h-177z" />
<glyph unicode="&#x43e;" horiz-adv-x="1034" d="M98 358v295q0 113 57.5 199t152.5 130t210 44q187 0 303.5 -100.5t116.5 -272.5v-295q0 -170 -122 -269t-300 -99q-181 0 -299.5 98t-118.5 270zM274 393q0 -125 67.5 -182t178.5 -57q43 0 84.5 13t78 40t59 75t22.5 111v230q0 63 -22.5 111t-59 75t-78 40t-84.5 13 q-45 0 -86.5 -13t-78.5 -40t-59 -75t-22 -111v-230z" />
<glyph unicode="&#x43f;" horiz-adv-x="1034" d="M100 0v1014h836v-1014h-176v858h-486v-858h-174z" />
<glyph unicode="&#x440;" horiz-adv-x="1030" d="M102 -406v1420h154l20 -107q114 67 187.5 92t134.5 25q156 0 248 -91t92 -271v-312q0 -172 -94.5 -267t-261.5 -95q-149 0 -306 63v-457h-174zM276 217q154 -63 289 -63q197 0 197 204v291q0 111 -46.5 158t-133.5 47q-55 0 -146 -36.5t-160 -82.5v-518z" />
<glyph unicode="&#x441;" horiz-adv-x="878" d="M96 350v301q0 112 56.5 199t147.5 131.5t198 44.5q227 0 342 -125l-105 -133q-101 94 -229 94q-42 0 -81.5 -13t-74.5 -40t-56.5 -75t-21.5 -111v-230q0 -122 68 -180.5t166 -58.5q53 0 115.5 20.5t105.5 63.5l109 -123q-125 -125 -334 -125q-179 0 -292.5 100.5 t-113.5 259.5z" />
<glyph unicode="&#x442;" horiz-adv-x="854" d="M23 858v158h811v-158h-316v-858h-182v858h-313z" />
<glyph unicode="&#x443;" horiz-adv-x="958" d="M20 1016h191l123 -447l112 -405h7l143 405l154 447h188l-518 -1428h-189l150 430l-86 72z" />
<glyph unicode="&#x444;" horiz-adv-x="1290" d="M96 430v127q0 93 28.5 175t83.5 147t145.5 104t205.5 43v385h174v-385q114 -4 203 -40t145.5 -96.5t85.5 -139.5t29 -172v-148q0 -84 -29 -160t-85 -137.5t-146 -100t-203 -44.5v-396h-174v396q-121 6 -212.5 43.5t-145 99.5t-79.5 137t-26 162zM272 461q0 -294 287 -314 v719q-73 0 -130 -26.5t-90 -71.5t-50 -99.5t-17 -115.5v-92zM733 147q77 0 135 26.5t90 72t47 99.5t15 116v92q0 62 -16 116t-49 99t-90 71.5t-132 26.5v-719z" />
<glyph unicode="&#x445;" horiz-adv-x="888" d="M-2 0l344 520l-324 496h211l211 -354l215 354h209l-327 -492l342 -524h-213l-228 381l-233 -381h-207z" />
<glyph unicode="&#x446;" horiz-adv-x="1064" d="M119 0v1016h172v-860h467v860h168v-862l84 -2v-412h-166v260h-725z" />
<glyph unicode="&#x447;" horiz-adv-x="985" d="M57 705v313h176v-291q0 -213 181 -213q62 0 144 30.5t161 82.5v391h176v-1018h-176v453q-191 -111 -334 -111q-163 0 -245.5 93.5t-82.5 269.5z" />
<glyph unicode="&#x448;" horiz-adv-x="1470" d="M113 0v1014h178v-856h354v856h174v-856h357v856h176v-1014h-1239z" />
<glyph unicode="&#x449;" horiz-adv-x="1476" d="M102 0v1014h179v-858h354v858h174v-858h356v858h176v-862h84v-414h-165v262h-1158z" />
<glyph unicode="&#x44a;" horiz-adv-x="1196" d="M14 858v156h525v-393h268q168 0 260 -86t92 -222q0 -144 -92.5 -228.5t-261.5 -84.5h-443v858h-348zM537 156h264q89 0 136.5 40t47.5 117q0 64 -46 109t-138 45h-264v-311z" />
<glyph unicode="&#x44b;" horiz-adv-x="1271" d="M102 0v1016h177v-395h268q168 0 260 -86t92 -222q0 -144 -92.5 -228.5t-261.5 -84.5h-443zM276 156h265q89 0 136.5 40t47.5 117q0 64 -46 109t-138 45h-265v-311zM999 0v1014h170v-1014h-170z" />
<glyph unicode="&#x44c;" horiz-adv-x="921" d="M102 0v1016h177v-395h268q168 0 260 -86t92 -222q0 -144 -92.5 -228.5t-261.5 -84.5h-443zM276 156h265q89 0 136.5 40t47.5 117q0 64 -46 109t-138 45h-265v-311z" />
<glyph unicode="&#x44d;" horiz-adv-x="878" d="M37 115l104 133q94 -94 230 -94q42 0 82 12t77 38t59.5 73t22.5 110v64h-391v149h391v23q0 128 -56.5 183.5t-162.5 55.5q-54 0 -116.5 -21t-108.5 -63l-109 123q125 125 351 125q185 0 281.5 -97.5t96.5 -262.5v-301q0 -171 -114.5 -273t-294.5 -102q-227 0 -342 125z " />
<glyph unicode="&#x44e;" horiz-adv-x="1306" d="M92 0v1014h176v-424h150v63q0 171 112 272t287 101q187 0 293.5 -98.5t106.5 -274.5v-295q0 -172 -113 -270t-289 -98q-179 0 -288 97.5t-109 270.5v74h-150v-432h-176zM594 393q0 -128 57.5 -183.5t167.5 -55.5q93 0 158 58.5t65 180.5v230q0 122 -65 180.5t-158 58.5 q-95 0 -160 -58t-65 -181v-230z" />
<glyph unicode="&#x44f;" horiz-adv-x="978" d="M61 0l66 274q21 74 50.5 121t84.5 64q-83 25 -126.5 91t-43.5 150q0 133 88 223.5t228 90.5h479v-1014h-176v420h-219q-155 0 -189 -154l-59 -266h-183zM260 705q0 -136 174 -136h277v289h-283q-71 0 -119.5 -39t-48.5 -114z" />
<glyph unicode="&#x451;" horiz-adv-x="989" d="M96 360v269q0 179 114.5 287t295.5 108q184 0 296.5 -103t112.5 -278v-201h-643v-67q0 -114 72.5 -169.5t181.5 -55.5q145 0 250 100l111 -121q-136 -139 -365 -139q-118 0 -213 40t-154 125.5t-59 204.5zM215 1323q0 41 28.5 69.5t69.5 28.5q42 0 71.5 -28.5t29.5 -69.5 t-30 -70.5t-71 -29.5t-69.5 29.5t-28.5 70.5zM274 586h463v39q0 121 -65 180t-166 59q-99 0 -165.5 -60t-66.5 -173v-45zM614 1323q0 41 29.5 69.5t71.5 28.5q41 0 70.5 -28.5t29.5 -69.5t-29.5 -70.5t-70.5 -29.5t-71 29.5t-30 70.5z" />
<glyph unicode="&#x454;" horiz-adv-x="878" d="M96 350v301q0 170 113.5 272.5t284.5 102.5q227 0 342 -125l-105 -133q-101 94 -229 94q-99 0 -164.5 -58t-65.5 -181v-37h361v-148h-361v-45q0 -125 64 -182t170 -57q53 0 115.5 20.5t105.5 63.5l109 -123q-125 -125 -334 -125q-190 0 -298 98.5t-108 261.5z" />
<glyph unicode="&#x456;" horiz-adv-x="464" d="M123 1323q0 44 32.5 76.5t75.5 32.5q44 0 77.5 -32.5t33.5 -76.5t-33.5 -77.5t-77.5 -33.5q-43 0 -75.5 33.5t-32.5 77.5zM145 0v1016h174v-1016h-174z" />
<glyph unicode="&#x457;" horiz-adv-x="489" d="M-51 1309q0 41 28.5 69.5t69.5 28.5t70.5 -28.5t29.5 -69.5t-29.5 -71t-70.5 -30t-69.5 29.5t-28.5 71.5zM158 0v1016h174v-1016h-174zM348 1309q0 41 29.5 69.5t71.5 28.5q41 0 70.5 -28.5t29.5 -69.5t-29.5 -71t-70.5 -30t-71 30t-30 71z" />
<glyph unicode="&#x490;" horiz-adv-x="1073" d="M125 0v1411h749v244h183v-416h-744v-1239h-188z" />
<glyph unicode="&#x491;" horiz-adv-x="845" d="M94 0v1016h565v211h170v-369h-557v-858h-178z" />
<glyph unicode="&#x2000;" horiz-adv-x="887" />
<glyph unicode="&#x2001;" horiz-adv-x="1774" />
<glyph unicode="&#x2002;" horiz-adv-x="887" />
<glyph unicode="&#x2003;" horiz-adv-x="1774" />
<glyph unicode="&#x2004;" horiz-adv-x="591" />
<glyph unicode="&#x2005;" horiz-adv-x="443" />
<glyph unicode="&#x2006;" horiz-adv-x="295" />
<glyph unicode="&#x2007;" horiz-adv-x="295" />
<glyph unicode="&#x2008;" horiz-adv-x="221" />
<glyph unicode="&#x2009;" horiz-adv-x="354" />
<glyph unicode="&#x200a;" horiz-adv-x="98" />
<glyph unicode="&#x2010;" horiz-adv-x="802" d="M106 471v154h590v-154h-590z" />
<glyph unicode="&#x2011;" horiz-adv-x="802" d="M106 471v154h590v-154h-590z" />
<glyph unicode="&#x2012;" horiz-adv-x="802" d="M106 471v154h590v-154h-590z" />
<glyph unicode="&#x2013;" d="M41 471v158h942v-158h-942z" />
<glyph unicode="&#x2014;" horiz-adv-x="2048" d="M41 471v158h1966v-158h-1966z" />
<glyph unicode="&#x2018;" horiz-adv-x="602" d="M166 1155q0 109 63.5 202t151.5 132l61 -80q-50 -38 -77 -79.5t-31 -100.5q42 -4 68 -37.5t26 -81.5q0 -47 -34 -83t-89 -36q-71 0 -105 49.5t-34 114.5z" />
<glyph unicode="&#x2019;" horiz-adv-x="602" d="M168 1073q50 38 77 79.5t31 100.5q-42 4 -68 37.5t-26 81.5q0 47 34 83t89 36q71 0 105 -49.5t34 -114.5q0 -109 -63.5 -202t-151.5 -132z" />
<glyph unicode="&#x201a;" horiz-adv-x="512" d="M117 -193q50 37 77 79.5t31 101.5q-52 4 -73 32.5t-21 85.5q0 47 34 82t89 35q71 0 105 -48.5t34 -113.5q0 -109 -63.5 -201.5t-151.5 -131.5z" />
<glyph unicode="&#x201c;" horiz-adv-x="827" d="M125 1155q0 109 63.5 202t151.5 132l61 -80q-50 -38 -77 -79.5t-31 -100.5q42 -4 68 -37.5t26 -81.5q0 -47 -34 -83t-89 -36q-71 0 -105 49.5t-34 114.5zM436 1155q0 109 63.5 202t151.5 132l62 -80q-51 -38 -78 -80t-31 -100q42 -4 68 -37.5t26 -81.5q0 -47 -34 -83 t-89 -36q-71 0 -105 49.5t-34 114.5z" />
<glyph unicode="&#x201d;" horiz-adv-x="827" d="M127 1073q51 38 78 80t31 100q-42 4 -68.5 37.5t-26.5 81.5q0 47 34 83t89 36q71 0 105 -49.5t34 -114.5q0 -109 -63.5 -202t-151.5 -132zM438 1073q51 38 78 80t31 100q-42 4 -68 37.5t-26 81.5q0 47 34 83t88 36q71 0 105.5 -49.5t34.5 -114.5q0 -109 -63.5 -202 t-151.5 -132z" />
<glyph unicode="&#x201e;" horiz-adv-x="864" d="M117 -193q50 37 77 79.5t31 101.5q-52 4 -73 32.5t-21 85.5q0 47 34 82t89 35q71 0 105 -48.5t34 -113.5q0 -109 -63.5 -201.5t-151.5 -131.5zM481 -193q50 38 77.5 80t31.5 101q-52 4 -73 32.5t-21 85.5q0 47 33.5 82t88.5 35q49 0 82 -26t45.5 -61t12.5 -75 q0 -109 -63.5 -201.5t-151.5 -131.5z" />
<glyph unicode="&#x2026;" horiz-adv-x="1591" d="M129 113q0 46 31.5 81t85.5 35q57 0 91 -35t34 -81q0 -53 -33.5 -88t-91.5 -35q-56 0 -86.5 34t-30.5 89zM666 113q0 46 31 81t85 35q57 0 91 -35t34 -81q0 -53 -33.5 -88t-91.5 -35q-56 0 -86 33.5t-30 89.5zM1212 113q0 46 31.5 81t85.5 35q57 0 91 -35t34 -81 q0 -53 -33.5 -88t-91.5 -35q-56 0 -86.5 34t-30.5 89z" />
<glyph unicode="&#x202f;" horiz-adv-x="354" />
<glyph unicode="&#x2039;" horiz-adv-x="614" d="M94 475l260 381h160l-252 -381l252 -381h-160z" />
<glyph unicode="&#x203a;" horiz-adv-x="614" d="M92 94l252 381l-252 381h160l260 -381l-260 -381h-160z" />
<glyph unicode="&#x205f;" horiz-adv-x="443" />
<glyph unicode="&#x20ac;" d="M96 535v129h805v-129h-522v-50q0 -164 87 -244.5t226 -80.5q167 0 275 69l84 -147q-154 -96 -355 -96q-233 0 -370.5 127t-137.5 344v78h-92zM96 760v129h92v67q0 211 144 340t364 129q212 0 351 -92l-93 -151q-119 69 -258 69q-142 0 -229.5 -79.5t-87.5 -245.5v-37h522 v-129h-805z" />
<glyph unicode="&#x2122;" horiz-adv-x="1751" d="M78 1305v120h631v-120h-252v-721h-125v721h-254zM793 582v839h114l183 -344l114 -223h6l111 223l182 344h111v-839h-121v571h-6l-82 -162l-154 -284h-90l-145 262l-96 184h-7v-571h-120z" />
<glyph unicode="&#x25fc;" horiz-adv-x="1013" d="M0 0v1014h1014v-1014h-1014z" />
</font>
</defs>
</svg>
