<?xml version="1.0" standalone="no"?>
<!DOCTYPE svg PUBLIC "-//W3C//DTD SVG 1.1//EN" "http://www.w3.org/Graphics/SVG/1.1/DTD/svg11.dtd" >
<svg xmlns="http://www.w3.org/2000/svg" xmlns:xlink="http://www.w3.org/1999/xlink" version="1.1">
<metadata></metadata>
<defs>
<font id="didact_gothicregular" horiz-adv-x="1148" >
<font-face units-per-em="2048" ascent="1638" descent="-410" />
<missing-glyph horiz-adv-x="456" />
<glyph horiz-adv-x="0" />
<glyph unicode="&#xd;" horiz-adv-x="681" />
<glyph unicode=" "  horiz-adv-x="456" />
<glyph unicode="&#x09;" horiz-adv-x="456" />
<glyph unicode="&#xa0;" horiz-adv-x="456" />
<glyph unicode="!" horiz-adv-x="477" d="M129 96q0 47 32 79t79 32t78.5 -32t31.5 -79t-32.5 -79.5t-77.5 -32.5t-78 32.5t-33 79.5zM168 340v1057h139v-1057h-139z" />
<glyph unicode="&#x22;" horiz-adv-x="675" d="M121 868v529h139v-529h-139zM416 868v529h139v-529h-139z" />
<glyph unicode="#" horiz-adv-x="1105" d="M80 340v139h196l23 361h-178v141h188l21 336h137l-21 -336h254l21 336h139l-20 -336h186v-141h-197l-22 -361h178v-139h-186l-23 -340h-139l22 340h-253l-23 -340h-137l22 340h-188zM414 479h254l22 361h-254z" />
<glyph unicode="$" horiz-adv-x="970" d="M72 395l125 64q27 -68 90 -111t151 -49v328q-53 10 -91 20t-88 31.5t-82 47.5t-54.5 70t-22.5 97q0 127 92.5 206t245.5 93v205h84v-203q254 -10 344 -225l-125 -64q-61 152 -219 160v-313q76 -12 130.5 -28.5t116.5 -47.5t95 -83t33 -122q0 -127 -106.5 -207t-268.5 -92 v-172h-84v170q-127 4 -225 63.5t-141 161.5zM242 893q0 -57 52 -85t144 -42v297q-96 -12 -146 -57t-50 -113zM522 301q106 10 171 57.5t65 112.5q0 25 -8.5 44.5t-32 33.5t-36.5 22.5t-53 17.5t-50.5 11t-55.5 10v-309z" />
<glyph unicode="%" horiz-adv-x="1087" d="M80 868.5q0 77.5 54 131t130 53.5t130.5 -53.5t54.5 -131t-54.5 -131t-130.5 -53.5t-130 53.5t-54 131zM100 82l811 967l76 -68l-811 -965zM168 868q0 -41 28.5 -68.5t67.5 -27.5t67.5 27.5t28.5 68.5t-28.5 69t-67.5 28t-67.5 -28t-28.5 -69zM639 196.5q0 77.5 53 131 t131 53.5t131.5 -53.5t53.5 -131t-53.5 -131t-131.5 -53.5t-131 53.5t-53 131zM727 197q0 -41 27.5 -69t68.5 -28t69 28t28 69t-28 68.5t-69 27.5t-68.5 -27.5t-27.5 -68.5z" />
<glyph unicode="&#x26;" horiz-adv-x="1097" d="M61 391q0 68 42 144.5t89.5 130t129.5 135.5l-52 73q-78 111 -77 297q0 113 87 180.5t195 67.5q106 0 183 -61.5t77 -173.5q0 -162 -223 -389l279 -398q49 106 83 256l154 -32q-39 -205 -135 -369l176 -252h-186l-86 123q-141 -147 -334 -148q-166 0 -284 122t-118 294z M217 395q0 -115 71.5 -196.5t174.5 -81.5q133 0 242 139l-302 430q-92 -94 -139 -160.5t-47 -130.5zM348 1167q0 -123 82 -254q150 160 150 267q0 41 -35 70.5t-70 29.5q-37 0 -82 -36t-45 -77z" />
<glyph unicode="'" horiz-adv-x="380" d="M121 868v529h139v-529h-139z" />
<glyph unicode="(" horiz-adv-x="481" d="M88 696q0 305 85 518t224 213v-139q-53 -31 -103 -204t-50 -388t50 -386t103 -201v-142q-139 0 -224 212t-85 517z" />
<glyph unicode=")" horiz-adv-x="481" d="M84 -33v142q53 31 103.5 203.5t50.5 387.5t-50.5 386t-103.5 202v139q139 0 224 -210.5t85 -516.5q0 -307 -85 -520t-224 -213z" />
<glyph unicode="*" horiz-adv-x="712" d="M94 1114v96h178l-88 154l84 47l90 -154l88 154l84 -47l-88 -154h176v-96h-178l90 -156l-84 -49l-88 154l-90 -154l-84 49l90 156h-180z" />
<glyph unicode="+" horiz-adv-x="907" d="M78 436v113h319v319h113v-319h319v-113h-319v-319h-113v319h-319z" />
<glyph unicode="," horiz-adv-x="419" d="M98 96q0 47 33 79t78 32t77.5 -32t32.5 -79q0 -70 -19 -131t-46 -98t-53.5 -64.5t-44.5 -40.5l-21 -10l-35 21q78 78 109 211q-45 0 -78 32.5t-33 79.5z" />
<glyph unicode="-" horiz-adv-x="681" d="M115 436v113h452v-113h-452z" />
<glyph unicode="." horiz-adv-x="417" d="M98 96q0 47 33 79t78 32t77.5 -32t32.5 -79t-32.5 -79.5t-77.5 -32.5t-78 32.5t-33 79.5z" />
<glyph unicode="/" horiz-adv-x="772" d="M70 0l508 1397h127l-508 -1397h-127z" />
<glyph unicode="0" d="M80 698.5q0 329.5 143.5 529t331.5 199.5t331.5 -198.5t143.5 -530.5q0 -334 -142.5 -532.5t-330.5 -198.5t-332.5 201t-144.5 530.5zM217 698q0 -252 101.5 -428t236.5 -176t235.5 176t100.5 428t-100.5 427t-235.5 175t-236.5 -175t-101.5 -427z" />
<glyph unicode="1" d="M326 877l307 520h151v-1397h-151v1053l-221 -209z" />
<glyph unicode="2" d="M127 1188q98 127 191.5 183t226.5 56q197 0 310.5 -98t113.5 -280q0 -141 -75 -249t-269 -251q-115 -86 -206 -197.5t-114 -212.5h678v-139h-840v88q0 143 107.5 283.5t304.5 298.5q139 113 197.5 192.5t58.5 186.5q0 240 -266 239q-98 0 -164 -46t-141 -150z" />
<glyph unicode="3" d="M106 162l109 86q47 -66 126 -104t159 -38q152 0 251 63.5t99 211.5q0 90 -42 154.5t-112.5 96.5t-139.5 45t-144 13v137q145 0 268 68t123 172q0 98 -65.5 160.5t-186.5 62.5q-70 0 -138.5 -34.5t-113.5 -100.5l-111 86q68 86 168.5 136t194.5 50q170 0 287.5 -99 t117.5 -261q0 -88 -64.5 -166t-170.5 -131q283 -117 283 -389q0 -197 -154 -305.5t-350 -108.5q-102 0 -214 54.5t-180 140.5z" />
<glyph unicode="4" d="M111 360v152l618 885h154v-885h137v-152h-137v-360h-154v360h-618zM274 512h455v647z" />
<glyph unicode="5" d="M94 152l109 75q102 -133 327 -133q150 0 249.5 106.5t99.5 250.5q0 158 -86 256t-252 98q-35 0 -65 -1t-57.5 -4t-45 -4t-41 -8.5t-32.5 -8.5t-32.5 -11t-27.5 -11t-32 -14.5t-32 -15.5v670h709v-142h-557v-348q113 25 213 25q231 0 353 -122t122 -359 q0 -215 -132 -349.5t-358 -134.5q-285 1 -432 185z" />
<glyph unicode="6" d="M80 461q0 201 45 366.5t117.5 272t169 181.5t190.5 107.5t191 38.5v-131q-393 -57 -519 -446q133 102 281 102q182 0 328.5 -143t146.5 -348t-147.5 -349.5t-329.5 -144.5t-327.5 143.5t-145.5 350.5zM219 460.5q0 -155.5 100.5 -261t235.5 -105.5t236.5 105.5t101.5 261 t-101.5 259t-236.5 103.5t-235.5 -103.5t-100.5 -259z" />
<glyph unicode="7" d="M133 1255v142h844l-475 -1397h-166l428 1255h-631z" />
<glyph unicode="8" d="M80 399q0 248 219 369q-160 102 -160 295q0 174 126 269t290 95t290 -95t126 -269q0 -193 -160 -295q219 -121 219 -369q0 -201 -141 -316.5t-331.5 -115.5t-334 116t-143.5 316zM227 399.5q0 -149.5 92.5 -222.5t235.5 -73t234.5 72t91.5 223.5t-91.5 223t-234.5 71.5 t-235.5 -72.5t-92.5 -222zM289 1063q0 -115 73.5 -173.5t192.5 -58.5t191.5 56.5t72.5 175.5q0 117 -72.5 172t-191.5 55q-121 0 -193.5 -55t-72.5 -172z" />
<glyph unicode="9" d="M80 936q0 205 146.5 348t330.5 143q182 0 327.5 -143t145.5 -348q0 -250 -67.5 -442.5t-177 -301t-227.5 -164t-241 -61.5v133q395 57 521 445q-129 -100 -283 -101q-182 0 -328.5 143.5t-146.5 348.5zM217 936q0 -156 101.5 -260.5t236.5 -104.5t235.5 104.5 t100.5 260.5t-100.5 261.5t-235.5 105.5t-236.5 -105.5t-101.5 -261.5z" />
<glyph unicode=":" horiz-adv-x="450" d="M115 96q0 47 32.5 79t77.5 32t78 -32t33 -79t-33 -79.5t-78 -32.5t-77.5 32.5t-32.5 79.5zM115 856q0 45 32.5 78t77.5 33t78 -33t33 -78q0 -47 -33 -80t-78 -33t-77.5 33t-32.5 80z" />
<glyph unicode=";" horiz-adv-x="450" d="M115 96q0 47 32.5 79t77.5 32t78 -32t33 -79q0 -70 -19.5 -131t-46 -98t-53.5 -64.5t-45 -40.5l-20 -10l-35 21q78 78 108 211q-45 0 -77.5 32.5t-32.5 79.5zM115 856q0 45 32.5 78t77.5 33t78 -33t33 -78q0 -47 -33 -80t-78 -33t-77.5 33t-32.5 80z" />
<glyph unicode="&#x3c;" horiz-adv-x="985" d="M53 584l735 616l91 -108l-607 -508l607 -508l-91 -109z" />
<glyph unicode="=" horiz-adv-x="817" d="M133 324v112h551v-112h-551zM133 549v110h551v-110h-551z" />
<glyph unicode="&#x3e;" horiz-adv-x="985" d="M106 76l607 508l-607 508l91 108l735 -616l-735 -617z" />
<glyph unicode="?" horiz-adv-x="944" d="M59 1145q45 129 155 205.5t235 76.5q176 0 295.5 -113.5t119.5 -281.5q0 -111 -38 -189.5t-91 -126.5t-106.5 -93t-91 -116t-37.5 -167h-140q0 111 38 189.5t91.5 127t106.5 93.5t91 115.5t38 166.5q0 115 -75 191.5t-201 76.5q-92 0 -161 -51t-100 -145zM317 96 q0 47 32 79t79 32t80 -33t33 -78q0 -47 -33 -79.5t-80 -32.5q-45 0 -78 32.5t-33 79.5z" />
<glyph unicode="@" horiz-adv-x="1538" d="M82 633q0 158 62.5 307.5t159.5 253.5t219 166.5t241 62.5q348 0 526 -231t178 -637q0 -178 -65.5 -309t-208.5 -131q-145 0 -201 108q-86 -110 -225 -110q-160 0 -245 120.5t-85 335.5q0 211 84 329t242 118q115 0 199 -78v43h127v-598q0 -66 34.5 -97.5t69.5 -31.5 q63 0 98 92t35 242q0 336 -138 522t-425 186q-190 0 -366.5 -198.5t-176.5 -458.5q0 -373 166 -592t451 -219q127 0 270 53l55 -119q-168 -61 -325 -61q-338 0 -547 254t-209 678zM563 563q0 -137 54.5 -231t146.5 -94q90 0 144.5 93t54.5 232q0 133 -54.5 229.5 t-144.5 96.5t-145.5 -96.5t-55.5 -229.5z" />
<glyph unicode="A" horiz-adv-x="1179" d="M2 0l506 1393v4h166l-2 -4l508 -1393h-164l-144 391h-565l-141 -391h-164zM354 518h473l-237 649z" />
<glyph unicode="B" horiz-adv-x="1177" d="M162 0v1397h413q180 0 304.5 -98.5t124.5 -251.5q0 -174 -154 -275q248 -106 248 -362q0 -135 -74 -230.5t-180.5 -137.5t-231.5 -42h-450zM315 127h293q139 0 230.5 73.5t91.5 209t-91 209t-231 73.5h-293v-565zM315 821h260q123 0 192 67.5t69 158t-68 156t-193 65.5 h-260v-447z" />
<glyph unicode="C" horiz-adv-x="1173" d="M90 696q0 297 165 514t398 217q254 0 441 -286l-121 -86q-141 233 -319.5 233t-293 -176t-114.5 -415.5t114.5 -413.5t292.5 -174q193 0 332 258l133 -72q-190 -328 -465 -328q-233 0 -398 216t-165 513z" />
<glyph unicode="D" horiz-adv-x="1249" d="M162 0v1397h305q135 0 257 -42t220 -124t155.5 -220.5t57.5 -314.5t-57.5 -313t-155.5 -219t-219 -123t-258 -41h-305zM315 139h107q274 0 423.5 137.5t149.5 420t-149.5 420.5t-423.5 138h-107v-1116z" />
<glyph unicode="E" horiz-adv-x="1030" d="M162 0v1397h782v-129h-629v-447h492v-125h-492v-569h635v-127h-788z" />
<glyph unicode="F" horiz-adv-x="980" d="M162 0v1397h782v-129h-629v-447h492v-125h-492v-696h-153z" />
<glyph unicode="G" horiz-adv-x="1243" d="M90 696q0 301 162 516t412 215q158 0 257 -70.5t193 -215.5l-123 -86q-70 117 -141.5 175t-185.5 58q-188 0 -303 -175t-115 -417q0 -244 101.5 -415.5t277.5 -171.5q92 0 152.5 16t116.5 65.5t83 149.5t27 256h-330v127h481v-127q0 -330 -136 -479.5t-394 -149.5 q-231 0 -383 214t-152 515z" />
<glyph unicode="H" horiz-adv-x="1245" d="M162 0v1397h153v-604h615v604h153v-1397h-153v666h-615v-666h-153z" />
<glyph unicode="I" horiz-adv-x="518" d="M109 0v135h73v1127h-73v135h301v-135h-74v-1127h74v-135h-301z" />
<glyph unicode="J" horiz-adv-x="1003" d="M25 260l129 62q31 -98 99.5 -154.5t162.5 -56.5q283 0 282 309v977h154v-977q0 -205 -125 -329t-307 -124q-125 0 -232.5 81t-162.5 212z" />
<glyph unicode="K" horiz-adv-x="1091" d="M162 0v1397h153v-658l551 658h199l-520 -621l542 -776h-186l-459 655l-127 -151v-504h-153z" />
<glyph unicode="L" horiz-adv-x="892" d="M162 0v1397h153v-1270h547v-127h-700z" />
<glyph unicode="M" horiz-adv-x="1624" d="M162 0v1397h166l485 -1194l483 1194h166v-1397h-151v1030l-416 -1030h-164l-416 1028v-1028h-153z" />
<glyph unicode="N" horiz-adv-x="1288" d="M162 0v1397h153l660 -1145v1145h151v-1397h-151l-660 1141v-1141h-153z" />
<glyph unicode="O" horiz-adv-x="1372" d="M86 696q0 293 181.5 512t419 219t418.5 -219t181 -512t-181 -511t-418.5 -218t-419 218t-181.5 511zM248 696q0 -233 128 -410t310 -177t310 177t128 410q0 236 -129 414t-309 178t-309 -178t-129 -414z" />
<glyph unicode="P" horiz-adv-x="1140" d="M162 0v1397h446q125 0 232.5 -42t182.5 -138.5t75 -231.5t-74 -230.5t-180.5 -137.5t-231.5 -42h-297v-575h-153zM315 705h293q139 0 230.5 72.5t91.5 207.5t-91 209t-231 74h-293v-563z" />
<glyph unicode="Q" horiz-adv-x="1372" d="M86 696q0 293 181.5 512t419 219t418.5 -219t181 -512q0 -301 -188 -520l147 -147l-90 -88l-149 147q-150 -121 -320 -121q-238 0 -419 218t-181 511zM248 696q0 -233 128 -410t310 -177q121 0 219 79l-155 154l90 90l153 -151q131 174 131 415q0 236 -129 414t-309 178 t-309 -178t-129 -414z" />
<glyph unicode="R" horiz-adv-x="1189" d="M162 0v1397h446q125 0 232.5 -42t182.5 -138.5t75 -231.5q0 -156 -91.5 -254t-234.5 -135l344 -596h-170l-332 575h-2h-297v-575h-153zM315 705h293q139 0 230.5 72.5t91.5 207.5t-91 209t-231 74h-293v-563z" />
<glyph unicode="S" horiz-adv-x="1130" d="M63 256l121 86q61 -102 157.5 -167.5t197.5 -65.5q184 0 271 58t87 181q0 121 -75 177.5t-253 103.5q-221 59 -336.5 155.5t-115.5 264.5q0 184 116.5 281t331.5 97q260 0 447 -239l-115 -96q-144 196 -330 196h-2q-158 0 -225.5 -57t-67.5 -182q0 -47 15.5 -85t33 -60.5 t58.5 -43t64.5 -30t81 -27t77.5 -23.5q209 -72 272 -108q178 -104 179 -324q0 -182 -137.5 -281.5t-376.5 -99.5q-135 0 -262 78t-214 211z" />
<glyph unicode="T" horiz-adv-x="1028" d="M39 1270v127h950v-127h-399v-1270h-152v1270h-399z" />
<glyph unicode="U" horiz-adv-x="1300" d="M150 580v817h163v-817q0 -209 82 -340t256 -131t256 131t82 340v817h162v-817q0 -293 -132 -453t-368 -160q-238 0 -369.5 160t-131.5 453z" />
<glyph unicode="V" horiz-adv-x="1173" d="M-2 1397h164l424 -1170l426 1170h164l-508 -1395l2 -2h-166v2z" />
<glyph unicode="W" horiz-adv-x="1742" d="M45 1397h158l295 -1102l295 1102h157l295 -1100l295 1100h158l-373 -1397h-160l-295 1102l-295 -1102h-157z" />
<glyph unicode="X" horiz-adv-x="1015" d="M43 0l379 715l-363 682h172l277 -523l278 523h172l-364 -682l381 -715h-172l-295 553l-293 -553h-172z" />
<glyph unicode="Y" horiz-adv-x="968" d="M0 1397h178l307 -512l308 512h178l-412 -686v-711h-151v717z" />
<glyph unicode="Z" horiz-adv-x="1030" d="M78 0v129l710 1141h-710v127h872v-154l-698 -1116h698v-127h-872z" />
<glyph unicode="[" horiz-adv-x="530" d="M137 -80v1557h352v-80h-198v-1397h198v-80h-352z" />
<glyph unicode="\" horiz-adv-x="772" d="M68 1397h127l507 -1397h-127z" />
<glyph unicode="]" horiz-adv-x="530" d="M41 0h201v1397h-201v80h352v-1557h-352v80z" />
<glyph unicode="^" horiz-adv-x="978" d="M92 473l377 502l375 -502l-117 -84l-260 350l-262 -350z" />
<glyph unicode="_" horiz-adv-x="937" d="M0 -55h938v-121h-938v121z" />
<glyph unicode="`" horiz-adv-x="794" d="M121 1401l69 119l443 -289l-41 -70z" />
<glyph unicode="a" d="M70 479q0 207 146 359.5t329 152.5q188 0 336 -160v127h139v-958h-139v125q-145 -158 -332 -158q-182 0 -330.5 152.5t-148.5 359.5zM209 479.5q0 -157.5 101.5 -271.5t234.5 -114t234.5 114t101.5 271.5t-101.5 271t-234.5 113.5t-234.5 -113.5t-101.5 -271z" />
<glyph unicode="b" d="M129 0v1487h139v-656q145 160 336 160q182 0 328.5 -152.5t146.5 -359.5t-145.5 -359.5t-325.5 -152.5q-190 0 -340 162v-129h-139zM268 479.5q0 -157.5 101.5 -271.5t234.5 -114t234.5 114t101.5 271.5t-101.5 271t-234.5 113.5t-234.5 -113.5t-101.5 -271z" />
<glyph unicode="c" horiz-adv-x="976" d="M70 479q0 207 146 359.5t329 152.5q100 0 196.5 -52t165.5 -140l-102 -80q-102 145 -260 145q-133 0 -234.5 -113.5t-101.5 -271t101.5 -271.5t234.5 -114q106 0 164.5 32t111.5 101l109 -75q-74 -92 -161 -138.5t-220 -46.5q-182 0 -330.5 152.5t-148.5 359.5z" />
<glyph unicode="d" d="M70 479q0 207 146 359.5t329 152.5q188 0 336 -160v656h139v-1487h-139v125q-145 -158 -332 -158q-182 0 -330.5 152.5t-148.5 359.5zM209 479.5q0 -157.5 101.5 -271.5t234.5 -114t234.5 114t101.5 271.5t-101.5 271t-234.5 113.5t-234.5 -113.5t-101.5 -271z" />
<glyph unicode="e" horiz-adv-x="1077" d="M70 479q0 207 146 359.5t328.5 152.5t329 -152.5t146.5 -359.5h-811q0 -158 101.5 -271.5t234.5 -113.5q147 0 213.5 41t120.5 133l110 -73q-76 -115 -172 -171.5t-268 -56.5q-182 0 -330.5 152.5t-148.5 359.5zM229 606h631q-35 113 -123 185.5t-192.5 72.5 t-192.5 -72.5t-123 -185.5z" />
<glyph unicode="f" horiz-adv-x="565" d="M57 831v127h123v259q0 127 88 215t215 88h58v-127h-58q-70 0 -117 -52.5t-47 -123.5v-259h222v-127h-222v-831h-139v831h-123z" />
<glyph unicode="g" d="M70 479q0 207 146 359.5t329 152.5q188 0 336 -160v127h139v-921q0 -223 -116 -335t-306 -112h-315v127h315q135 0 209 81t74 239v88q-145 -158 -332 -158q-182 0 -330.5 152.5t-148.5 359.5zM209 479.5q0 -157.5 101.5 -271.5t234.5 -114t234.5 114t101.5 271.5 t-101.5 271t-234.5 113.5t-234.5 -113.5t-101.5 -271z" />
<glyph unicode="h" horiz-adv-x="1095" d="M129 0v1487h139v-617q117 121 285 121q182 0 303 -103.5t121 -281.5v-606h-139v606q0 109 -78 183.5t-207 74.5t-207 -110.5t-78 -274.5v-479h-139z" />
<glyph unicode="i" horiz-adv-x="397" d="M88 1255.5q0 47.5 32 79t79 31.5t78.5 -31.5t31.5 -79t-31.5 -79t-78.5 -31.5t-79 31.5t-32 79zM129 0v958h139v-958h-139z" />
<glyph unicode="j" horiz-adv-x="397" d="M-92 -283h57q70 0 117 52.5t47 124.5v1064h139v-1064q0 -127 -89 -215.5t-214 -88.5h-57v127zM88 1255.5q0 47.5 32 79t79 31.5t78.5 -31.5t31.5 -79t-31.5 -79t-78.5 -31.5t-79 31.5t-32 79z" />
<glyph unicode="k" horiz-adv-x="892" d="M129 0v1487h139v-909l379 380h201l-369 -368l398 -590h-170l-328 489l-111 -108v-381h-139z" />
<glyph unicode="l" horiz-adv-x="417" d="M139 0v1487h140v-1487h-140z" />
<glyph unicode="m" horiz-adv-x="1576" d="M129 0v958h139v-71q98 104 226 104q96 0 181 -46t134 -130q106 176 278 176q150 0 259.5 -104.5t109.5 -280.5v-606h-137v606q0 106 -64.5 182t-167 76t-164 -110.5t-61.5 -274.5v-479h-137v606q0 106 -64.5 182t-167 76t-164 -110.5t-61.5 -274.5v-479h-139z" />
<glyph unicode="n" horiz-adv-x="1095" d="M129 0v958h139v-86q115 119 285 119q182 0 303 -103.5t121 -281.5v-606h-139v606q0 109 -78 183.5t-207 74.5t-207 -110.5t-78 -274.5v-479h-139z" />
<glyph unicode="o" horiz-adv-x="1089" d="M70 479q0 207 146 359.5t328.5 152.5t329 -152.5t146.5 -359.5t-145.5 -359.5t-325.5 -152.5q-182 0 -330.5 152.5t-148.5 359.5zM209 479.5q0 -157.5 101.5 -271.5t234.5 -114t234.5 114t101.5 271.5t-101.5 271t-234.5 113.5t-234.5 -113.5t-101.5 -271z" />
<glyph unicode="p" d="M129 -408v1366h139v-127q145 160 336 160q182 0 328.5 -152.5t146.5 -359.5t-145.5 -359.5t-325.5 -152.5q-190 0 -340 162v-537h-139zM268 479.5q0 -157.5 101.5 -271.5t234.5 -114t234.5 114t101.5 271.5t-101.5 271t-234.5 113.5t-234.5 -113.5t-101.5 -271z" />
<glyph unicode="q" d="M70 479q0 207 146 359.5t329 152.5q188 0 336 -160v127h139v-1368h-139v535q-145 -158 -332 -158q-182 0 -330.5 152.5t-148.5 359.5zM209 479.5q0 -157.5 101.5 -271.5t234.5 -114t234.5 114t101.5 271.5t-101.5 271t-234.5 113.5t-234.5 -113.5t-101.5 -271z" />
<glyph unicode="r" horiz-adv-x="890" d="M129 0v958h139v-75q108 108 261 108h3q268 0 363 -225l-127 -61q-66 159 -234 159h-2q-127 0 -195.5 -108.5t-68.5 -276.5v-479h-139z" />
<glyph unicode="s" horiz-adv-x="950" d="M61 195l125 61q31 -72 100.5 -116t166.5 -44q131 0 213 50.5t82 123.5q0 23 -8.5 41.5t-26 31.5t-32.5 22.5t-45 16.5t-46.5 11t-51 10.5t-46.5 8.5q-6 2 -44 9t-52.5 10t-52.5 12.5t-55.5 16.5t-49 20.5t-48 26.5t-39 32.5t-34 41t-19.5 49t-8 60.5q0 139 112.5 220 t293.5 81q266 0 360 -225l-125 -61q-66 159 -233 159h-2q-129 0 -197 -47t-68 -127q0 -23 8.5 -40t27 -30.5t33.5 -21.5t48 -16.5t49.5 -11.5t55.5 -9t51 -8q78 -14 132 -29.5t118.5 -46.5t98.5 -83t34 -124q0 -139 -125 -221t-309 -82q-135 0 -241 59.5t-151 168.5z" />
<glyph unicode="t" horiz-adv-x="565" d="M57 831v127h123v318h139v-318h222v-127h-222v-831h-139v831h-123z" />
<glyph unicode="u" horiz-adv-x="1095" d="M119 352v606h137v-606q0 -109 79 -183.5t208 -74.5t205.5 109.5t76.5 273.5v481h142v-958h-142v84q-119 -119 -282 -119q-182 0 -303 104.5t-121 282.5z" />
<glyph unicode="v" horiz-adv-x="933" d="M2 958h152l313 -778l313 778h152l-389 -958h-154z" />
<glyph unicode="w" horiz-adv-x="1472" d="M33 958h147l242 -749l242 749h143l242 -747l243 747h148l-312 -958h-155l-238 725l-235 -725h-156z" />
<glyph unicode="x" horiz-adv-x="849" d="M31 0l311 500l-287 458h164l205 -327l205 327h166l-287 -458l311 -500h-166l-229 367l-229 -367h-164z" />
<glyph unicode="y" horiz-adv-x="933" d="M2 958h152l313 -778l313 778h152l-555 -1368h-150l164 408z" />
<glyph unicode="z" horiz-adv-x="860" d="M76 0v127l540 704h-540v127h708v-127l-540 -704h540v-127h-708z" />
<glyph unicode="{" horiz-adv-x="507" d="M55 584v94q45 8 96.5 60.5t51.5 107.5q0 35 -24.5 142.5t-24.5 176.5q0 121 85 183.5t195 78.5l2 -94q-47 -10 -90 -53t-43 -113q0 -35 17.5 -142t17.5 -177q0 -143 -121 -217q119 -72 119 -217q0 -70 -17.5 -177.5t-17.5 -142.5q0 -70 43 -112.5t92 -53.5v-94 q-111 16 -196.5 78.5t-85.5 183.5q0 70 17 177.5t17 142.5q0 55 -45 107t-88 61z" />
<glyph unicode="|" horiz-adv-x="354" d="M135 -139v1675h84v-1675h-84z" />
<glyph unicode="}" horiz-adv-x="507" d="M72 -72q47 10 90 53.5t43 112.5q0 35 -17.5 142.5t-17.5 177.5q0 143 121 217q-119 72 -119 217q0 70 17.5 177.5t17.5 141.5q0 70 -43 113t-92 53v94q111 -16 196.5 -78.5t85.5 -183.5q0 -70 -17.5 -177t-17.5 -142q0 -55 45.5 -107.5t88.5 -60.5v-94 q-45 -8 -96.5 -60.5t-51.5 -107.5q0 -35 24.5 -142.5t24.5 -177.5q0 -121 -85 -183.5t-195 -78.5z" />
<glyph unicode="~" horiz-adv-x="1034" d="M106 522q10 92 92.5 179t170.5 87q68 0 175 -65.5t140 -65.5q57 0 108.5 44t59.5 87h94q-10 -92 -92 -179t-170 -87q-68 0 -175.5 64.5t-139.5 64.5q-57 0 -109.5 -43t-60.5 -86h-93z" />
<glyph unicode="&#xa2;" horiz-adv-x="1001" d="M68 682q0 188 123.5 334.5t289.5 173.5v207h84v-203q94 -6 184.5 -58.5t155.5 -136.5l-102 -79q-96 135 -238 147v-770q96 2 149.5 35t104.5 98l109 -76q-72 -90 -155 -136t-208 -48v-170h-84v176q-166 29 -289.5 174.5t-123.5 331.5zM207 682q0 -139 79.5 -245.5 t194.5 -133.5v758q-115 -27 -194.5 -133.5t-79.5 -245.5z" />
<glyph unicode="&#xa3;" horiz-adv-x="962" d="M109 0v127q6 8 18 24.5t43 72t53.5 113.5t42 147t19.5 180h-162v112h137q-12 35 -47 112t-54.5 135t-19.5 105q0 160 99.5 229.5t257.5 69.5q143 0 249.5 -88t106.5 -211h-152q0 76 -62.5 125.5t-142 49.5t-142 -48.5t-62.5 -126.5q0 -51 57.5 -169.5t73.5 -182.5h178 v-112h-164q0 -131 -44 -265.5t-87 -201.5l-43 -70h629v-127h-782z" />
<glyph unicode="&#xa5;" horiz-adv-x="1073" d="M51 1397h178l308 -512l307 512h178l-412 -686v-60h181v-98h-181v-100h181v-101h-181v-352h-151v352h-180v101h180v100h-180v98h180v66z" />
<glyph unicode="&#xa8;" horiz-adv-x="905" d="M119 1255.5q0 47.5 32.5 79t77.5 31.5q47 0 80 -33t33 -78t-33 -77.5t-80 -32.5q-45 0 -77.5 31.5t-32.5 79zM518 1255.5q0 47.5 32 79t79 31.5t79.5 -33t32.5 -78t-32.5 -77.5t-79.5 -32.5t-79 31.5t-32 79z" />
<glyph unicode="&#xa9;" horiz-adv-x="1439" d="M92 586q0 262 184.5 445t442.5 183q262 0 445.5 -185t183.5 -443q0 -262 -185.5 -445.5t-443.5 -183.5q-260 0 -443.5 185.5t-183.5 443.5zM186 586q0 -223 157 -378t376 -155q223 0 377.5 157t154.5 376q0 223 -156.5 377.5t-375.5 154.5q-223 0 -378 -156.5 t-155 -375.5zM401 580q0 145 100.5 247.5t225.5 102.5q152 0 256 -139l-86 -66l-6 6q-68 94 -164 94q-86 0 -149.5 -73.5t-63.5 -171.5q0 -102 64.5 -175t148.5 -73q74 0 109.5 22.5t72.5 71.5l88 -61q-100 -135 -268 -136q-127 0 -227.5 104.5t-100.5 246.5z" />
<glyph unicode="&#xab;" horiz-adv-x="1161" d="M45 487l498 377l84 -114l-353 -263l353 -264l-84 -110zM485 487l498 377l84 -114l-352 -263l352 -264l-84 -110z" />
<glyph unicode="&#xad;" horiz-adv-x="681" d="M115 436v113h452v-113h-452z" />
<glyph unicode="&#xae;" horiz-adv-x="1439" d="M92 586q0 262 184.5 445t442.5 183q262 0 445.5 -185t183.5 -443q0 -262 -185.5 -445.5t-443.5 -183.5q-260 0 -443.5 185.5t-183.5 443.5zM186 586q0 -223 157 -378t376 -155q223 0 377.5 157t154.5 376q0 223 -156.5 377.5t-375.5 154.5q-223 0 -378 -156.5 t-155 -375.5zM483 240v680h265q86 0 150.5 -56.5t64.5 -146.5q0 -121 -107 -178l178 -299h-131l-164 272h-143v-272h-113zM596 616h113q78 0 110.5 30t32.5 71q0 43 -35 71.5t-108 28.5h-113v-201z" />
<glyph unicode="&#xb4;" horiz-adv-x="794" d="M119 1231l442 289l70 -119l-471 -240z" />
<glyph unicode="&#xb8;" horiz-adv-x="706" d="M119 -354q102 0 194.5 23.5t92.5 62.5q0 20 -14.5 31.5t-63.5 18.5t-144 7l99 211h104l-68 -139q111 0 165.5 -37t54.5 -80q0 -154 -420 -154v56z" />
<glyph unicode="&#xbb;" horiz-adv-x="1163" d="M96 225l350 262l-350 265l84 112l498 -377l-498 -374zM537 225l350 262l-350 265l84 112l497 -377l-497 -374z" />
<glyph unicode="&#x2c6;" horiz-adv-x="839" d="M121 1231l276 254l279 -254l-39 -70l-240 158l-237 -158z" />
<glyph unicode="&#x2da;" horiz-adv-x="694" d="M119 1350q0 84 59.5 144t143.5 60t144 -60t60 -144t-60 -143.5t-144 -59.5t-143.5 59.5t-59.5 143.5zM221 1350q0 -41 30 -72t70.5 -31t71.5 31t31 72t-31 71.5t-71.5 30.5t-70.5 -30.5t-30 -71.5z" />
<glyph unicode="&#x2dc;" horiz-adv-x="987" d="M121 1161q12 96 78.5 181t152.5 85q53 0 96.5 -31.5t78 -64.5t65.5 -33q55 0 92 41t45 88h94q-12 -96 -78.5 -181t-152.5 -85q-53 0 -96 33t-78 65.5t-66 32.5q-55 0 -93 -42t-46 -89h-92z" />
<glyph unicode="&#x401;" horiz-adv-x="1030" d="M162 0v1397h782v-129h-629v-447h492v-125h-492v-569h635v-127h-788zM275 1579.5q0 47.5 32.5 79t77.5 31.5q47 0 80 -33t33 -78t-33 -77.5t-80 -32.5q-45 0 -77.5 31.5t-32.5 79zM674 1579.5q0 47.5 32 79t79 31.5t79.5 -33t32.5 -78t-32.5 -77.5t-79.5 -32.5t-79 31.5 t-32 79z" />
<glyph unicode="&#x404;" horiz-adv-x="1173" d="M90 696q0 297 165 514t398 217q254 0 441 -286l-121 -86q-141 233 -320 233q-166 0 -277.5 -153.5t-127.5 -372.5h540v-127h-540q16 -221 127.5 -373.5t277.5 -152.5q193 0 332 258l133 -72q-190 -328 -465 -328q-233 0 -398 216t-165 513z" />
<glyph unicode="&#x406;" horiz-adv-x="518" d="M109 0v135h73v1127h-73v135h301v-135h-74v-1127h74v-135h-301z" />
<glyph unicode="&#x407;" horiz-adv-x="518" d="M-49 1579.5q0 47.5 32.5 79t77.5 31.5q47 0 80 -33t33 -78t-33 -77.5t-80 -32.5q-45 0 -77.5 31.5t-32.5 79zM109 0v135h73v1127h-73v135h301v-135h-74v-1127h74v-135h-301zM350 1579.5q0 47.5 32 79t79 31.5t79.5 -33t32.5 -78t-32.5 -77.5t-79.5 -32.5t-79 31.5t-32 79 z" />
<glyph unicode="&#x410;" horiz-adv-x="1179" d="M2 0l506 1393v4h166l-2 -4l508 -1393h-164l-144 391h-565l-141 -391h-164zM354 518h473l-237 649z" />
<glyph unicode="&#x411;" horiz-adv-x="1163" d="M162 0v1397h823v-129h-670v-449h293q125 0 232.5 -42t182.5 -137t75 -230.5t-74 -230.5t-180.5 -137t-231.5 -42h-450zM315 127h293q139 0 230.5 73.5t91.5 209t-91 209t-231 73.5h-293v-565z" />
<glyph unicode="&#x412;" horiz-adv-x="1177" d="M162 0v1397h413q180 0 304.5 -98.5t124.5 -251.5q0 -174 -154 -275q248 -106 248 -362q0 -135 -74 -230.5t-180.5 -137.5t-231.5 -42h-450zM315 127h293q139 0 230.5 73.5t91.5 209t-91 209t-231 73.5h-293v-565zM315 821h260q123 0 192 67.5t69 158t-68 156t-193 65.5 h-260v-447z" />
<glyph unicode="&#x413;" horiz-adv-x="954" d="M162 0v1397h782v-129h-629v-1268h-153z" />
<glyph unicode="&#x414;" horiz-adv-x="1304" d="M16 127h134q92 221 157.5 561t65.5 709h747v-1270h78v-295h-154v168h-77h-797v-168h-154v295zM319 127h648v1143h-441q0 -619 -207 -1143z" />
<glyph unicode="&#x415;" horiz-adv-x="1030" d="M162 0v1397h782v-129h-629v-447h492v-125h-492v-569h635v-127h-788z" />
<glyph unicode="&#x416;" horiz-adv-x="1785" d="M45 0q0 150 148.5 371t353.5 391q-55 57 -115.5 151.5t-99.5 162t-103.5 118.5t-142.5 51q0 33 2 77t2 75q117 0 202 -57.5t138 -142.5t102.5 -172t121 -158.5t163.5 -92.5v623h154v-623q92 20 163.5 92t121 159t102.5 172t138 142.5t202 57.5q0 -31 2 -75t2 -77 q-78 0 -142.5 -51t-103.5 -118.5t-99.5 -162t-115.5 -151.5q205 -170 353.5 -391t148.5 -371h-187q0 133 -111.5 316.5t-330.5 351.5q-68 -35 -143 -45v-623h-154v623q-76 10 -143 45q-219 -168 -331 -351.5t-112 -316.5h-186z" />
<glyph unicode="&#x417;" horiz-adv-x="1050" d="M20 162l109 86q100 -141 350 -142q139 0 234.5 81t95.5 194q0 127 -99.5 208t-275.5 81v137q172 0 250 67.5t78 172.5q0 98 -70.5 170.5t-181.5 72.5q-82 0 -169 -24.5t-136 -81.5l-103 96q70 76 185.5 111.5t222.5 35.5q176 0 290.5 -95t114.5 -285q1 -199 -159 -299 q207 -94 207 -334q0 -213 -134.5 -330t-349.5 -117q-174 0 -278.5 49.5t-180.5 145.5z" />
<glyph unicode="&#x418;" horiz-adv-x="1288" d="M162 0v1397h151v-1145l660 1145h153v-1397h-153v1141l-660 -1141h-151z" />
<glyph unicode="&#x419;" horiz-adv-x="1288" d="M162 0v1397h151v-1145l660 1145h153v-1397h-153v1141l-660 -1141h-151zM350 1606q0 41 43 90h80q-12 -33 -12 -56q0 -76 168 -75h53q168 0 168 75q0 23 -12 56h80q43 -49 43 -90q0 -59 -78 -96t-201 -37h-53q-123 0 -201 36.5t-78 96.5z" />
<glyph unicode="&#x41a;" horiz-adv-x="1130" d="M162 0v1397h153v-623q92 20 164 92t121 159t102.5 172t138.5 142.5t201 57.5q0 -31 2.5 -75t2.5 -77q-78 0 -142.5 -51t-103.5 -118.5t-99.5 -162t-115.5 -151.5q205 -170 353 -391t148 -371h-186q0 133 -111.5 316.5t-330.5 351.5q-68 -35 -144 -45v-623h-153z" />
<glyph unicode="&#x41b;" horiz-adv-x="1308" d="M0 0v127h125q70 0 117 52t47 124v1094h858v-1397h-154v1270h-551v-967q0 -127 -88 -215t-215 -88h-139z" />
<glyph unicode="&#x41c;" horiz-adv-x="1624" d="M162 0v1397h166l485 -1194l483 1194h166v-1397h-151v1030l-416 -1030h-164l-416 1028v-1028h-153z" />
<glyph unicode="&#x41d;" horiz-adv-x="1245" d="M162 0v1397h153v-604h615v604h153v-1397h-153v666h-615v-666h-153z" />
<glyph unicode="&#x41e;" horiz-adv-x="1372" d="M86 696q0 293 181.5 512t419 219t418.5 -219t181 -512t-181 -511t-418.5 -218t-419 218t-181.5 511zM248 696q0 -233 128 -410t310 -177t310 177t128 410q0 236 -129 414t-309 178t-309 -178t-129 -414z" />
<glyph unicode="&#x41f;" horiz-adv-x="1245" d="M162 0v1397h153h615h153v-1397h-153v1270h-615v-1270h-153z" />
<glyph unicode="&#x420;" horiz-adv-x="1140" d="M162 0v1397h446q125 0 232.5 -42t182.5 -138.5t75 -231.5t-74 -230.5t-180.5 -137.5t-231.5 -42h-297v-575h-153zM315 705h293q139 0 230.5 72.5t91.5 207.5t-91 209t-231 74h-293v-563z" />
<glyph unicode="&#x421;" horiz-adv-x="1173" d="M90 696q0 297 165 514t398 217q254 0 441 -286l-121 -86q-141 233 -319.5 233t-293 -176t-114.5 -415.5t114.5 -413.5t292.5 -174q193 0 332 258l133 -72q-190 -328 -465 -328q-233 0 -398 216t-165 513z" />
<glyph unicode="&#x422;" horiz-adv-x="1028" d="M39 1270v127h950v-127h-399v-1270h-152v1270h-399z" />
<glyph unicode="&#x423;" horiz-adv-x="915" d="M37 1397h166l295 -735l254 735h161l-372 -1086q-106 -311 -435 -311v127q205 0 275 199l41 116z" />
<glyph unicode="&#x424;" horiz-adv-x="1306" d="M53 696q0 203 156 360.5t371 184.5v156h153v-158q213 -29 366.5 -185.5t153.5 -357t-153.5 -356t-366.5 -184.5v-156h-153v154q-215 27 -371 184.5t-156 357.5zM215 696.5q0 -145.5 106.5 -259t258.5 -140.5v803q-150 -27 -257.5 -142.5t-107.5 -261zM733 299 q150 29 254.5 141.5t104.5 256t-104.5 258t-254.5 143.5v-799z" />
<glyph unicode="&#x425;" horiz-adv-x="1015" d="M43 0l379 715l-363 682h172l277 -523l278 523h172l-364 -682l381 -715h-172l-295 553l-293 -553h-172z" />
<glyph unicode="&#x426;" horiz-adv-x="1390" d="M162 0v1397h153v-1270h697v1270h153v-1270h146v-295h-154v168h-995z" />
<glyph unicode="&#x427;" horiz-adv-x="1198" d="M66 1073v324h153v-324q0 -168 89 -287.5t243 -119.5t242 118.5t88 288.5v324h155v-1397h-155v668q-131 -131 -330 -131q-217 0 -351 153.5t-134 382.5z" />
<glyph unicode="&#x428;" horiz-adv-x="1808" d="M162 0v1397h153v-1270h512v1270h154v-1270h512v1270h154v-1397h-1485z" />
<glyph unicode="&#x429;" horiz-adv-x="1873" d="M162 0v1397h153v-1270h512v1270h154v-1270h512v1270h154v-1270h147v-295h-154v168h-1478z" />
<glyph unicode="&#x42a;" horiz-adv-x="1286" d="M18 1268v129h443v-578h293q125 0 232.5 -42t182 -137t74.5 -230.5t-73.5 -230.5t-180 -137t-231.5 -42h-451v1268h-289zM461 127h293q139 0 230 73.5t91 209t-91 209t-230 73.5h-293v-565z" />
<glyph unicode="&#x42b;" horiz-adv-x="1603" d="M162 0v1397h153v-578h293q125 0 232.5 -42t182.5 -137t75 -230.5t-74 -230.5t-180.5 -137t-231.5 -42h-450zM315 127h293q139 0 230.5 73.5t91.5 209t-91 209t-231 73.5h-293v-565zM1194 0v135h74v1127h-74v135h301v-135h-74v-1127h74v-135h-301z" />
<glyph unicode="&#x42c;" horiz-adv-x="1140" d="M162 0v1397h153v-578h293q125 0 232.5 -42t182.5 -137t75 -230.5t-74 -230.5t-180.5 -137t-231.5 -42h-450zM315 127h293q139 0 230.5 73.5t91.5 209t-91 209t-231 73.5h-293v-565z" />
<glyph unicode="&#x42d;" horiz-adv-x="1173" d="M55 295l133 72q139 -258 332 -258q166 0 277.5 152.5t128.5 373.5h-543v127h543q-16 219 -128 372.5t-278 153.5q-178 0 -319 -233l-121 86q186 287 440 286q233 0 398 -217t165 -514t-164.5 -513t-398.5 -216q-275 0 -465 328z" />
<glyph unicode="&#x42e;" horiz-adv-x="1824" d="M162 0v1397h153v-635h226q20 272 198.5 468.5t399.5 196.5q238 0 419 -219t181 -512t-181.5 -511t-418.5 -218q-223 0 -400.5 196.5t-197.5 471.5h-226v-635h-153zM700 696q0 -233 128 -410t310.5 -177t310.5 177t128 410q0 236 -129 414t-309.5 178t-309.5 -178 t-129 -414z" />
<glyph unicode="&#x42f;" horiz-adv-x="1150" d="M53 0v127q43 0 74 16.5t53.5 53t36.5 71.5t35 94q6 20 10 31q47 133 166 213q-131 43 -211 138.5t-80 240.5q0 135 75 231.5t182.5 138.5t232.5 42h362v-1397h-153v575h-54q-115 0 -220 -48t-140 -148q-68 -199 -142.5 -289t-226.5 -90zM305 985q0 -135 91 -207.5 t231 -72.5h209v563h-209q-139 0 -230.5 -74t-91.5 -209z" />
<glyph unicode="&#x430;" d="M70 479q0 207 146 359.5t329 152.5q188 0 336 -160v127h139v-958h-139v125q-145 -158 -332 -158q-182 0 -330.5 152.5t-148.5 359.5zM209 479.5q0 -157.5 101.5 -271.5t234.5 -114t234.5 114t101.5 271.5t-101.5 271t-234.5 113.5t-234.5 -113.5t-101.5 -271z" />
<glyph unicode="&#x431;" horiz-adv-x="1067" d="M106 479q0 166 12.5 296t47.5 250t90 199t146.5 126t213.5 47q143 0 144 90h139q0 -92 -70.5 -148.5t-212.5 -56.5q-268 0 -342 -405q125 115 277 114q178 0 311 -150.5t133 -361.5t-131 -361.5t-309 -150.5t-313.5 151.5t-135.5 360.5zM246 479q0 -162 87 -273.5 t218 -111.5t218 111.5t87 273.5t-87 273.5t-218 111.5t-218 -111.5t-87 -273.5z" />
<glyph unicode="&#x432;" horiz-adv-x="956" d="M129 0v958h274q221 0 313.5 -59t92.5 -192q0 -111 -78 -172q156 -70 156 -236q0 -152 -118 -225.5t-320 -73.5h-320zM268 127h176q287 0 287 172q0 90 -70.5 123t-216.5 33h-176v-328zM268 582h129q150 0 203 24.5t53 100.5q0 78 -50 101t-200 23h-135v-249z" />
<glyph unicode="&#x433;" horiz-adv-x="749" d="M129 0v958h619v-127h-480v-831h-139z" />
<glyph unicode="&#x434;" horiz-adv-x="1157" d="M8 127h146q98 170 154.5 359.5t56.5 471.5h598v-831h157v-295h-153v168h-4h-140h-661v-168h-154v295zM319 127h504v704h-319q-1 -399 -185 -704z" />
<glyph unicode="&#x435;" horiz-adv-x="1077" d="M70 479q0 207 146 359.5t328.5 152.5t329 -152.5t146.5 -359.5h-811q0 -158 101.5 -271.5t234.5 -113.5q147 0 213.5 41t120.5 133l110 -73q-76 -115 -172 -171.5t-268 -56.5q-182 0 -330.5 152.5t-148.5 359.5zM229 606h631q-35 113 -123 185.5t-192.5 72.5 t-192.5 -72.5t-123 -185.5z" />
<glyph unicode="&#x436;" horiz-adv-x="1486" d="M51 0q0 102 95.5 249.5t269.5 244.5q-35 39 -73 102t-62.5 104t-71.5 74t-113 33q0 33 1 77t1 74q109 0 178.5 -40.5t105.5 -100t67.5 -122t86 -113t136.5 -62.5v438h143v-438q82 12 136.5 62.5t86 113t67.5 122t105.5 100t178.5 40.5q0 -31 1 -74.5t1 -76.5 q-66 0 -113 -33t-71.5 -74t-62.5 -104.5t-73 -101.5q174 -96 269.5 -244t95.5 -250h-166q0 29 -13.5 71t-45 102t-101.5 121.5t-166 106.5q-66 -27 -129 -30v-371h-143v371q-63 4 -129 30q-96 -45 -166 -106.5t-101.5 -121.5t-45 -102t-13.5 -71h-166z" />
<glyph unicode="&#x437;" horiz-adv-x="866" d="M39 152l90 90q135 -135 299 -136q88 0 152.5 48.5t64.5 119.5q0 181 -287 181v127q209 16 209 125q0 78 -39 111.5t-120 33.5q-92 0 -218 -152l-96 82q6 8 32 39t36 41t33.5 35t42 35t45 23.5t58.5 18.5t67 5q141 0 228 -72.5t87 -199.5q0 -106 -111 -175 q188 -82 189 -258q0 -135 -113 -214.5t-256 -79.5q-104 0 -187 30.5t-117 58t-89 83.5z" />
<glyph unicode="&#x438;" horiz-adv-x="1085" d="M129 0v958h139v-800l516 800h172v-958h-139v791l-510 -791h-178z" />
<glyph unicode="&#x439;" horiz-adv-x="1085" d="M129 0v958h139v-800l516 800h172v-958h-139v791l-510 -791h-178zM236 1294q0 41 43 90h79q-12 -33 -12 -55q0 -76 168 -76h53q168 0 168 76q0 23 -12 55h80q43 -49 43 -90q0 -59 -78 -96t-201 -37h-53q-123 0 -200.5 37t-77.5 96z" />
<glyph unicode="&#x43a;" horiz-adv-x="942" d="M129 0v958h139v-438q72 10 122 48t76 86t57.5 102.5t64.5 98.5t98.5 73.5t157.5 29.5q0 -31 1 -74.5t1 -76.5q-66 0 -113 -33t-71.5 -74t-62.5 -104.5t-73 -101.5q174 -96 269.5 -244t95.5 -250h-166q0 29 -13.5 71t-45 102t-101 121.5t-166.5 106.5q-66 -25 -131 -30 v-371h-139z" />
<glyph unicode="&#x43b;" horiz-adv-x="1052" d="M10 0v127h125q70 0 117 52t47 124v655h625v-958h-140v831h-346v-528q0 -127 -82 -215t-206 -88h-140z" />
<glyph unicode="&#x43c;" horiz-adv-x="1255" d="M92 0l101 958h159l275 -755l274 755h162l100 -958h-139l-72 688l-252 -688h-147l-250 688l-72 -688h-139z" />
<glyph unicode="&#x43d;" horiz-adv-x="1085" d="M129 0v958h139v-397h549v397h139v-958h-139v434h-549v-434h-139z" />
<glyph unicode="&#x43e;" horiz-adv-x="1089" d="M70 479q0 207 146 359.5t328.5 152.5t329 -152.5t146.5 -359.5t-145.5 -359.5t-325.5 -152.5q-182 0 -330.5 152.5t-148.5 359.5zM209 479.5q0 -157.5 101.5 -271.5t234.5 -114t234.5 114t101.5 271.5t-101.5 271t-234.5 113.5t-234.5 -113.5t-101.5 -271z" />
<glyph unicode="&#x43f;" horiz-adv-x="1085" d="M129 0v958h827v-958h-139v831h-549v-831h-139z" />
<glyph unicode="&#x440;" d="M129 -408v1366h139v-127q145 160 336 160q182 0 328.5 -152.5t146.5 -359.5t-145.5 -359.5t-325.5 -152.5q-190 0 -340 162v-537h-139zM268 479.5q0 -157.5 101.5 -271.5t234.5 -114t234.5 114t101.5 271.5t-101.5 271t-234.5 113.5t-234.5 -113.5t-101.5 -271z" />
<glyph unicode="&#x441;" horiz-adv-x="976" d="M70 479q0 207 146 359.5t329 152.5q100 0 196.5 -52t165.5 -140l-102 -80q-102 145 -260 145q-133 0 -234.5 -113.5t-101.5 -271t101.5 -271.5t234.5 -114q106 0 164.5 32t111.5 101l109 -75q-74 -92 -161 -138.5t-220 -46.5q-182 0 -330.5 152.5t-148.5 359.5z" />
<glyph unicode="&#x442;" horiz-adv-x="933" d="M27 831v127h880v-127h-370v-831h-140v831h-370z" />
<glyph unicode="&#x443;" horiz-adv-x="933" d="M2 958h152l313 -778l313 778h152l-555 -1368h-150l164 408z" />
<glyph unicode="&#x444;" horiz-adv-x="1671" d="M70 479q0 209 137 360.5t317 151.5q142 0 242 -76v246h139v-246q100 76 242 76q180 0 317.5 -151.5t137.5 -360.5q0 -207 -148.5 -359.5t-331.5 -152.5q-113 0 -217 64v-441h-139v441q-104 -63 -217 -64q-182 0 -330.5 152.5t-148.5 359.5zM209 479q0 -158 101.5 -271.5 t234.5 -113.5q121 1 221 101v544q-92 125 -242 125q-131 0 -223 -112.5t-92 -272.5zM905 195q100 -100 221 -101q133 0 234.5 114t101.5 271q0 160 -92 272.5t-223 112.5q-150 0 -242 -125v-544z" />
<glyph unicode="&#x445;" horiz-adv-x="849" d="M31 0l311 500l-287 458h164l205 -327l205 327h166l-287 -458l311 -500h-166l-229 367l-229 -367h-164z" />
<glyph unicode="&#x446;" horiz-adv-x="1130" d="M129 0v958h139v-831h549v831h139v-831h117v-295h-139v168h-805z" />
<glyph unicode="&#x447;" horiz-adv-x="970" d="M55 711v247h138v-247q0 -113 65.5 -185.5t190 -72.5t188 106.5t63.5 276.5v122h142v-958h-142v424q-100 -100 -251 -100q-180 0 -287 102.5t-107 284.5z" />
<glyph unicode="&#x448;" horiz-adv-x="1413" d="M129 0v958h139v-831h369v831h139v-831h369v831h139v-958h-1155z" />
<glyph unicode="&#x449;" horiz-adv-x="1458" d="M129 0v958h139v-831h369v831h139v-831h369v831h139v-831h117v-295h-139v168h-486h-647z" />
<glyph unicode="&#x44a;" horiz-adv-x="1071" d="M18 831v127h392v-323h176q201 0 321.5 -82t120.5 -235.5t-118.5 -235.5t-319.5 -82h-320v831h-252zM410 127h176q135 0 210.5 48t75.5 142.5t-75.5 142.5t-210.5 48h-176v-381z" />
<glyph unicode="&#x44b;" horiz-adv-x="1286" d="M129 0v958h139v-323h176q201 0 322 -82t121 -235.5t-119 -235.5t-319 -82h-320zM268 127h176q135 0 211 48t76 142.5t-75.5 142.5t-211.5 48h-176v-381zM1018 0v958h139v-958h-139z" />
<glyph unicode="&#x44c;" horiz-adv-x="929" d="M129 0v958h139v-323h176q201 0 322 -82t121 -235.5t-119 -235.5t-319 -82h-320zM268 127h176q135 0 211 48t76 142.5t-75.5 142.5t-211.5 48h-176v-381z" />
<glyph unicode="&#x44d;" horiz-adv-x="968" d="M39 152l108 75q53 -70 111.5 -101.5t165.5 -31.5q123 0 221 98.5t113 241.5h-492v127h486q-27 131 -120 217t-208 86q-158 0 -260 -145l-103 80q70 88 166.5 140t196.5 52q182 0 328.5 -152.5t146.5 -359.5t-148.5 -359.5t-330.5 -152.5q-133 0 -220 46.5t-161 138.5z " />
<glyph unicode="&#x44e;" horiz-adv-x="1476" d="M129 0v958h139v-397h195q31 180 169 305t300 125q182 0 328.5 -152.5t146.5 -359.5t-145.5 -359.5t-325.5 -152.5q-170 0 -314.5 137.5t-162.5 329.5h-191v-434h-139zM596 479.5q0 -157.5 101.5 -271.5t234.5 -114t234.5 114t101.5 271.5t-101.5 271t-234.5 113.5 t-234.5 -113.5t-101.5 -271z" />
<glyph unicode="&#x44f;" horiz-adv-x="964" d="M78 641q0 154 118.5 235.5t319.5 81.5h320v-958h-140v324h-176h-41l-227 -324h-170l244 348q-248 70 -248 293zM233 641q0 -94 76 -142t211 -48h176v380h-176q-135 0 -211 -48t-76 -142z" />
<glyph unicode="&#x451;" horiz-adv-x="1077" d="M70 479q0 207 146 359.5t328.5 152.5t329 -152.5t146.5 -359.5h-811q0 -158 101.5 -271.5t234.5 -113.5q147 0 213.5 41t120.5 133l110 -73q-76 -115 -172 -171.5t-268 -56.5q-182 0 -330.5 152.5t-148.5 359.5zM229 606h631q-35 113 -123 185.5t-192.5 72.5 t-192.5 -72.5t-123 -185.5zM234 1255.5q0 47.5 31.5 79t78.5 31.5t80 -33t33 -78t-33 -77.5t-80 -32.5t-78.5 31.5t-31.5 79zM633 1255.5q0 47.5 33 79t78 31.5q47 0 79.5 -33t32.5 -78t-32.5 -77.5t-79.5 -32.5q-45 0 -78 31.5t-33 79z" />
<glyph unicode="&#x454;" horiz-adv-x="968" d="M70 479q0 207 146 359.5t329 152.5q100 0 196.5 -52t165.5 -140l-102 -80q-102 145 -260 145q-115 0 -208 -86t-120 -217h477v-127h-483q14 -143 112.5 -241.5t221.5 -98.5q106 0 164.5 32t111.5 101l109 -75q-74 -92 -161 -138.5t-220 -46.5q-182 0 -330.5 152.5 t-148.5 359.5z" />
<glyph unicode="&#x456;" horiz-adv-x="397" d="M88 1255.5q0 47.5 32 79t79 31.5t78.5 -31.5t31.5 -79t-31.5 -79t-78.5 -31.5t-79 31.5t-32 79zM129 0v958h139v-958h-139z" />
<glyph unicode="&#x457;" horiz-adv-x="397" d="M-112 1255.5q0 47.5 31.5 79t78.5 31.5t80 -33t33 -78t-33 -77.5t-80 -32.5t-78.5 31.5t-31.5 79zM129 0v958h139v-958h-139zM287 1255.5q0 47.5 33 79t78 31.5q47 0 79.5 -33t32.5 -78t-32.5 -77.5t-79.5 -32.5q-45 0 -78 31.5t-33 79z" />
<glyph unicode="&#x490;" horiz-adv-x="952" d="M162 0v1397h629v166h153v-295h-629v-1268h-153z" />
<glyph unicode="&#x491;" horiz-adv-x="749" d="M129 0v958h465v168h154v-295h-480v-831h-139z" />
<glyph unicode="&#x2000;" horiz-adv-x="848" />
<glyph unicode="&#x2001;" horiz-adv-x="1696" />
<glyph unicode="&#x2002;" horiz-adv-x="848" />
<glyph unicode="&#x2003;" horiz-adv-x="1696" />
<glyph unicode="&#x2004;" horiz-adv-x="565" />
<glyph unicode="&#x2005;" horiz-adv-x="424" />
<glyph unicode="&#x2006;" horiz-adv-x="282" />
<glyph unicode="&#x2007;" horiz-adv-x="282" />
<glyph unicode="&#x2008;" horiz-adv-x="212" />
<glyph unicode="&#x2009;" horiz-adv-x="339" />
<glyph unicode="&#x200a;" horiz-adv-x="94" />
<glyph unicode="&#x2010;" horiz-adv-x="681" d="M115 436v113h452v-113h-452z" />
<glyph unicode="&#x2011;" horiz-adv-x="681" d="M115 436v113h452v-113h-452z" />
<glyph unicode="&#x2012;" horiz-adv-x="681" d="M115 436v113h452v-113h-452z" />
<glyph unicode="&#x2013;" horiz-adv-x="1081" d="M115 436v113h852v-113h-852z" />
<glyph unicode="&#x2014;" horiz-adv-x="1480" d="M115 436v113h1251v-113h-1251z" />
<glyph unicode="&#x2018;" horiz-adv-x="387" d="M86 1255q0 70 19.5 131.5t47 98.5t54 64.5t47.5 39.5l18 10l33 -20q-78 -78 -108 -211h2q45 0 76.5 -32.5t31.5 -80t-30.5 -78t-77.5 -30.5t-80 31.5t-33 76.5z" />
<glyph unicode="&#x2019;" horiz-adv-x="344" d="M80 1485q0 47 31.5 78.5t79 31.5t79 -31.5t31.5 -78.5q0 -70 -19.5 -131.5t-46 -98t-53 -64.5t-47.5 -40l-18 -10l-35 20q78 78 108 211q-45 0 -77.5 33t-32.5 80z" />
<glyph unicode="&#x201a;" horiz-adv-x="419" d="M98 96q0 47 33 79t78 32t77.5 -32t32.5 -79q0 -70 -19 -131t-46 -98t-53.5 -64.5t-44.5 -40.5l-21 -10l-35 21q78 78 109 211q-45 0 -78 32.5t-33 79.5z" />
<glyph unicode="&#x201c;" horiz-adv-x="786" d="M86 1255q0 70 19.5 131.5t47 98.5t54 64.5t47.5 39.5l18 10l33 -20q-78 -78 -108 -211h2q45 0 76.5 -32.5t31.5 -80t-30.5 -78t-77.5 -30.5t-80 31.5t-33 76.5zM485 1255q0 70 19.5 131.5t46.5 98.5t54.5 64.5t45.5 39.5l21 10l33 -20q-78 -78 -109 -211h2q45 0 77 -32.5 t32 -80t-32 -78t-77 -30.5q-47 0 -80 31.5t-33 76.5z" />
<glyph unicode="&#x201d;" horiz-adv-x="743" d="M80 1485q0 47 31.5 78.5t79 31.5t79 -31.5t31.5 -78.5q0 -70 -19.5 -131.5t-46 -98t-53 -64.5t-47.5 -40l-18 -10l-35 20q78 78 108 211q-45 0 -77.5 33t-32.5 80zM479 1485q0 47 33 78.5t78 31.5t77.5 -31.5t32.5 -78.5q0 -70 -19 -131.5t-46 -98t-53.5 -64.5t-44.5 -40 l-21 -10l-35 20q78 78 109 211q-45 0 -78 33t-33 80z" />
<glyph unicode="&#x201e;" horiz-adv-x="819" d="M98 96q0 47 33 79t78 32t77.5 -32t32.5 -79q0 -70 -19 -131t-46 -98t-53.5 -64.5t-44.5 -40.5l-21 -10l-35 21q78 78 109 211q-45 0 -78 32.5t-33 79.5zM498 96q0 47 31.5 79t78.5 32t79 -32t32 -79q0 -70 -19.5 -131t-46 -98t-53.5 -64.5t-47 -40.5l-18 -10l-35 21 q78 78 108 211q-45 0 -77.5 32.5t-32.5 79.5z" />
<glyph unicode="&#x2026;" horiz-adv-x="1218" d="M98 96q0 47 33 79t78 32t77.5 -32t32.5 -79t-32.5 -79.5t-77.5 -32.5t-78 32.5t-33 79.5zM498 96q0 47 31.5 79t78.5 32t79 -32t32 -79t-33 -79.5t-78 -32.5t-77.5 32.5t-32.5 79.5zM899 96q0 47 32 79t79 32t78.5 -32t31.5 -79t-32.5 -79.5t-77.5 -32.5t-78 32.5 t-33 79.5z" />
<glyph unicode="&#x202f;" horiz-adv-x="339" />
<glyph unicode="&#x2039;" horiz-adv-x="720" d="M45 487l498 377l84 -114l-353 -263l353 -264l-84 -110z" />
<glyph unicode="&#x203a;" horiz-adv-x="722" d="M96 225l350 262l-350 265l84 112l498 -377l-498 -374z" />
<glyph unicode="&#x205f;" horiz-adv-x="424" />
<glyph unicode="&#x20ac;" horiz-adv-x="1171" d="M78 537v110h55q0 8 -1 24.5t-1 24.5q0 53 6 105h-59v110h76q49 225 187 370.5t325 145.5q129 0 223 -71.5t186 -214.5l-121 -86q-49 80 -80.5 122t-87 76.5t-120.5 34.5q-135 0 -227.5 -104.5t-129.5 -272.5h320v-110h-336q-6 -51 -6 -105q0 -8 1 -24.5t1 -24.5h340v-110 h-330q31 -188 126 -308t241 -120q102 0 166.5 64.5t134.5 193.5l133 -72q-92 -160 -193.5 -244t-240.5 -84q-199 0 -341.5 162t-181.5 408h-65z" />
<glyph unicode="&#x2122;" horiz-adv-x="1204" d="M98 1395v92h369v-92h-135v-422h-101v422h-133zM553 973v514h98l144 -357l143 357h98v-514h-102v237l-96 -237h-88l-97 237v-237h-100z" />
<glyph unicode="&#x25fc;" horiz-adv-x="962" d="M0 0v963h963v-963h-963z" />
</font>
</defs>
</svg>
