<?xml version="1.0" standalone="no"?>
<!DOCTYPE svg PUBLIC "-//W3C//DTD SVG 1.1//EN" "http://www.w3.org/Graphics/SVG/1.1/DTD/svg11.dtd" >
<svg xmlns="http://www.w3.org/2000/svg">
<metadata></metadata>
<defs>
<font id="PFDinTextCompProLightRegular" horiz-adv-x="751" >
<font-face units-per-em="2048" ascent="1536" descent="-512" />
<missing-glyph horiz-adv-x="376" />
<glyph horiz-adv-x="0" />
<glyph horiz-adv-x="2048" />
<glyph unicode=" "  horiz-adv-x="376" />
<glyph unicode="&#x09;" horiz-adv-x="376" />
<glyph unicode="&#xa0;" horiz-adv-x="376" />
<glyph unicode="!" horiz-adv-x="438" d="M152 0v131h133v-131h-133zM154 1425h129l-13 -1081h-104z" />
<glyph unicode="&#x22;" horiz-adv-x="450" d="M78 1053v372h100v-372h-100zM276 1053v372h97v-372h-97z" />
<glyph unicode="#" d="M10 459v84h140l63 352h-119v86h135l88 455h89l-89 -455h207l86 455h88l-86 -455h123v-86h-139l-66 -352h119v-84h-135l-86 -459h-88l86 459h-207l-84 -459h-88l86 459h-123zM236 543h206l66 352h-207z" />
<glyph unicode="$" d="M43 301l125 27q0 -91 40.5 -151t131.5 -71v586q-75 34 -127 68.5t-83 67.5t-48.5 73.5t-23 78.5t-5.5 91q0 158 72 255t215 110v172h68v-172q79 -4 138 -32.5t90.5 -73.5t46.5 -94.5t15 -102.5l-125 -31q0 196 -165 215v-518q2 0 10.5 -3.5t9.5 -4.5q73 -29 122 -61.5 t78.5 -65.5t45 -79.5t20 -91t4.5 -112.5q0 -118 -26.5 -200t-92 -133.5t-171.5 -59.5v-191h-68v191q-149 7 -223 92t-74 221zM178 1073q0 -87 31.5 -140t130.5 -102v484q-162 -19 -162 -242zM408 106q43 5 73.5 22.5t47.5 41t27 60t12.5 70t2.5 79.5q0 66 -4.5 103t-22 71.5 t-49 57.5t-87.5 51v-556z" />
<glyph unicode="%" horiz-adv-x="1187" d="M88 737v514q0 80 55 129.5t136 49.5q78 0 133 -47t55 -126v-520q0 -79 -55 -126.5t-133 -47.5q-87 0 -139 46.5t-52 127.5zM190 741q0 -36 23.5 -56.5t65.5 -20.5q40 0 61.5 23.5t21.5 60.5v505q0 34 -22 57t-61 23q-44 0 -66.5 -24.5t-22.5 -59.5v-508zM225 -35 l643 1497h86l-643 -1497h-86zM723 166v514q0 80 54.5 129t135.5 49q79 0 134 -46.5t55 -125.5v-520q0 -79 -55.5 -126.5t-133.5 -47.5q-87 0 -138.5 46.5t-51.5 127.5zM825 170q0 -36 23 -57t65 -21q40 0 62 23.5t22 60.5v506q0 34 -22 57t-62 23q-44 0 -66 -24t-22 -60 v-508z" />
<glyph unicode="&#x26;" horiz-adv-x="937" d="M84 340q0 120 54 223t163 205q-8 18 -28 51t-25 43q-76 136 -76 279q0 125 72.5 210t189.5 85q101 0 164.5 -32.5t99.5 -103.5l-112 -59q-44 80 -148 80q-69 0 -105 -55t-36 -127q0 -106 84 -262l301 -521q38 94 49 236h117q-11 -193 -88 -354l139 -238h-147l-76 129 q-67 -83 -139 -112t-160 -29q-124 0 -208.5 95t-84.5 257zM207 346q0 -106 53 -176t148 -70q55 0 111.5 32t98.5 91l-256 443q-155 -161 -155 -320z" />
<glyph unicode="'" horiz-adv-x="319" d="M113 1053v372h98v-372h-98z" />
<glyph unicode="(" horiz-adv-x="436" d="M90 618q0 236 70 453.5t188 394.5l62 -28q-95 -174 -150 -389t-55 -422q0 -221 54 -435t149 -389l-56 -32q-118 177 -190 393t-72 454z" />
<glyph unicode=")" horiz-adv-x="436" d="M90 1438q7 2 31.5 13t28.5 15q119 -178 189.5 -395t70.5 -455q0 -237 -73 -454.5t-192 -390.5q-2 2 -26.5 16t-26.5 16q95 175 149 389t54 435q0 206 -54.5 421.5t-150.5 389.5z" />
<glyph unicode="*" horiz-adv-x="696" d="M49 1169l35 99l217 -92l-16 247h104l-16 -247l219 92l35 -99l-232 -65l158 -197l-88 -57l-127 213l-127 -215l-86 59l154 197z" />
<glyph unicode="+" d="M25 551v100h303v328h96v-328h301v-100h-301v-330h-96v330h-303z" />
<glyph unicode="," horiz-adv-x="335" d="M88 -219l43 209h-35v155h144v-153l-80 -211h-72z" />
<glyph unicode="-" horiz-adv-x="684" d="M100 530v113h506v-113h-506z" />
<glyph unicode="." horiz-adv-x="335" d="M96 0v150h144v-150h-144z" />
<glyph unicode="/" horiz-adv-x="499" d="M12 -86l381 1571h99l-381 -1571h-99z" />
<glyph unicode="0" d="M100 248v926q0 124 80.5 194t196.5 70q121 0 198.5 -69.5t77.5 -194.5v-926q0 -125 -79.5 -193.5t-196.5 -68.5t-197 68.5t-80 193.5zM223 244q0 -65 43 -103.5t111 -38.5q67 0 108 38.5t41 103.5v934q0 65 -41 103t-108 38q-69 0 -111.5 -38t-42.5 -103v-934z" />
<glyph unicode="1" d="M193 1130v136l208 159h129v-1425h-124v1292z" />
<glyph unicode="2" d="M100 1104q0 161 71 247t212 87q144 0 211.5 -82t67.5 -228q0 -177 -76 -321l-344 -690h409v-117h-549v113l381 764q47 96 47 251q0 40 -5.5 70.5t-20.5 59.5t-46.5 45t-78.5 16q-156 0 -156 -238z" />
<glyph unicode="3" d="M96 291l125 24q-10 -213 152 -213q70 0 111.5 41t41.5 129v228q0 96 -38.5 139t-118.5 43h-60v113h64q76 0 114.5 40.5t38.5 131.5v192q0 71 -34.5 115.5t-110.5 44.5q-81 0 -120.5 -56t-39.5 -153q-9 3 -62 10.5t-63 7.5q5 140 79.5 225t213.5 85q262 0 262 -281v-166 q0 -92 -25 -153t-100 -95v-4q42 -16 68 -40.5t38 -62t15.5 -72.5t3.5 -89l-2 -199q0 -144 -74.5 -217t-205.5 -73q-140 0 -209 78t-64 227z" />
<glyph unicode="4" d="M49 236v114l299 1075h125l-301 -1075h297v398h127v-398h109v-114h-109v-236h-127v236h-420z" />
<glyph unicode="5" d="M94 297l125 18q0 -106 33.5 -159.5t124.5 -53.5q146 0 149 172l4 381q0 148 -147 148q-50 0 -89 -22.5t-58 -61.5h-111v706h528v-112h-417v-467h8q63 63 178 63q113 0 173 -63.5t60 -167.5l-4 -399q-1 -144 -74.5 -218.5t-201.5 -74.5q-272 0 -281 311z" />
<glyph unicode="6" d="M100 248v250q0 138 39 235l269 692h127q-231 -596 -246 -647l6 -4q53 43 121 43q118 0 177.5 -71t59.5 -187v-311q0 -125 -79.5 -193.5t-196.5 -68.5t-197 68.5t-80 193.5zM223 240q0 -65 42.5 -101.5t111.5 -36.5q67 0 108 36.5t41 101.5v325q0 62 -41 98.5t-108 36.5 q-74 0 -114 -52t-40 -120v-288z" />
<glyph unicode="7" d="M92 1141v284h567v-104l-374 -1321h-123l370 1313h-331v-172h-109z" />
<glyph unicode="8" d="M100 248v274q0 152 115 221q-115 65 -115 222v209q0 124 80.5 194t196.5 70t196 -70t80 -194v-209q0 -149 -116 -222q116 -73 116 -221v-274q0 -125 -79.5 -193.5t-196.5 -68.5t-197 68.5t-80 193.5zM223 240q0 -65 42.5 -101.5t111.5 -36.5q67 0 108 36.5t41 101.5v309 q0 63 -41.5 102t-107.5 41q-68 0 -111 -40t-43 -103v-309zM223 940q0 -63 43 -101t111 -38q66 0 107.5 38t41.5 101v242q0 65 -41 102t-108 37q-69 0 -111.5 -37t-42.5 -102v-242z" />
<glyph unicode="9" d="M100 866v312q0 125 80 193.5t197 68.5q128 0 202 -67t74 -195v-250q0 -139 -39 -236l-270 -692h-129q231 596 246 647l-6 4q-46 -43 -121 -43q-118 0 -176 70.5t-58 187.5zM223 860q0 -62 42.5 -99.5t109.5 -37.5q73 0 112 52t39 122v289q0 65 -41 101t-108 36 q-68 0 -111 -36.5t-43 -100.5v-326z" />
<glyph unicode=":" horiz-adv-x="335" d="M96 0v150h144v-150h-144zM96 621v151h144v-151h-144z" />
<glyph unicode=";" horiz-adv-x="335" d="M88 -219l43 209h-35v155h144v-153l-80 -211h-72zM96 621v149h144v-149h-144z" />
<glyph unicode="&#x3c;" d="M27 557v90l694 369v-109l-594 -305l594 -305v-109z" />
<glyph unicode="=" d="M25 395v105h700v-105h-700zM25 700v103h700v-103h-700z" />
<glyph unicode="&#x3e;" d="M29 188v109l596 305l-596 305v109l694 -369v-90z" />
<glyph unicode="?" horiz-adv-x="731" d="M63 1124q4 149 89.5 231.5t218.5 82.5q315 0 315 -336q0 -82 -23.5 -162.5t-57 -142t-66.5 -116t-56.5 -104.5t-23.5 -88v-145h-123v164q0 91 47 162q18 30 55 91.5t47 79t30.5 58t25.5 63.5t10.5 57.5t5.5 74.5q0 107 -43 166t-143 59q-77 0 -128.5 -53t-52.5 -158z M332 0v131h129v-131h-129z" />
<glyph unicode="@" horiz-adv-x="1527" d="M119 686q0 345 175.5 549.5t493.5 204.5q198 0 340.5 -85.5t212.5 -232t70 -338.5q0 -110 -18 -195.5t-48 -140t-73 -89.5t-88.5 -49.5t-98.5 -14.5q-44 0 -103 32t-77 95h-2q-29 -54 -87.5 -81.5t-121.5 -27.5q-98 0 -143 65.5t-45 162.5q0 46 11.5 88.5t36.5 81 t70.5 61.5t106.5 23h137v106q0 121 -123 121q-44 0 -77 -22t-43 -62q-7 0 -50 12.5t-53 16.5q24 70 84 111.5t144 41.5q227 0 227 -217v-371q0 -65 33 -102t80 -37q36 0 65 9t57.5 34.5t47.5 68t31 113.5t12 166q0 259 -141 408t-367 149q-144 0 -255.5 -50.5t-179.5 -140 t-102.5 -207t-34.5 -257.5q0 -203 63.5 -351t194 -231.5t318.5 -83.5q102 0 183.5 18t162.5 66l39 -92q-188 -90 -375 -90q-328 0 -509 195.5t-181 568.5zM608 543q0 -55 34 -93t97 -38q59 0 94 38.5t35 100.5v154h-112q-66 0 -107 -38.5t-41 -123.5z" />
<glyph unicode="A" horiz-adv-x="790" d="M25 0l307 1425h127l313 -1425h-125l-76 344h-354l-74 -344h-118zM238 463h311l-86 414l-66 340h-6l-67 -345z" />
<glyph unicode="B" horiz-adv-x="843" d="M109 0v1425h299q179 0 257 -92.5t78 -273.5q0 -115 -34 -187.5t-117 -115.5v-8q166 -52 166 -330q0 -219 -90.5 -318.5t-274.5 -99.5h-284zM233 115h168q71 0 119 23.5t72 69.5t33.5 97.5t9.5 122.5q0 134 -52 201t-171 67h-179v-581zM233 807h168q118 0 169 63t51 191 q0 125 -55.5 187.5t-180.5 62.5h-152v-504z" />
<glyph unicode="C" horiz-adv-x="786" d="M96 315v752q0 80 16.5 144.5t52.5 116.5t99.5 81t149.5 29q149 0 231 -83t82 -233l-127 -24q1 110 -47 166.5t-141 56.5q-97 0 -144 -69.5t-47 -170.5v-759q0 -93 47 -156.5t144 -63.5q185 0 188 224l129 -23q-4 -155 -87.5 -236t-227.5 -81q-155 0 -236.5 84.5 t-81.5 244.5z" />
<glyph unicode="D" horiz-adv-x="847" d="M109 0v1425h319q131 0 202.5 -44.5t100.5 -147.5q9 -33 14.5 -70.5t7 -96t1.5 -94.5v-50v-76v-131v-129v-78v-48q0 -34 -2 -93.5t-7.5 -95.5t-15.5 -66q-62 -205 -319 -205h-301zM233 115h181q109 0 160 60.5t51 184.5v705q0 118 -48.5 182t-164.5 64h-179v-1196z" />
<glyph unicode="E" horiz-adv-x="739" d="M109 0v1425h596v-116h-472v-523h412v-116h-412v-555h472v-115h-596z" />
<glyph unicode="F" horiz-adv-x="737" d="M109 0v1425h596v-116h-472v-523h412v-116h-412v-670h-124z" />
<glyph unicode="G" horiz-adv-x="829" d="M98 313v744q0 381 318 381q149 0 228.5 -79t84.5 -231l-125 -30v2q0 221 -190 221q-97 0 -144 -69.5t-47 -170.5v-762q0 -93 47 -156t144 -63h2q88 0 144 51.5t56 137.5v354h-172v111h297v-453q0 -148 -92.5 -231.5t-232.5 -83.5q-154 0 -236 84t-82 243z" />
<glyph unicode="H" horiz-adv-x="860" d="M109 0v1425h124v-641h392v641h127v-1425h-127v674h-392v-674h-124z" />
<glyph unicode="I" horiz-adv-x="374" d="M123 0v1425h129v-1425h-129z" />
<glyph unicode="J" horiz-adv-x="692" d="M-10 88l86 82q27 -30 70 -50t83 -20q90 0 144.5 56t54.5 168v1101h125v-1089q0 -172 -81.5 -261t-244.5 -89q-74 0 -137.5 25.5t-99.5 76.5z" />
<glyph unicode="K" horiz-adv-x="831" d="M109 0v1425h122v-782h5l397 782h129l-287 -563l342 -862h-131l-285 725l-170 -317v-408h-122z" />
<glyph unicode="L" horiz-adv-x="690" d="M109 0v1425h124v-1310h443v-115h-567z" />
<glyph unicode="M" horiz-adv-x="1122" d="M106 0v1425h127q137 -340 175 -456l149 -398h6q16 44 80.5 215t71.5 189q3 9 85 221t87 229h129v-1425h-125v1077h-8q-19 -45 -67 -170t-66 -178q-4 -12 -78 -194.5t-78 -194.5h-70l-77 192.5t-76 192.5l-131 348h-9v-1073h-125z" />
<glyph unicode="N" horiz-adv-x="903" d="M102 0v1425h119q54 -136 160 -391.5t143 -335.5l144 -356h8v1083h125v-1425h-119q-25 61 -152 361t-151 360l-146 356h-6v-1077h-125z" />
<glyph unicode="O" horiz-adv-x="837" d="M96 319v750q0 80 17 144.5t53.5 116t101 80t152.5 28.5q175 0 249 -93.5t74 -269.5v-723q0 -366 -325 -366q-162 0 -242 86t-80 247zM219 317q0 -90 50 -153.5t149 -63.5q103 0 150.5 65.5t47.5 172.5v756q0 64 -17.5 113t-63 82.5t-115.5 33.5q-56 0 -97.5 -25t-63 -66 t-31 -83.5t-9.5 -87.5v-744z" />
<glyph unicode="P" horiz-adv-x="800" d="M109 0v1425h284q105 0 177 -28t111.5 -84t56 -128t16.5 -173q0 -77 -10 -137.5t-35.5 -115t-66.5 -91t-106.5 -57.5t-152.5 -21h-150v-590h-124zM233 707h144q76 0 127 21t78 63t38 94t11 125q0 55 -6 97t-22 82t-43.5 65.5t-72.5 41t-106 15.5h-148v-604z" />
<glyph unicode="Q" horiz-adv-x="835" d="M96 319v750q0 80 17 144.5t53.5 116t101 80t152.5 28.5q175 0 249 -93.5t74 -269.5v-723q0 -130 -43 -215l121 -94l-65 -80l-119 92q-75 -69 -217 -69q-162 0 -243 86t-81 247zM219 317q0 -90 50 -153.5t149 -63.5q77 0 121 35l-129 103l63 77l123 -96q20 47 20 119v756 q0 64 -17.5 113t-63 82.5t-115.5 33.5q-56 0 -97.5 -25t-63 -66t-31 -83.5t-9.5 -87.5v-744z" />
<glyph unicode="R" horiz-adv-x="831" d="M106 0v1425h295q184 0 266.5 -98t82.5 -295q0 -288 -203 -366l221 -666h-129l-209 639h-199v-639h-125zM231 752h158q127 0 181.5 68t54.5 212q0 137 -54.5 208t-189.5 71h-150v-559z" />
<glyph unicode="S" horiz-adv-x="790" d="M68 301l127 27q0 -97 47 -159.5t153 -62.5q53 0 91.5 15t59.5 38.5t33 61.5t15.5 73t3.5 85q0 58 -4.5 93t-15.5 66.5t-36.5 53.5t-61 43t-95.5 47q-99 44 -161.5 86.5t-93.5 91.5t-41.5 95.5t-10.5 115.5q0 167 83 267t245 100q88 0 153 -27.5t99.5 -73.5t50.5 -97 t16 -107l-127 -31q0 217 -199 217q-47 0 -83 -16t-56.5 -40t-33.5 -58t-17 -65.5t-4 -66.5q0 -51 8 -84.5t34 -68t76 -65t132 -64.5q73 -29 122 -61.5t78.5 -65.5t45 -79.5t20 -91t4.5 -112.5q0 -190 -76.5 -292.5t-253.5 -102.5q-163 0 -245 87t-82 228z" />
<glyph unicode="T" horiz-adv-x="655" d="M6 1311v114h641v-114h-256v-1311h-129v1311h-256z" />
<glyph unicode="U" horiz-adv-x="833" d="M92 319v1104h125v-1106q0 -90 50 -153.5t149 -63.5q103 0 150.5 65.5t47.5 172.5v1085h125v-1071q0 -366 -323 -366q-159 0 -241.5 86.5t-82.5 246.5z" />
<glyph unicode="V" horiz-adv-x="792" d="M37 1425h127l145 -753l80 -479h6l82 481l148 751h129l-291 -1427h-144z" />
<glyph unicode="W" horiz-adv-x="1189" d="M37 1425h129l104 -710l58 -465h6l72 461l131 714h118l127 -714l76 -461h6l56 463l104 712h129l-223 -1427h-129l-139 754l-66 381h-6l-64 -388l-139 -747h-127z" />
<glyph unicode="X" horiz-adv-x="741" d="M16 -2l289 739l-274 688h133l207 -563l204 563h136l-281 -688l295 -739h-133l-221 602l-224 -602h-131z" />
<glyph unicode="Y" horiz-adv-x="743" d="M23 1425h131l122 -374q8 -24 45.5 -142t45.5 -141h6l90 287l123 370h131q-15 -42 -135.5 -394t-149.5 -429v-604h-125v604q-29 76 -148.5 427t-135.5 396z" />
<glyph unicode="Z" horiz-adv-x="641" d="M33 0v115l446 1196h-418v114h545v-114l-446 -1196h434v-115h-561z" />
<glyph unicode="[" horiz-adv-x="417" d="M129 -213v1640h256v-84h-145v-1474h145v-82h-256z" />
<glyph unicode="\" horiz-adv-x="436" d="M20 1452h99l295 -1489h-97z" />
<glyph unicode="]" horiz-adv-x="417" d="M61 -131h146v1474h-146v84h254v-1642h-254v84z" />
<glyph unicode="^" d="M20 729l314 690h90l313 -690h-106l-254 578l-252 -578h-105z" />
<glyph unicode="_" horiz-adv-x="1024" d="M0 -156h1024v-102h-1024v102z" />
<glyph unicode="`" horiz-adv-x="716" d="M199 1450l118 43l140 -326l-70 -28z" />
<glyph unicode="a" horiz-adv-x="720" d="M51 274q0 62 13.5 115.5t43.5 102.5t87.5 77.5t136.5 28.5h178v147q0 78 -35.5 118t-124.5 40q-51 0 -97 -27.5t-58 -82.5l-119 36q27 89 99.5 140t180.5 51q140 0 209.5 -62.5t69.5 -209.5v-748h-127v90h-2q-41 -58 -95.5 -80t-125.5 -22q-82 0 -136.5 42.5t-76 104.5 t-21.5 139zM174 281q0 -175 158 -175q83 0 130.5 46t47.5 131v204h-150q-85 0 -135.5 -48.5t-50.5 -157.5z" />
<glyph unicode="b" horiz-adv-x="733" d="M82 0v1487h123v-588h4q31 57 90.5 88t120.5 31q88 -1 137 -33.5t76 -93.5q15 -34 22.5 -84t9.5 -88.5t3 -112.5v-143q0 -104 -13 -234q-8 -74 -34.5 -125t-64.5 -74.5t-72 -32.5t-72 -9q-77 0 -121 23.5t-82 74.5h-4v-86h-123zM205 295q0 -85 45.5 -137t122.5 -52 q114 0 149 105q19 65 19 276q0 93 -1 139.5t-6.5 103t-17.5 83.5q-35 84 -139 84q-47 0 -82 -20t-53.5 -54t-27.5 -72.5t-9 -82.5v-373z" />
<glyph unicode="c" horiz-adv-x="679" d="M68 492q0 296 30 366q58 162 267 162q272 0 272 -281l-129 -18v2q1 13 1 25q1 64 -35 107q-42 52 -116 52q-105 0 -143 -96q-15 -32 -19 -105t-6 -207v-30q4 -219 17 -264q37 -107 149 -107q75 0 114 46t38 137l129 -23q-6 -272 -287 -272q-115 0 -181 53t-83 133 q-18 74 -18 320z" />
<glyph unicode="d" horiz-adv-x="735" d="M63 479q0 106 1 158t8.5 118.5t23.5 108.5q57 156 234 156q127 0 188 -100h4v567h125v-1487h-125v86h-4q-34 -50 -79.5 -74t-121.5 -24q-30 0 -57.5 4.5t-60 20t-57 41t-44 70.5t-26.5 105q-9 95 -9 250zM190 487q0 -211 19 -276q17 -56 52 -80.5t93 -24.5 q79 0 124.5 51.5t45.5 137.5v407q0 86 -42.5 140.5t-125.5 54.5q-113 0 -147 -117q-19 -77 -19 -293z" />
<glyph unicode="e" horiz-adv-x="716" d="M66 492q0 288 30 364q64 164 269 164q122 0 191 -60t81 -172q4 -62 4 -90v-225h-451q0 -13 1.5 -39t1.5 -39q0 -147 16 -192q35 -103 147 -103q146 0 156 168l127 -24q-11 -126 -84 -192t-205 -66q-117 0 -181.5 53t-84.5 133q-18 74 -18 320zM193 575h323v107 q0 49 -6 84t-21.5 68.5t-48.5 51t-82 17.5q-105 0 -145 -94q-17 -45 -20 -234z" />
<glyph unicode="f" horiz-adv-x="454" d="M23 899v107h106v251q0 114 60.5 172t162.5 58h74v-117h-53q-59 0 -87 -33t-28 -90v-241h164v-107h-164v-899h-129v899h-106z" />
<glyph unicode="g" horiz-adv-x="743" d="M68 422v98q0 164 8 256q7 59 27 104.5t45.5 71t58.5 42t60.5 21.5t56.5 5q77 0 120 -24t82 -76h4v86h123v-1076q0 -75 -12.5 -132t-43 -106t-90 -75.5t-145.5 -26.5q-124 0 -196 65t-76 187l125 23q2 -75 40.5 -117.5t115.5 -42.5q76 0 117.5 53t41.5 131v217h-4 q-30 -57 -89.5 -86.5t-121.5 -29.5q-87 0 -137.5 34.5t-77.5 98.5q-15 35 -22 88t-8.5 95.5t-1.5 115.5zM195 518q0 -98 0.5 -140.5t6 -100t17.5 -84.5q35 -84 139 -84q47 0 82 20t53.5 54t27.5 72.5t9 82.5v373q0 86 -45.5 137t-124.5 51q-113 0 -147 -104 q-18 -62 -18 -277z" />
<glyph unicode="h" horiz-adv-x="745" d="M82 0v1487h127v-586h4q35 57 91 88t124 31q120 0 178 -72t58 -194v-754h-129v717q0 176 -158 176q-79 0 -124.5 -52.5t-45.5 -133.5v-707h-125z" />
<glyph unicode="i" horiz-adv-x="333" d="M100 0v1008h127v-1008h-127zM100 1253v131h129v-131h-129z" />
<glyph unicode="j" horiz-adv-x="333" d="M-35 -295h23q70 0 93 40.5t23 133.5v1129h127v-1153q0 -59 -9.5 -104t-33 -83t-68.5 -58t-110 -20h-45v115zM104 1255v131h129v-131h-129z" />
<glyph unicode="k" horiz-adv-x="737" d="M86 0v1487h125v-1018h2l326 537h141l-234 -381q24 -52 141 -312.5t142 -312.5h-137q-16 36 -109 250t-116 264q-18 -26 -79.5 -132.5t-76.5 -129.5v-252h-125z" />
<glyph unicode="l" horiz-adv-x="387" d="M100 227v1260h125v-1235q0 -79 24 -115.5t89 -36.5h24v-114h-30q-122 0 -177 52.5t-55 188.5z" />
<glyph unicode="m" horiz-adv-x="1191" d="M96 0v1008h125v-107h6q74 119 199 119q154 0 207 -129q39 62 98 96q57 33 127 33h4q119 0 176.5 -72.5t57.5 -193.5v-754h-127v717q0 79 -36 127.5t-116 48.5q-71 0 -114.5 -51.5t-45.5 -130.5v-711h-125v717q0 79 -35 127.5t-112 48.5t-121.5 -55t-44.5 -138v-700h-123z " />
<glyph unicode="n" horiz-adv-x="741" d="M78 0v1008h127v-107h4q35 57 91 88t124 31q120 0 177.5 -71.5t57.5 -194.5v-754h-129v717q0 84 -34.5 130t-116.5 46t-129 -55t-47 -138v-700h-125z" />
<glyph unicode="o" horiz-adv-x="729" d="M68 492q0 294 30 364q27 76 95.5 120t175.5 44q206 0 264 -158q29 -84 29 -299v-100q0 -112 -11 -225q-8 -73 -37.5 -124.5t-73.5 -78t-89.5 -38t-96.5 -11.5q-220 0 -268 186q-18 76 -18 320zM193 455q0 -203 16 -250q30 -105 158 -105q60 0 101.5 34.5t55.5 94.5 q15 92 15 258q0 254 -19 312q-17 53 -57 80.5t-96 27.5q-112 0 -152 -94q-22 -60 -22 -293v-65z" />
<glyph unicode="p" horiz-adv-x="731" d="M72 -395v1401h123v-86h4q39 52 82 76t120 24q30 0 57.5 -5t60 -21t57.5 -41.5t44.5 -71t26.5 -105.5q6 -63 6 -264q0 -103 -1 -149t-8.5 -113t-22.5 -109q-27 -73 -81 -113t-151 -40q-67 0 -115.5 28t-74.5 70h-4v-481h-123zM195 303q0 -87 41.5 -140.5t123.5 -53.5 q120 0 150 116q16 65 16 293q0 215 -18 277q-17 56 -51 80t-92 24q-79 0 -124.5 -51t-45.5 -137v-408z" />
<glyph unicode="q" horiz-adv-x="741" d="M68 422v156q0 124 8 198q7 59 27 104.5t45.5 71t58.5 42t60.5 21.5t56.5 5q77 0 120 -24t82 -76h4v86h123v-1405h-123v505h-4q-30 -57 -89.5 -86.5t-121.5 -29.5q-93 0 -144.5 39t-76.5 112q-26 81 -26 281zM195 518q0 -266 24 -325q38 -84 139 -84q47 0 82 20t53.5 54 t27.5 72.5t9 82.5v373q0 86 -45.5 137t-124.5 51q-113 0 -147 -104q-18 -62 -18 -277z" />
<glyph unicode="r" horiz-adv-x="503" d="M106 0v1008h127v-127h5q34 77 86 109t133 32q22 0 30 -2v-148q-45 5 -55 5q-96 0 -147.5 -57.5t-51.5 -172.5v-647h-127z" />
<glyph unicode="s" horiz-adv-x="677" d="M57 252l127 20v-7q0 -74 40 -118q41 -45 111 -45h3q88 0 123 41t35 129q0 81 -32 119.5t-136 79.5q-150 58 -203 123.5t-53 161.5q0 122 70 194t206 72q139 0 208 -69t69 -199l-131 -19v15q0 72 -36 112q-40 44 -112 43q-83 0 -117 -42.5t-34 -106.5q0 -61 39 -101.5 t155 -79.5q75 -29 122 -59.5t70 -69.5t30 -76.5t7 -95.5q0 -135 -66.5 -211.5t-209.5 -76.5q-279 0 -285 266z" />
<glyph unicode="t" horiz-adv-x="460" d="M29 907v101h112v260h125v-260h142v-101h-142v-651q0 -74 28.5 -106.5t90.5 -32.5h27v-117h-62q-110 0 -160.5 61.5t-50.5 163.5v682h-110z" />
<glyph unicode="u" horiz-adv-x="745" d="M80 254v756h129v-719q0 -90 35 -135t118 -45q77 0 126 55.5t49 136.5v707h125v-1008h-127v104h-7q-72 -116 -213 -116q-121 0 -178 71t-57 193z" />
<glyph unicode="v" horiz-adv-x="663" d="M10 1008h133l99 -428q8 -36 44 -208t44 -208h6q8 36 44 211.5t44 208.5l94 424h133l-250 -1008h-143z" />
<glyph unicode="w" horiz-adv-x="1101" d="M20 1006h132l73 -357q56 -251 92 -452h7q7 39 92 458l73 351h129l68 -334q13 -65 45.5 -228t50.5 -251h6l74 372q42 212 90 441h131q-96 -406 -231 -1006h-129l-70 303q-21 94 -100 461h-6l-94 -438l-74 -326h-127z" />
<glyph unicode="x" horiz-adv-x="643" d="M12 0l244 516l-233 492h141l160 -383l155 383h146l-230 -492l238 -516h-141l-168 406l-174 -406h-138z" />
<glyph unicode="y" horiz-adv-x="667" d="M10 1006h133q17 -65 34.5 -138.5t38 -163.5t32.5 -139q80 -334 88 -377h6q15 66 44.5 206.5t45.5 205.5l98 406h127l-303 -1182q-29 -106 -80.5 -165.5t-152.5 -59.5h-47v108h32q60 0 91.5 41t52.5 137l29 113z" />
<glyph unicode="z" horiz-adv-x="602" d="M39 0v117l387 778h-354v111h491v-111l-389 -778h385v-117h-520z" />
<glyph unicode="{" horiz-adv-x="454" d="M49 567v78q131 29 131 268v295q0 104 53 161.5t146 57.5h41v-84h-35q-98 0 -98 -186v-266q0 -117 -39.5 -192t-83.5 -89v-6q47 -14 85 -86t38 -184v-283q0 -184 98 -184h35v-84h-41q-90 0 -144.5 54.5t-54.5 160.5v285q0 132 -27 200t-104 84z" />
<glyph unicode="|" horiz-adv-x="395" d="M154 -332v1798h98v-1798h-98z" />
<glyph unicode="}" horiz-adv-x="454" d="M51 -133h33q100 0 100 164v303q0 113 37 184t84 86v6q-45 16 -83 89.5t-38 191.5v266q0 186 -100 186h-33v84h70q83 0 126.5 -65.5t43.5 -169.5v-279q0 -243 129 -268v-78q-53 -11 -82 -49.5t-38 -92.5t-9 -142v-285q0 -99 -48.5 -157t-127.5 -58h-64v84z" />
<glyph unicode="~" d="M25 463q77 133 192 133q55 0 113.5 -23.5t111.5 -47t93 -23.5q37 0 60 15.5t62 62.5l72 -45q-85 -144 -194 -144q-51 0 -156.5 48t-163.5 48q-36 0 -61.5 -15.5t-61.5 -57.5z" />
<glyph unicode="&#xa2;" horiz-adv-x="688" d="M68 428v74q0 276 28 356q49 140 223 160v217h60v-215q258 -9 258 -281l-129 -18v6q0 81 -33.5 126.5t-95.5 51.5v-805q20 0 35 9q91 31 94 172l127 -23q-6 -258 -256 -270v-224h-60v224q-187 13 -235 184q-16 58 -16 256zM190 455q0 -11 1 -54.5t1.5 -61.5t2 -49.5 t4.5 -51t8 -33.5q27 -88 112 -103v799q-72 -9 -106 -90q-4 -8 -7 -19t-5 -26t-3.5 -29t-2.5 -36t-2 -38.5t-1.5 -44t-0.5 -45.5t-0.5 -51t-0.5 -53v-14z" />
<glyph unicode="&#xa3;" horiz-adv-x="780" d="M94 0v115q64 118 95.5 226.5t31.5 240.5q0 21 -4 57h-123v106h115q-12 71 -52 194t-40 191q0 141 80.5 224.5t220.5 83.5t227.5 -80.5t83.5 -229.5l-127 -30q3 222 -182 225q-78 0 -125 -50.5t-47 -131.5q0 -61 37 -187t49 -209h207v-106h-197q0 -5 1 -26.5t1 -26.5 q0 -136 -28 -242.5t-85 -228.5h472v-115h-611z" />
<glyph unicode="&#xa5;" d="M49 1425h121l203 -659h6l201 659h125l-252 -761h223v-82h-242v-136h242v-84h-242v-364h-117v364h-233v84h233v136h-233v82h213z" />
<glyph unicode="&#xa8;" horiz-adv-x="722" d="M150 1202v131h114v-131h-114zM459 1202v131h112v-131h-112z" />
<glyph unicode="&#xa9;" horiz-adv-x="1439" d="M104 698q0 155 40.5 286t117.5 227.5t195 151t266 54.5q194 0 335.5 -94.5t212 -255.5t70.5 -369q0 -153 -41.5 -283.5t-118.5 -226.5t-194.5 -150t-263.5 -54q-148 0 -266.5 54t-195 150t-117 226t-40.5 284zM201 698q0 -179 60 -320t179.5 -224.5t282.5 -83.5 q126 0 226.5 48.5t165 134t98.5 199t34 246.5q0 134 -34.5 249t-99.5 201t-165.5 135.5t-224.5 49.5q-103 0 -188.5 -32.5t-146.5 -90.5t-103.5 -137.5t-63 -174t-20.5 -200.5zM500 481v402q0 106 63.5 164.5t165.5 58.5q98 0 162.5 -57t60.5 -162l-90 -21q0 72 -35.5 112 t-101.5 40q-56 0 -92.5 -36.5t-36.5 -88.5v-422q0 -54 36.5 -88.5t92.5 -34.5q129 0 135 150l92 -19q0 -108 -62.5 -164.5t-160.5 -56.5t-163.5 58t-65.5 165z" />
<glyph unicode="&#xab;" horiz-adv-x="790" d="M84 475l219 381h125l-217 -381l217 -381h-125zM375 475l219 381h125l-215 -381l215 -381h-125z" />
<glyph unicode="&#xad;" horiz-adv-x="684" d="M100 530v113h506v-113h-506z" />
<glyph unicode="&#xae;" horiz-adv-x="995" d="M109 1004q0 202 102.5 327t288.5 125q182 0 284.5 -125t102.5 -327q0 -196 -103 -321.5t-284 -125.5q-185 0 -288 125t-103 322zM182 1008q0 -170 84.5 -274.5t233.5 -104.5q154 0 233.5 105.5t79.5 273.5t-83 276.5t-230 108.5q-154 0 -236 -108t-82 -277zM362 731v541 h134q149 0 149 -164q0 -103 -74 -143q50 -141 88 -234h-84l-77 223h-60v-223h-76zM438 1020h56q75 0 75 88q0 47 -18.5 70.5t-63.5 23.5h-49v-182z" />
<glyph unicode="&#xb4;" horiz-adv-x="716" d="M289 1167l137 326l121 -43l-189 -311z" />
<glyph unicode="&#xb8;" horiz-adv-x="882" d="M209 -387l22 61q49 -24 119 -24q38 0 63 20.5t25 57.5q0 89 -116 86l-33 26l53 191l66 -4l-37 -148q85 -7 122 -51t37 -98q0 -58 -40.5 -104t-122.5 -46q-97 0 -158 33z" />
<glyph unicode="&#xbb;" horiz-adv-x="790" d="M86 94l215 381l-215 381h123l219 -381l-219 -381h-123zM377 94l217 381l-217 381h125l219 -381l-219 -381h-125z" />
<glyph unicode="&#x2c6;" horiz-adv-x="722" d="M74 1176l252 268h80l239 -264l-55 -50l-230 195l-231 -195z" />
<glyph unicode="&#x2da;" horiz-adv-x="720" d="M205 1294q0 74 51.5 125t124.5 51q72 0 123 -51.5t51 -124.5t-51 -124.5t-123 -51.5q-73 0 -124.5 51t-51.5 125zM276 1292q0 -43 31 -73.5t74 -30.5q41 0 71.5 30.5t30.5 73.5t-30.5 74t-71.5 31q-43 0 -74 -31t-31 -74z" />
<glyph unicode="&#x2dc;" horiz-adv-x="741" d="M88 1225q27 56 71.5 95.5t92.5 39.5q39 0 111.5 -39t117.5 -39q52 0 105 80l65 -43q-31 -65 -77.5 -102t-90.5 -37q-43 0 -118.5 37.5t-106.5 37.5q-52 0 -102 -71z" />
<glyph unicode="&#x401;" horiz-adv-x="739" d="M109 0v1425h596v-116h-472v-523h412v-116h-412v-555h472v-115h-596zM195 1534v129h114v-129h-114zM502 1534v129h112v-129h-112z" />
<glyph unicode="&#x402;" horiz-adv-x="995" d="M31 1311v114h723v-114h-365v-430h4q108 80 234 80q266 0 266 -299v-332q0 -195 -73 -290t-236 -95v108q105 4 143.5 63.5t38.5 176.5v346q0 98 -38.5 149.5t-131.5 51.5q-47 0 -103.5 -23.5t-103.5 -68.5v-748h-127v1311h-231z" />
<glyph unicode="&#x403;" horiz-adv-x="724" d="M109 0v1425h573v-116h-449v-1309h-124zM266 1538l277 223l82 -96l-312 -186z" />
<glyph unicode="&#x404;" horiz-adv-x="774" d="M96 315v752q0 80 16.5 144.5t52.5 116.5t99.5 81t149.5 29q137 0 216.5 -66t92.5 -194l-125 -31q-4 86 -53 130t-133 44q-97 0 -144 -69.5t-47 -170.5v-293h344v-122h-344v-344q0 -93 47 -156.5t144 -63.5q168 0 188 181l127 -27q-17 -133 -98.5 -201.5t-214.5 -68.5 q-155 0 -236.5 84.5t-81.5 244.5z" />
<glyph unicode="&#x405;" horiz-adv-x="790" d="M68 301l127 27q0 -97 47 -159.5t153 -62.5q53 0 91.5 15t59.5 38.5t33 61.5t15.5 73t3.5 85q0 58 -4.5 93t-15.5 66.5t-36.5 53.5t-61 43t-95.5 47q-99 44 -161.5 86.5t-93.5 91.5t-41.5 95.5t-10.5 115.5q0 167 83 267t245 100q88 0 153 -27.5t99.5 -73.5t50.5 -97 t16 -107l-127 -31q0 217 -199 217q-47 0 -83 -16t-56.5 -40t-33.5 -58t-17 -65.5t-4 -66.5q0 -51 8 -84.5t34 -68t76 -65t132 -64.5q73 -29 122 -61.5t78.5 -65.5t45 -79.5t20 -91t4.5 -112.5q0 -190 -76.5 -292.5t-253.5 -102.5q-163 0 -245 87t-82 228z" />
<glyph unicode="&#x406;" horiz-adv-x="374" d="M123 0v1425h129v-1425h-129z" />
<glyph unicode="&#x407;" horiz-adv-x="374" d="M-25 1569v131h115v-131h-115zM123 0v1425h129v-1425h-129zM285 1569v131h112v-131h-112z" />
<glyph unicode="&#x408;" horiz-adv-x="681" d="M-20 88l86 82q27 -30 70 -50t83 -20q90 0 144.5 56t54.5 168v1101h125v-1089q0 -172 -81.5 -261t-244.5 -89q-74 0 -137.5 25.5t-99.5 76.5z" />
<glyph unicode="&#x409;" horiz-adv-x="1302" d="M8 51q50 36 77.5 67t53.5 93t36.5 163.5t10.5 256.5v794h539v-602h149q108 0 182.5 -28.5t115 -84.5t57 -125t16.5 -163q0 -100 -16.5 -173t-55.5 -131.5t-111 -88t-177 -29.5h-285v1309h-299v-600q0 -258 -22.5 -400.5t-70 -216t-142.5 -131.5q-10 10 -58 90zM725 119 h147q76 0 127 22.5t77 66t36 93t10 117.5q0 141 -55.5 214t-198.5 73h-143v-586z" />
<glyph unicode="&#x40a;" horiz-adv-x="1306" d="M109 0v1425h124v-622h371v622h125v-622h150q109 0 183.5 -27t114.5 -80.5t56 -120t16 -159.5q0 -100 -16.5 -172t-55.5 -129.5t-111 -86t-177 -28.5h-285v684h-371v-684h-124zM729 119h148q76 0 126.5 21t76.5 63t36 91t10 118q0 136 -55 204t-199 68h-143v-565z" />
<glyph unicode="&#x40b;" horiz-adv-x="995" d="M29 1311v114h723v-114h-361v-428h4q106 78 232 78q137 0 202.5 -73.5t65.5 -205.5v-682h-129v647q0 93 -38.5 143t-131.5 50q-50 0 -106.5 -25t-98.5 -67v-748h-129v1311h-233z" />
<glyph unicode="&#x40c;" horiz-adv-x="849" d="M109 0v1425h122v-632h115q194 0 244 215l100 417h115l-92 -413q-54 -226 -185 -271q56 -16 96.5 -56.5t63 -93t39.5 -128.5l102 -463h-127l-96 446q-30 131 -92 178.5t-154 47.5h-129v-672h-122zM328 1538l276 223l82 -96l-311 -186z" />
<glyph unicode="&#x40e;" horiz-adv-x="761" d="M20 1423h125l246 -876h6l219 878h121l-297 -1116q-23 -85 -49 -144.5t-50 -92t-56 -51t-56.5 -24t-62.5 -7.5h-64v102h60q107 0 155 189l21 81zM137 1673h105q8 -57 51 -100t102 -43q64 0 107 42t49 101h102q-4 -41 -21 -81.5t-47 -76.5t-79.5 -58.5t-110.5 -22.5 q-64 0 -114.5 22.5t-80 58.5t-45.5 76t-18 82z" />
<glyph unicode="&#x40f;" horiz-adv-x="841" d="M109 0v1425h124v-1304h375v1304h127v-1425h-254l2 -291h-125l2 291h-251z" />
<glyph unicode="&#x410;" horiz-adv-x="790" d="M25 0l307 1425h127l313 -1425h-125l-76 344h-354l-74 -344h-118zM238 463h311l-86 414l-66 340h-6l-67 -345z" />
<glyph unicode="&#x411;" horiz-adv-x="800" d="M98 0v1425h568v-116h-443v-486h152q108 0 182.5 -28.5t114.5 -84.5t56.5 -125t16.5 -163q0 -100 -16.5 -173t-56.5 -131.5t-112 -88t-177 -29.5h-285zM223 121h150q75 0 125.5 22t76.5 65.5t36 93t10 118.5q0 139 -55 212t-197 73h-146v-584z" />
<glyph unicode="&#x412;" horiz-adv-x="843" d="M109 0v1425h299q179 0 257 -92.5t78 -273.5q0 -115 -34 -187.5t-117 -115.5v-8q166 -52 166 -330q0 -219 -90.5 -318.5t-274.5 -99.5h-284zM233 115h168q71 0 119 23.5t72 69.5t33.5 97.5t9.5 122.5q0 134 -52 201t-171 67h-179v-581zM233 807h168q118 0 169 63t51 191 q0 125 -55.5 187.5t-180.5 62.5h-152v-504z" />
<glyph unicode="&#x413;" horiz-adv-x="724" d="M109 0v1425h573v-116h-449v-1309h-124z" />
<glyph unicode="&#x414;" horiz-adv-x="937" d="M8 106l72 9q65 65 89.5 161t31.5 332l20 817h610v-1314h76v-381h-112v270h-674v-270h-113v376zM225 111h482v1202h-371l-19 -705q-5 -189 -24.5 -302.5t-67.5 -194.5z" />
<glyph unicode="&#x415;" horiz-adv-x="739" d="M109 0v1425h596v-116h-472v-523h412v-116h-412v-555h472v-115h-596z" />
<glyph unicode="&#x416;" horiz-adv-x="1341" d="M41 0l102 463q25 115 70.5 185t126.5 93q-66 23 -112 93.5t-70 177.5l-95 413h115l101 -417q50 -215 243 -215h84v632h127v-632h84q194 0 244 215l100 417h115l-92 -413q-54 -226 -185 -271q56 -16 96.5 -56.5t63 -93t39.5 -128.5l102 -463h-126l-97 446q-16 69 -41 115 t-58.5 69.5t-67 32.5t-76.5 9h-101v-672h-127v672h-98q-33 0 -61 -5t-58 -20t-53 -39.5t-43 -65.5t-31 -96l-96 -446h-125z" />
<glyph unicode="&#x417;" horiz-adv-x="772" d="M27 291v8l120 25q0 -224 193 -224q195 0 195 273v65q0 250 -191 250h-74v113h84q51 0 86 15.5t54.5 38.5t29.5 63.5t12.5 76t2.5 90.5q0 123 -53 179.5t-142 56.5q-92 0 -143 -59t-51 -164l-121 28q4 149 94.5 230.5t224.5 81.5q139 0 217.5 -67t91.5 -214q5 -23 5 -88 q0 -45 -5 -86.5t-17.5 -90.5t-40 -87t-67.5 -55v-5q39 -17 65.5 -47t39 -71.5t17.5 -73t8 -78.5v-78q0 -43 -3 -90q-10 -160 -94 -240.5t-225 -80.5q-138 0 -225.5 76.5t-87.5 228.5z" />
<glyph unicode="&#x418;" horiz-adv-x="874" d="M104 0v1425h123v-1122l9 -2l415 1124h121v-1425h-125v1120h-6l-420 -1120h-117z" />
<glyph unicode="&#x419;" horiz-adv-x="874" d="M104 0v1425h123v-1122l9 -2l415 1124h121v-1425h-125v1120h-6l-420 -1120h-117zM164 1702h104q8 -57 51.5 -100t102.5 -43q64 0 107 42t49 101h102q-4 -41 -21 -81.5t-47 -77t-79.5 -59t-110.5 -22.5q-64 0 -114.5 22.5t-80 59t-45.5 76.5t-18 82z" />
<glyph unicode="&#x41a;" horiz-adv-x="849" d="M109 0v1425h122v-632h115q194 0 244 215l100 417h115l-92 -413q-54 -226 -185 -271q56 -16 96.5 -56.5t63 -93t39.5 -128.5l102 -463h-127l-96 446q-30 131 -92 178.5t-154 47.5h-129v-672h-122z" />
<glyph unicode="&#x41b;" horiz-adv-x="882" d="M8 53q39 28 63 52t48.5 66.5t37.5 100t21 147t8 212.5v794h588v-1425h-125v1309h-348v-600q0 -196 -10.5 -317.5t-39.5 -206.5t-71 -132.5t-114 -91.5z" />
<glyph unicode="&#x41c;" horiz-adv-x="1122" d="M106 0v1425h127q137 -340 175 -456l149 -398h6q16 44 80.5 215t71.5 189q3 9 85 221t87 229h129v-1425h-125v1077h-8q-19 -45 -67 -170t-66 -178q-4 -12 -78 -194.5t-78 -194.5h-70l-77 192.5t-76 192.5l-131 348h-9v-1073h-125z" />
<glyph unicode="&#x41d;" horiz-adv-x="860" d="M109 0v1425h124v-641h392v641h127v-1425h-127v674h-392v-674h-124z" />
<glyph unicode="&#x41e;" horiz-adv-x="837" d="M96 319v750q0 80 17 144.5t53.5 116t101 80t152.5 28.5q175 0 249 -93.5t74 -269.5v-723q0 -366 -325 -366q-162 0 -242 86t-80 247zM219 317q0 -90 50 -153.5t149 -63.5q103 0 150.5 65.5t47.5 172.5v756q0 64 -17.5 113t-63 82.5t-115.5 33.5q-56 0 -97.5 -25t-63 -66 t-31 -83.5t-9.5 -87.5v-744z" />
<glyph unicode="&#x41f;" horiz-adv-x="841" d="M109 0v1425h626v-1425h-127v1307h-375v-1307h-124z" />
<glyph unicode="&#x420;" horiz-adv-x="800" d="M109 0v1425h284q105 0 177 -28t111.5 -84t56 -128t16.5 -173q0 -77 -10 -137.5t-35.5 -115t-66.5 -91t-106.5 -57.5t-152.5 -21h-150v-590h-124zM233 707h144q76 0 127 21t78 63t38 94t11 125q0 55 -6 97t-22 82t-43.5 65.5t-72.5 41t-106 15.5h-148v-604z" />
<glyph unicode="&#x421;" horiz-adv-x="786" d="M96 315v752q0 80 16.5 144.5t52.5 116.5t99.5 81t149.5 29q149 0 231 -83t82 -233l-127 -24q1 110 -47 166.5t-141 56.5q-97 0 -144 -69.5t-47 -170.5v-759q0 -93 47 -156.5t144 -63.5q185 0 188 224l129 -23q-4 -155 -87.5 -236t-227.5 -81q-155 0 -236.5 84.5 t-81.5 244.5z" />
<glyph unicode="&#x422;" horiz-adv-x="655" d="M6 1311v114h641v-114h-256v-1311h-129v1311h-256z" />
<glyph unicode="&#x423;" horiz-adv-x="761" d="M20 1423h125l246 -876h6l219 878h121l-297 -1116q-23 -85 -49 -144.5t-50 -92t-56 -51t-56.5 -24t-62.5 -7.5h-64v102h60q107 0 155 189l21 81z" />
<glyph unicode="&#x424;" horiz-adv-x="999" d="M90 453v551q0 78 30.5 143.5t80.5 107.5t111 65t124 23v82h127v-82q66 -4 126.5 -26t111.5 -62t81.5 -105t30.5 -146v-551q0 -159 -99 -246.5t-251 -95.5v-111h-125v111h-2q-149 5 -247.5 94t-98.5 248zM213 453q0 -104 64.5 -163.5t160.5 -64.5v1002h-2q-93 -5 -158 -62 t-65 -161v-551zM563 225q102 5 163.5 63t61.5 165v551q0 101 -69 162t-156 61v-1002z" />
<glyph unicode="&#x425;" horiz-adv-x="741" d="M16 -2l289 739l-274 688h133l207 -563l204 563h136l-281 -688l295 -739h-133l-221 602l-224 -602h-131z" />
<glyph unicode="&#x426;" horiz-adv-x="856" d="M109 0v1425h124v-1306h385v1306h127v-1306h72v-387h-112v268h-596z" />
<glyph unicode="&#x427;" horiz-adv-x="815" d="M72 924v501h121v-499q0 -125 52 -175.5t173 -50.5q89 0 168 33v692h127v-1425h-127v633q-79 -33 -197 -33q-155 0 -236 75t-81 249z" />
<glyph unicode="&#x428;" horiz-adv-x="1245" d="M109 0v1425h124v-1304h324v1304h127v-1304h326v1304h127v-1425h-1028z" />
<glyph unicode="&#x429;" horiz-adv-x="1255" d="M109 0v1425h124v-1304h324v1304h127v-1304h326v1304h127v-1304h75v-389h-112v268h-991z" />
<glyph unicode="&#x42a;" horiz-adv-x="1050" d="M27 1309v116h448v-602h150q108 0 182.5 -28.5t114.5 -84.5t56.5 -125t16.5 -163q0 -100 -16.5 -173t-56.5 -131.5t-112 -88t-177 -29.5h-285v1309h-321zM475 121h148q61 0 106 15.5t72 41t43.5 65t22 81.5t5.5 96q0 140 -55.5 212.5t-198.5 72.5h-143v-584z" />
<glyph unicode="&#x42b;" horiz-adv-x="1105" d="M104 0v1425h125v-602h152q108 0 182.5 -28.5t115 -84.5t57 -125t16.5 -163q0 -100 -17 -173t-56.5 -131.5t-112 -88t-177.5 -29.5h-285zM229 119h150q75 0 125.5 22.5t76.5 66t36 93t10 117.5q0 141 -55 214t-197 73h-146v-586zM864 0v1425h127v-1425h-127z" />
<glyph unicode="&#x42c;" horiz-adv-x="800" d="M98 0v1425h125v-602h150q108 0 182.5 -28.5t114.5 -84.5t56.5 -125t16.5 -163q0 -100 -16.5 -173t-55.5 -131.5t-111 -88t-177 -29.5h-285zM223 119h148q76 0 127 22.5t77 66t36 93t10 117.5q0 141 -55.5 214t-198.5 73h-144v-586z" />
<glyph unicode="&#x42d;" horiz-adv-x="784" d="M43 256l127 27q20 -185 188 -185q69 0 113.5 36t61 87.5t16.5 118.5v328h-344v123h344v307q0 223 -191 223q-80 0 -131 -49t-61 -139l-123 28q17 134 101 205.5t223 71.5q309 0 309 -357v-745q0 -350 -322 -350q-132 0 -213 68.5t-98 201.5z" />
<glyph unicode="&#x42e;" horiz-adv-x="1122" d="M109 0v1425h124v-641h170v293q0 163 76.5 262t235.5 99q313 0 313 -359v-735q0 -177 -80 -267.5t-233 -90.5q-149 0 -230.5 85.5t-81.5 241.5v361h-170v-674h-124zM526 315q0 -89 48.5 -152t138.5 -63q94 0 142 66t48 170v758q0 99 -46 164t-142 65q-53 0 -92 -24 t-59 -64t-29 -82t-9 -88v-750z" />
<glyph unicode="&#x42f;" horiz-adv-x="851" d="M45 0l88 444q20 96 53.5 157.5t100.5 94.5q-103 29 -146 110.5t-43 213.5q0 405 357 405h290v-1425h-124v653h-138q-38 0 -69 -8.5t-63.5 -31t-57 -70t-37.5 -117.5l-84 -426h-127zM223 1020q0 -131 61 -193.5t181 -62.5h156v545h-146q-252 0 -252 -289z" />
<glyph unicode="&#x430;" horiz-adv-x="720" d="M51 274q0 62 13.5 115.5t43.5 102.5t87.5 77.5t136.5 28.5h178v147q0 78 -35.5 118t-124.5 40q-51 0 -97 -27.5t-58 -82.5l-119 36q27 89 99.5 140t180.5 51q140 0 209.5 -62.5t69.5 -209.5v-748h-127v90h-2q-41 -58 -95.5 -80t-125.5 -22q-82 0 -136.5 42.5t-76 104.5 t-21.5 139zM174 281q0 -175 158 -175q83 0 130.5 46t47.5 131v204h-150q-85 0 -135.5 -48.5t-50.5 -157.5z" />
<glyph unicode="&#x431;" horiz-adv-x="735" d="M72 477v223q3 211 25.5 335t71.5 199t140 122q53 27 142.5 60.5t134.5 53.5q28 -54 45 -92q-53 -28 -136 -59.5t-145 -65.5q-64 -34 -104 -110q-43 -75 -47 -275h4q36 62 92 86.5t104 24.5q184 0 240 -160q25 -78 25 -370q0 -119 -9 -211q-8 -73 -37.5 -124.5t-73.5 -78 t-88.5 -38t-95.5 -11.5q-222 0 -270 186q-18 71 -18 305zM195 430q3 -183 16 -225q34 -107 160 -107q64 0 104.5 34.5t54.5 96.5q13 61 13 242q0 227 -17 283q-28 112 -147 112q-107 0 -154 -102q-25 -48 -28 -137q-4 -101 -2 -197z" />
<glyph unicode="&#x432;" horiz-adv-x="757" d="M92 0v1006h266q162 0 237 -68t75 -199q0 -148 -105 -207h2q115 -51 115 -231q0 -158 -81 -229.5t-245 -71.5h-264zM219 117h148q114 0 154 49.5t40 142.5q0 83 -42.5 125.5t-141.5 42.5h-158v-360zM219 582h146q96 0 138 39.5t42 119.5q0 77 -46.5 115.5t-148.5 38.5 h-131v-313z" />
<glyph unicode="&#x433;" horiz-adv-x="645" d="M94 0v1008h514v-113h-387v-895h-127z" />
<glyph unicode="&#x434;" horiz-adv-x="849" d="M29 102l63 11q53 58 71.5 127t22.5 243l15 525h540v-895h72v-371h-117v258h-551v-258h-116v360zM236 113h378v782h-295l-14 -422q-9 -269 -69 -360z" />
<glyph unicode="&#x435;" horiz-adv-x="716" d="M66 492q0 288 30 364q64 164 269 164q122 0 191 -60t81 -172q4 -62 4 -90v-225h-451q0 -13 1.5 -39t1.5 -39q0 -147 16 -192q35 -103 147 -103q146 0 156 168l127 -24q-11 -126 -84 -192t-205 -66q-117 0 -181.5 53t-84.5 133q-18 74 -18 320zM193 575h323v107 q0 49 -6 84t-21.5 68.5t-48.5 51t-82 17.5q-105 0 -145 -94q-17 -45 -20 -234z" />
<glyph unicode="&#x436;" horiz-adv-x="1157" d="M31 0l86 328q23 85 55.5 132.5t95.5 63.5q-97 30 -141 191l-78 291h121l80 -297q12 -46 33 -77t49 -45.5t53.5 -20t56.5 -5.5h74v445h125v-445h74q154 0 192 148l80 297h121l-78 -291q-44 -161 -141 -191q63 -16 95.5 -63.5t55.5 -132.5l86 -328h-125l-73 295 q-23 93 -71 126.5t-122 33.5h-94v-455h-125v455h-94q-77 0 -123.5 -33.5t-69.5 -126.5l-73 -295h-125z" />
<glyph unicode="&#x437;" horiz-adv-x="679" d="M16 238l123 18q8 -154 164 -154q70 0 118 45.5t48 143.5q0 180 -127 180h-100v111h106q121 0 121 161q0 77 -42.5 118.5t-115.5 41.5q-149 0 -161 -151q-4 1 -58 12t-61 14q10 118 85.5 179t194.5 61q134 0 209.5 -65.5t75.5 -202.5q0 -181 -104 -222v-4 q63 -23 83.5 -80.5t20.5 -154.5q0 -81 -24.5 -140.5t-67 -93t-93.5 -49.5t-112 -16q-120 0 -196 60t-87 188z" />
<glyph unicode="&#x438;" horiz-adv-x="794" d="M88 0v1006h123v-775h2q58 120 179.5 381t185.5 394h127v-1006h-127v776h-3l-366 -776h-121z" />
<glyph unicode="&#x439;" horiz-adv-x="794" d="M88 0v1006h123v-775h2q58 120 179.5 381t185.5 394h127v-1006h-127v776h-3l-366 -776h-121zM137 1393h105q8 -57 51 -100.5t102 -43.5q64 0 107 42t49 102h102q-4 -41 -21 -81.5t-47 -77t-79.5 -59t-110.5 -22.5q-64 0 -114.5 22.5t-80 59t-45.5 76.5t-18 82z" />
<glyph unicode="&#x43a;" horiz-adv-x="737" d="M76 0v1006h127v-445h100q155 0 193 148l79 297h121l-78 -291q-44 -161 -141 -191q64 -16 96.5 -63.5t55.5 -132.5l86 -328h-125l-74 295q-23 93 -70.5 126.5t-121.5 33.5h-121v-455h-127z" />
<glyph unicode="&#x43b;" horiz-adv-x="755" d="M10 59q62 41 92.5 82.5t45 111t14.5 189.5v566h518v-1008h-129v895h-275v-463q0 -200 -45.5 -305.5t-162.5 -161.5z" />
<glyph unicode="&#x43c;" horiz-adv-x="991" d="M92 0v1006h123q12 -24 69.5 -151t94.5 -204q35 -78 115 -241h2l127 272l157 324h119v-1006h-127v735h-6l-121 -260q-22 -47 -64 -131t-55 -111h-67l-117 238q-85 182 -121 250l-2 -2v-719h-127z" />
<glyph unicode="&#x43d;" horiz-adv-x="761" d="M94 0v1008h127v-437h320v437h131v-1008h-131v461h-320v-461h-127z" />
<glyph unicode="&#x43e;" horiz-adv-x="729" d="M68 492q0 294 30 364q27 76 95.5 120t175.5 44q206 0 264 -158q29 -84 29 -299v-100q0 -112 -11 -225q-8 -73 -37.5 -124.5t-73.5 -78t-89.5 -38t-96.5 -11.5q-220 0 -268 186q-18 76 -18 320zM193 455q0 -203 16 -250q30 -105 158 -105q60 0 101.5 34.5t55.5 94.5 q15 92 15 258q0 254 -19 312q-17 53 -57 80.5t-96 27.5q-112 0 -152 -94q-22 -60 -22 -293v-65z" />
<glyph unicode="&#x43f;" horiz-adv-x="770" d="M96 0v1008h580v-1008h-127v897h-326v-897h-127z" />
<glyph unicode="&#x440;" horiz-adv-x="731" d="M72 -395v1401h123v-86h4q39 52 82 76t120 24q30 0 57.5 -5t60 -21t57.5 -41.5t44.5 -71t26.5 -105.5q6 -63 6 -264q0 -103 -1 -149t-8.5 -113t-22.5 -109q-27 -73 -81 -113t-151 -40q-67 0 -115.5 28t-74.5 70h-4v-481h-123zM195 303q0 -87 41.5 -140.5t123.5 -53.5 q120 0 150 116q16 65 16 293q0 215 -18 277q-17 56 -51 80t-92 24q-79 0 -124.5 -51t-45.5 -137v-408z" />
<glyph unicode="&#x441;" horiz-adv-x="679" d="M68 492q0 296 30 366q58 162 267 162q272 0 272 -281l-129 -18v2q8 80 -34.5 132t-115.5 52q-105 0 -143 -96q-15 -32 -19 -105t-6 -207v-30q4 -219 17 -264q37 -107 149 -107q75 0 114 46t38 137l129 -23q-6 -272 -287 -272q-115 0 -181 53t-83 133q-18 74 -18 320z" />
<glyph unicode="&#x442;" horiz-adv-x="581" d="M4 895v113h574v-113h-226v-895h-125v895h-223z" />
<glyph unicode="&#x443;" horiz-adv-x="667" d="M10 1006h133q17 -65 34.5 -138.5t38 -163.5t32.5 -139q80 -334 88 -377h6q15 66 44.5 206.5t45.5 205.5l98 406h127l-303 -1182q-29 -106 -80.5 -165.5t-152.5 -59.5h-47v108h32q60 0 91.5 41t52.5 137l29 113z" />
<glyph unicode="&#x444;" horiz-adv-x="921" d="M70 524q0 251 36 330q77 160 291 168v389h123q0 -65 1 -194t1 -195q138 -6 216.5 -67.5t97.5 -168.5q14 -74 14 -249q0 -199 -4 -252q-10 -131 -72 -199q-71 -86 -252 -104q0 -64 -1 -190t-1 -191h-121v381q-115 13 -181 44.5t-105 106.5q-38 67 -41 193q-2 47 -2 198z M193 446q0 -24 1 -74t1 -73q3 -75 22 -109q46 -85 180 -96v807q-189 -12 -198 -178q-6 -80 -6 -277zM520 94q131 9 180 96q24 43 27 121l-2 293q0 42 -1 69t-5.5 62t-12.5 57t-23 45.5t-36.5 36.5t-53.5 20.5t-73 6.5v-807z" />
<glyph unicode="&#x445;" horiz-adv-x="643" d="M12 0l244 516l-233 492h141l160 -383l155 383h146l-230 -492l238 -516h-141l-168 406l-174 -406h-138z" />
<glyph unicode="&#x446;" horiz-adv-x="768" d="M94 0v1008h127v-889h320v889h129v-889h67v-377h-116v258h-527z" />
<glyph unicode="&#x447;" horiz-adv-x="712" d="M53 623v385h127v-349q0 -87 31 -126t115 -39q44 0 94 17t88 46v451h125v-1008h-127v444q-103 -65 -219 -65q-121 0 -177.5 61.5t-56.5 182.5z" />
<glyph unicode="&#x448;" horiz-adv-x="1132" d="M96 0v1008h125v-889h279v889h127v-889h284v889h125v-1008h-940z" />
<glyph unicode="&#x449;" horiz-adv-x="1157" d="M96 0v1008h123v-889h281v889h127v-889h280v889h127v-889h68v-355h-113v236h-893z" />
<glyph unicode="&#x44a;" horiz-adv-x="931" d="M27 895v113h405v-406h119q77 0 136 -15.5t95.5 -41.5t59 -64.5t31 -79t8.5 -90.5q0 -73 -14.5 -126.5t-49.5 -96.5t-100 -65.5t-160 -22.5h-254v895h-276zM432 119h117q207 0 207 188q0 83 -48 129.5t-163 46.5h-113v-364z" />
<glyph unicode="&#x44b;" horiz-adv-x="987" d="M90 0v1008h129v-406h121q77 0 136 -15.5t95.5 -41.5t59 -64.5t31 -79t8.5 -90.5q0 -73 -14.5 -126.5t-49.5 -96.5t-100 -65.5t-160 -22.5h-256zM219 119h119q205 0 205 188q0 84 -47.5 130t-161.5 46h-115v-364zM758 0v1008h129v-1008h-129z" />
<glyph unicode="&#x44c;" horiz-adv-x="710" d="M86 0v1008h127v-406h121q77 0 136 -15.5t95.5 -41.5t59 -64.5t31 -79t8.5 -90.5q0 -72 -15 -126t-50 -97t-99.5 -65.5t-157.5 -22.5h-256zM213 119h119q207 0 207 188q0 176 -209 176h-117v-364z" />
<glyph unicode="&#x44d;" horiz-adv-x="692" d="M45 225q11 0 65.5 8t63.5 11q6 -68 44.5 -106t105.5 -38q63 0 98 26.5t53 80.5q14 43 14 248h-299v114h297q-3 200 -20 242q-41 96 -143 96q-63 0 -103.5 -39t-44.5 -110l-131 22q11 109 85.5 175.5t199.5 66.5q107 0 167.5 -42t88.5 -120q28 -83 28 -366 q0 -248 -18 -322q-52 -186 -266 -186q-263 0 -285 239z" />
<glyph unicode="&#x44e;" horiz-adv-x="974" d="M78 0v1006h125v-437h135q4 209 29 287q57 160 260 160q184 0 239 -127q39 -89 39 -352v-66q0 -133 -10 -233q-8 -73 -35.5 -124.5t-69 -78t-85 -38t-93.5 -11.5q-210 0 -258 186q-16 53 -16 289h-135v-461h-125zM459 412q0 -17 0.5 -51.5t1 -50.5t2 -39.5t4 -38.5 t6.5 -27q30 -105 150 -105q50 0 94 32t55 93q10 61 10 260q0 247 -16 310q-27 108 -143 108q-102 0 -142 -94q-19 -52 -22 -279v-118z" />
<glyph unicode="&#x44f;" horiz-adv-x="747" d="M47 0l82 317q28 128 107 164q-160 54 -160 234q0 139 77.5 216t239.5 77h266v-1008h-127v444h-124q-67 0 -105.5 -33.5t-60.5 -125.5l-68 -285h-127zM205 709q0 -156 196 -156h131v342h-122q-205 0 -205 -186z" />
<glyph unicode="&#x451;" horiz-adv-x="716" d="M66 492q0 288 30 364q64 164 269 164q122 0 191 -60t81 -172q4 -62 4 -90v-225h-451q0 -13 1.5 -39t1.5 -39q0 -147 16 -192q35 -103 147 -103q146 0 156 168l127 -24q-11 -126 -84 -192t-205 -66q-117 0 -181.5 53t-84.5 133q-18 74 -18 320zM152 1217v131h114v-131 h-114zM193 575h323v107q0 49 -6 84t-21.5 68.5t-48.5 51t-82 17.5q-105 0 -145 -94q-17 -45 -20 -234zM461 1217v131h112v-131h-112z" />
<glyph unicode="&#x452;" horiz-adv-x="768" d="M0 1182v96h94v209h125v-209h332v-96h-332v-295h4q30 56 86.5 89.5t126.5 33.5q171 0 223 -152q27 -85 27 -414q0 -211 -18 -290q-21 -100 -98 -155.5t-193 -49.5v108q131 3 166 115q14 47 14 254q0 305 -18 360q-19 47 -52.5 72t-91.5 25q-86 0 -132 -59.5t-46 -145.5 v-678h-123v1182h-94z" />
<glyph unicode="&#x453;" horiz-adv-x="645" d="M94 0v1008h514v-113h-387v-895h-127zM236 1167l137 326l121 -43l-189 -311z" />
<glyph unicode="&#x454;" horiz-adv-x="710" d="M90 492q0 277 31 366q64 162 270 162q130 0 196 -64t72 -180l-127 -18q-4 72 -43.5 110.5t-105.5 38.5q-101 0 -145 -96q-20 -50 -23 -248h293v-108h-293v-90q0 -102 16 -164q36 -103 150 -103q139 0 151 150l127 -19q-22 -243 -284 -243q-117 0 -183 53t-83 133 q-19 78 -19 320z" />
<glyph unicode="&#x455;" horiz-adv-x="677" d="M57 252l127 20q-2 -79 39.5 -125t114.5 -45q88 0 123 41t35 129q0 81 -32 119.5t-136 79.5q-150 58 -203 123.5t-53 161.5q0 122 70 194t206 72q139 0 208 -69t69 -199l-131 -19q4 83 -36.5 126.5t-111.5 43.5q-83 0 -117 -42.5t-34 -106.5q0 -61 39 -101.5t155 -79.5 q75 -29 122 -59.5t70 -69.5t30 -76.5t7 -95.5q0 -135 -66.5 -211.5t-209.5 -76.5q-279 0 -285 266z" />
<glyph unicode="&#x456;" horiz-adv-x="333" d="M100 0v1008h127v-1008h-127zM100 1253v131h129v-131h-129z" />
<glyph unicode="&#x457;" horiz-adv-x="333" d="M-47 1202v131h115v-131h-115zM100 0v1008h127v-1008h-127zM262 1202v131h113v-131h-113z" />
<glyph unicode="&#x458;" horiz-adv-x="333" d="M-35 -295h23q70 0 93 40.5t23 133.5v1129h127v-1153q0 -59 -9.5 -104t-33 -83t-68.5 -58t-110 -20h-45v115zM104 1255v131h129v-131h-129z" />
<glyph unicode="&#x459;" horiz-adv-x="1140" d="M8 59q61 41 91 82.5t44.5 111t14.5 189.5v566h481v-406h119q96 0 163 -22.5t102 -65t49.5 -92.5t14.5 -115q0 -57 -9 -102t-31 -84.5t-58.5 -65t-93 -40.5t-131.5 -15h-256v895h-234v-463q0 -201 -46 -306t-165 -161zM639 119h117q62 0 104.5 15t64 43t30 58.5t8.5 69.5 q0 83 -48 129.5t-163 46.5h-113v-362z" />
<glyph unicode="&#x45a;" horiz-adv-x="1161" d="M98 0v1008h127v-418h299v418h131v-418h117q97 0 164.5 -21.5t103 -61.5t50 -88t14.5 -112q0 -73 -14.5 -125.5t-49.5 -95.5t-100 -64.5t-160 -21.5h-256v469h-299v-469h-127zM655 119h117q116 0 160.5 51.5t44.5 134.5q0 79 -47 121.5t-162 42.5h-113v-350z" />
<glyph unicode="&#x45b;" horiz-adv-x="768" d="M2 1182v98h94v207h125v-207h330v-98h-330v-295h4q74 119 217 119q120 0 177 -72.5t57 -194.5v-739h-127v702q0 175 -158 175q-82 0 -127 -52t-45 -133v-692h-123v1182h-94z" />
<glyph unicode="&#x45c;" horiz-adv-x="739" d="M76 0v1006h127v-445h100q155 0 193 148l79 297h121l-78 -291q-44 -161 -141 -191q64 -16 96.5 -63.5t55.5 -132.5l86 -328h-125l-74 295q-23 93 -70.5 126.5t-121.5 33.5h-121v-455h-127zM287 1167l137 326l121 -43l-189 -311z" />
<glyph unicode="&#x45e;" horiz-adv-x="667" d="M10 1006h133q17 -65 34.5 -138.5t38 -163.5t32.5 -139q80 -334 88 -377h6q15 66 44.5 206.5t45.5 205.5l98 406h127l-303 -1182q-29 -106 -80.5 -165.5t-152.5 -59.5h-47v108h32q60 0 91.5 41t52.5 137l29 113zM86 1393h104q8 -57 51.5 -100.5t102.5 -43.5q64 0 107 42 t49 102h102q-4 -41 -21 -81.5t-47 -77t-79.5 -59t-110.5 -22.5q-64 0 -114.5 22.5t-80 59t-45.5 76.5t-18 82z" />
<glyph unicode="&#x45f;" horiz-adv-x="765" d="M96 0v1008h127v-887h322v887h127v-1008h-228v-268h-120v268h-228z" />
<glyph unicode="&#x490;" horiz-adv-x="724" d="M109 0v1425h458v246h115v-362h-449v-1309h-124z" />
<glyph unicode="&#x491;" horiz-adv-x="645" d="M94 0v1008h400v231h114v-344h-387v-895h-127z" />
<glyph unicode="&#x4d9;" horiz-adv-x="716" d="M68 309v226h450q0 13 -1 38t-1 39q0 148 -16 193q-35 102 -148 102q-145 0 -155 -168l-127 25q11 126 83.5 192t204.5 66q212 0 267 -186q18 -74 18 -320q0 -267 -31 -364q-64 -164 -268 -164q-122 0 -191 60t-81 171q-4 62 -4 90zM193 326q0 -38 3 -67.5t13 -60 t26.5 -50t45.5 -32t69 -12.5q105 0 146 95q17 45 20 233h-323v-106z" />
<glyph unicode="&#x2000;" horiz-adv-x="880" />
<glyph unicode="&#x2001;" horiz-adv-x="1761" />
<glyph unicode="&#x2002;" horiz-adv-x="880" />
<glyph unicode="&#x2003;" horiz-adv-x="1761" />
<glyph unicode="&#x2004;" horiz-adv-x="587" />
<glyph unicode="&#x2005;" horiz-adv-x="440" />
<glyph unicode="&#x2006;" horiz-adv-x="293" />
<glyph unicode="&#x2007;" horiz-adv-x="293" />
<glyph unicode="&#x2008;" horiz-adv-x="220" />
<glyph unicode="&#x2009;" horiz-adv-x="352" />
<glyph unicode="&#x200a;" horiz-adv-x="97" />
<glyph unicode="&#x2010;" horiz-adv-x="684" d="M100 530v113h506v-113h-506z" />
<glyph unicode="&#x2011;" horiz-adv-x="684" d="M100 530v113h506v-113h-506z" />
<glyph unicode="&#x2012;" horiz-adv-x="684" d="M100 530v113h506v-113h-506z" />
<glyph unicode="&#x2013;" horiz-adv-x="1024" d="M41 481v121h942v-121h-942z" />
<glyph unicode="&#x2014;" horiz-adv-x="2048" d="M41 481v121h1966v-121h-1966z" />
<glyph unicode="&#x2018;" horiz-adv-x="397" d="M119 1069v154l80 213h73l-45 -209h35v-158h-143z" />
<glyph unicode="&#x2019;" horiz-adv-x="397" d="M119 1071l45 209h-35v156h143v-154l-82 -211h-71z" />
<glyph unicode="&#x201a;" horiz-adv-x="335" d="M88 -219l43 209h-35v155h144v-153l-80 -211h-72z" />
<glyph unicode="&#x201c;" horiz-adv-x="536" d="M86 1069v154l80 213h74q-18 -58 -45 -209h34v-158h-143zM299 1069v154l80 213h74q-17 -58 -45 -209h34v-158h-143z" />
<glyph unicode="&#x201d;" horiz-adv-x="536" d="M100 1071l45 209h-34v156h143v-154l-82 -211h-72zM301 1071l43 209h-35v156h144v-154l-80 -211h-72z" />
<glyph unicode="&#x201e;" horiz-adv-x="536" d="M88 -221l45 209h-35v155h144v-153l-82 -211h-72zM289 -221l43 209h-35v155h143v-153l-80 -211h-71z" />
<glyph unicode="&#x2026;" horiz-adv-x="1179" d="M96 0v150h144v-150h-144zM512 0v150h141v-150h-141zM934 0v150h143v-150h-143z" />
<glyph unicode="&#x202f;" horiz-adv-x="352" />
<glyph unicode="&#x2039;" horiz-adv-x="509" d="M86 475l219 381h125l-215 -381l215 -381h-125z" />
<glyph unicode="&#x203a;" horiz-adv-x="509" d="M86 94l215 381l-215 381h123l219 -381l-219 -381h-123z" />
<glyph unicode="&#x205f;" horiz-adv-x="440" />
<glyph unicode="&#x20ac;" d="M31 573v80h69v140h-69v79h69v203q0 165 75 264t235 99q137 0 218 -71.5t85 -199.5l-125 -20q-12 174 -180 174q-91 0 -137 -67t-46 -167v-215h322v-79h-322v-140h322v-80h-322v-260q0 -90 46.5 -150.5t136.5 -60.5q160 0 180 177l129 -19q-12 -133 -93 -203.5t-214 -70.5 q-148 0 -229 82.5t-81 240.5v264h-69z" />
<glyph unicode="&#x2122;" horiz-adv-x="1306" d="M66 1329v96h444v-96h-172v-700h-100v700h-172zM586 627v796h98l213 -520l207 520h96v-796h-100v522h-6l-160 -385h-82l-162 393h-6v-530h-98z" />
<glyph unicode="&#xe000;" horiz-adv-x="1003" d="M0 0v1004h1004v-1004h-1004z" />
</font>
</defs>
</svg>
