<?xml version="1.0" standalone="no"?>
<!DOCTYPE svg PUBLIC "-//W3C//DTD SVG 1.1//EN" "http://www.w3.org/Graphics/SVG/1.1/DTD/svg11.dtd" >
<svg xmlns="http://www.w3.org/2000/svg">
<metadata></metadata>
<defs>
<font id="AvalonM" horiz-adv-x="563" >
<font-face units-per-em="2048" ascent="1638" descent="-410" />
<missing-glyph horiz-adv-x="409" />
<glyph horiz-adv-x="0" />
<glyph horiz-adv-x="2048" />
<glyph unicode=" "  horiz-adv-x="409" />
<glyph unicode="&#x09;" horiz-adv-x="409" />
<glyph unicode="&#xa0;" horiz-adv-x="409" />
<glyph unicode="!" horiz-adv-x="274" d="M-27 27q3 56 60 59q25 2 39.5 -12t13.5 -37q-6 -57 -59 -60q-25 -2 -40 12t-14 38zM57 147q-16 3 2 97q33 158 117 342q75 166 154 272q23 29 55 55.5t43 24.5q4 -1 -1 -16t-21 -45q-69 -129 -144 -289q-110 -242 -160 -377q-25 -67 -45 -64z" />
<glyph unicode="&#x22;" horiz-adv-x="346" d="M217 788l57 154q18 49 50 43q52 -9 28 -55q-22 -54 -135 -142zM373 788l57 154q18 49 49 43q51 -9 27 -55q-23 -53 -133 -142z" />
<glyph unicode="#" horiz-adv-x="655" d="M-33 231q0 12 47 21q29 6 103 10l33 76l16 37q-42 0 -133 -6q-12 -3 -19 8q0 21 170 35q120 228 148 213q17 -4 -9 -62q-10 -19 -38 -75l-37 -74q10 2 55 2q77 0 100 -2q43 76 93 153q21 31 33 44t18 10q7 -4 4 -19q0 -22 -8 -35q-45 -87 -78 -157q36 -2 102 -13 q7 -1 16.5 -6t15.5 -10t5 -6q-4 -11 -33 -8q-99 6 -122 6l-19 -35q-13 -33 -33 -74l123 -12q11 -1 20.5 -6t14.5 -10.5t4 -8.5q-7 -11 -39 -8q-111 7 -137 8q-20 -47 -70 -180q-21 -55 -45 -55q-14 0 -2 53q22 88 58 184q-23 2 -91 2q-55 0 -69 -2q-6 -17 -29.5 -76.5 t-40.5 -105.5q-21 -55 -45 -55q-14 0 -2 53q23 95 57 184q-61 0 -120 -6q-9 0 -17 8zM178 266q14 2 70 2q67 0 90 -2q17 46 29 70l18 39q-27 2 -98 2q-48 0 -58 -2z" />
<glyph unicode="$" horiz-adv-x="378" d="M-106 72q-9 59 43 102q48 45 57 31q3 -3 -12 -12q-19 -16 -35 -35q-26 -33 -17 -76q9 -44 43 -53q17 31 170 299l7 108q8 56 32 103q56 92 146 92h18q22 35 43 63l4 -20q-16 -24 -28 -47q39 -6 45 -37q9 -49 -56 -84q19 28 19 57t-19 45l-123 -200v-84q-3 -154 -84 -244 q-67 -76 -153 -76h-10q-34 -51 -45 -72l-5 23l27 49q-58 15 -67 68zM-6 23h2h8q138 6 141 260zM229 449q1 1 13.5 21t38 60t55.5 86h-12q-60 0 -84 -71q-14 -38 -11 -96z" />
<glyph unicode="%" horiz-adv-x="753" d="M29 360q0 38 14 76q40 112 178 174q32 14 35 8q0 -1 -6 -4t-14.5 -8.5t-12.5 -9.5q-89 -89 -129 -229q-25 -91 10 -103q34 -9 84 53q63 76 93 191q15 62 0 102q-3 12 -29 39q-3 7 -2 8q3 3 6 3.5t6 -1.5t5 -3.5t6 -6t6 -6.5q36 -31 122 -31q117 0 170 21q10 7 31 18 q35 15 37 8q1 0 -25 -26l-6 -7q-5 -8 -16 -22.5t-25 -30.5q-121 -158 -243 -333q-148 -211 -230 -344q-17 -26 -26.5 -37.5t-12.5 -10.5q-10 3 11 56q63 144 202 350q70 107 187 250q31 39 106 114q-73 -31 -164 -28q-65 3 -98 26q29 -60 29 -110q0 -46 -21 -90 q-36 -77 -99.5 -126.5t-109.5 -41.5q-69 15 -69 112zM348 106q0 36 14 74q26 77 87 131t118 54q80 0 80 -113q0 -46 -18 -92q-35 -76 -99 -129q-63 -48 -112 -39q-70 15 -70 114zM414 111q-25 -94 10 -103q34 -9 86 55q61 76 90 191q10 45 8 59q-3 29 -24 35q-36 9 -90 -65 q-54 -75 -80 -172z" />
<glyph unicode="&#x26;" horiz-adv-x="905" d="M4 143q-15 160 131 285q80 68 262 145q18 99 72 185q132 211 340 205q86 -3 92 -74q9 -89 -168 -195q-45 -27 -117 -55q-16 -6 -133 -53q-27 -144 -18 -283q8 -110 37 -227q37 21 110 90q47 44 80 118t35 136q3 52 -8 96q-31 23 -64 55q-11 20 -2 29q37 20 70 -45 q47 -35 111 -35q95 0 110 47q3 6 -1 13.5t-9 12t-4 5.5q5 3 12 0.5t13.5 -11.5t7.5 -20q4 -36 -33 -61t-94 -25q-44 0 -97 29q21 -52 21 -94q-3 -157 -115 -269q-73 -73 -135 -102q28 -86 76 -160q70 -110 155 -110q16 0 31 6q8 3 10 0q7 -12 -26 -20q-26 -7 -51 -7 q-113 0 -189 101q-59 74 -80 153q-85 -33 -188 -33q-229 0 -244 168zM94 141q9 -142 154 -145q93 -3 178 39q-36 103 -45 246q-9 133 12 268q-119 -68 -180 -129q-128 -128 -119 -279zM489 610q58 25 213 107q180 112 177 170q-3 55 -70 55q-82 0 -160 -63 q-75 -60 -114 -140q-26 -54 -46 -129z" />
<glyph unicode="'" horiz-adv-x="194" d="M217 788l57 154q18 49 50 43q52 -9 28 -55q-22 -54 -135 -142z" />
<glyph unicode="(" horiz-adv-x="694" d="M127 102q0 248 106 461q76 157 222 332q129 153 264 258q175 134 325 199q30 12 33 6q3 -7 -24 -19q-116 -57 -273 -192q-321 -278 -485 -639q-96 -215 -96 -473q0 -199 90 -371q5 -11 8 -16.5t5.5 -10.5t4 -7t2.5 -1q-12 -9 -33 17q-149 198 -149 456z" />
<glyph unicode=")" horiz-adv-x="694" d="M-369 -377q-3 6 25 19q125 62 272 192q322 282 486 639q96 218 96 469q0 190 -90 375q-18 36 -21 35q12 9 33 -17q150 -193 150 -456q0 -246 -107 -461q-164 -343 -485 -590q-171 -133 -326 -199q-30 -12 -33 -6z" />
<glyph unicode="*" horiz-adv-x="710" d="M246 760q-4 20 12 32.5t55 20.5l158 27q-45 26 -131 84q-49 34 -49 57q0 31 31 31q22 0 59 -43l98 -117q0 60 10 158q5 38 16.5 55t31.5 14q26 -3 26 -32q0 -19 -12 -56q-32 -81 -55 -145q63 37 139 72q40 16 57 16q33 0 33 -31q0 -28 -74 -43q-21 -4 -151 -29 q56 -32 131 -83q45 -33 45 -62t-31 -29q-25 0 -59 43q-68 80 -94 121q-2 -35 -13 -159q-9 -78 -47 -72q-26 3 -26 31q0 19 12 59q18 72 57 145q-49 -27 -143 -73q-35 -15 -53 -15q-26 0 -33 23z" />
<glyph unicode="+" horiz-adv-x="559" d="M12 336q-3 11 9.5 20.5t41.5 16.5q64 15 148 18h25q18 40 53 96q60 90 82 74q-24 -40 -58 -106l-26 -64q84 -6 116 -14q99 -21 99 -55q-1 -1 -6.5 0t-18.5 4q-91 16 -207 16l-8 -20q-32 -98 -41 -132l-16 -63q-3 -12 -12 -12q-18 0 -15 53q3 61 31 147l10 27 q-35 0 -129 -4q-12 0 -27 -1t-22.5 -1t-15 -0.5t-10.5 -0.5t-3 1z" />
<glyph unicode="," horiz-adv-x="204" d="M-100 -102q56 82 84 153q21 51 49 45q54 -9 26 -57q-27 -67 -159 -141z" />
<glyph unicode="-" horiz-adv-x="350" d="M4 315q29 3 94 27q70 26 99 33q83 21 96 -8q15 -38 -68 -56q-52 -12 -119 -12q-73 0 -102 16z" />
<glyph unicode="." horiz-adv-x="194" d="M-47 31q3 58 57 61q25 1 40 -13.5t13 -37.5q-3 -54 -57 -57q-25 -2 -39.5 10.5t-13.5 36.5z" />
<glyph unicode="/" horiz-adv-x="307" d="M-117 -260q-12 9 8 78q99 330 308 684q174 295 411 547q43 45 52 36q4 -4 -27 -45q-146 -196 -348 -538q-222 -376 -369 -699q-6 -13 -11 -23.5t-9 -18t-7.5 -12.5t-5 -7.5t-2.5 -1.5z" />
<glyph unicode="0" horiz-adv-x="483" d="M-23 170q0 58 21 125q64 198 268 305q57 27 66 18q-7 -4 -17 -10q-26 -15 -39 -28q-155 -152 -213 -383q-14 -55 -14 -99q0 -63 41 -78q53 -18 139 93q98 131 144 321q24 100 -2 168q-13 27 -32 49.5t-28.5 31.5t-7.5 11q10 3 35 -16q100 -71 100 -221q0 -86 -32 -160 q-61 -146 -164 -231q-95 -80 -162 -68q-44 10 -70 49q-33 47 -33 123z" />
<glyph unicode="1" horiz-adv-x="284" d="M-14 63q14 124 90 295q62 139 129 230q-48 -22 -99 -58q-7 -5 -23 -19t-27.5 -23.5t-12.5 -8.5q-7 7 18 35q6 6 11.5 12t13.5 12.5t14 10.5t17.5 11.5t17.5 11.5t22.5 13t24.5 13.5t29.5 16.5t32.5 18q21 12 32 12q26 0 -4 -59q-30 -57 -104 -215q-93 -210 -125 -318 q-10 -35 -21 -52t-22 -15q-23 3 -14 77z" />
<glyph unicode="2" horiz-adv-x="450" d="M-102 12q-3 8 22 29q36 28 84 39q19 11 55 39q80 62 154 151q104 131 104 230q0 93 -84 90q-82 -3 -122 -72q-31 -54 -25 -110q3 -40 31 -76q-36 20 -51 69q-15 59 14 127q52 113 172 119q73 4 114.5 -34t41.5 -105q0 -122 -136 -252q-93 -90 -190 -147q-14 -9 -41 -25 q70 4 84 4q110 -3 180 -39q18 -10 32.5 -25t12.5 -20l-33 10q-66 17 -206 17q-88 0 -164 -13q-49 -9 -49 -6z" />
<glyph unicode="3" horiz-adv-x="415" d="M-221 -47q27 -80 133 -80q150 0 233 150q43 79 43 145q0 79 -49 106q-7 -4 -55 -22q-20 -6 -27 -2q0 22 24.5 33t49.5 6q55 28 96 78q62 74 62 141q0 93 -88 96q-71 3 -105 -37q-29 -37 -26 -69q3 -35 20 -58q-30 15 -39 52q-9 41 15 81q51 79 153 76q72 0 114 -36.5 t42 -96.5q0 -95 -99 -172q-65 -49 -122 -63q120 -21 120 -144q0 -59 -51 -133q-50 -74 -135.5 -117.5t-177.5 -42.5q-57 2 -93.5 31t-37.5 78z" />
<glyph unicode="4" horiz-adv-x="499" d="M-72 123q-6 12 15 24q40 37 96 119q64 91 168 223q139 148 262 154q28 -3 49 -12q-40 -5 -61 -10q-110 -41 -236 -179l-149 -178q-65 -77 -92 -98q38 4 124 8q23 0 109 -4l39 104q58 141 135 240q47 59 66 51q15 -6 -19 -73q-27 -55 -86 -191q-42 -103 -53 -135 q35 -3 62.5 -8.5t40.5 -11.5t10 -11q-4 -3 -21 0q-47 6 -100 6q-48 -120 -84 -239q-18 -64 -39 -64t-12 76q8 85 51 225q-35 0 -201 -16q-71 -9 -74 0z" />
<glyph unicode="5" horiz-adv-x="391" d="M-219 -74q27 -56 117 -53q158 3 245 170q49 90 52 160q3 110 -89 110q-34 0 -59 -14q-23 -33 -33 -43q-17 -17 -26 -14q-6 5 -3.5 15t16 24.5t32.5 25.5q49 83 92 197q22 61 22 82q0 3 -7.5 9t-6.5 9q4 11 19 23q35 15 106 12q87 -3 148 -27q36 -14 30 -45q-3 -13 -7 -18 t-9 -2l2 7q2 6 2 11q0 25 -125 25q-58 0 -88 -6q-12 -38 -47 -99q-55 -97 -103 -166q40 19 78 19q65 0 104.5 -42.5t39.5 -109.5q0 -77 -58 -159q-123 -182 -329 -179q-49 0 -82 22.5t-33 55.5z" />
<glyph unicode="6" horiz-adv-x="483" d="M-10 176q0 53 22 127q43 134 146 258q75 92 176.5 149.5t189.5 57.5q25 0 43 -6.5t24 -14t3 -10.5q4 4 -7 8q-20 7 -55 7q-138 -3 -303 -222q-116 -154 -157 -321q-13 -57 -13 -92q0 -102 66 -105q45 -5 91 52t75 155q18 65 18 107q0 84 -61 108q-36 15 -39 12q9 11 53 0 q125 -37 125 -172q0 -35 -12 -73q-31 -94 -107 -152q-71 -56 -145 -53q-55 3 -90 47q-43 49 -43 133z" />
<glyph unicode="7" horiz-adv-x="440" d="M-25 -135q-3 34 7 74q30 141 122 292q101 167 283 318q26 21 39 29q-18 0 -150 -3q-95 -3 -133 -20q-22 -9 -43 -47l33 12l-45 -49q-16 -28 -29 -20q-5 2 13 36l47 91q14 34 25.5 42t56.5 9q125 9 252 -29q9 9 30 18q37 15 45 -2q3 -5 -5.5 -12.5t-28.5 -17.5 q-33 -21 -56 -47q-107 -118 -219 -275q-132 -189 -192 -354l-15 -37q-15 -43 -26 -43t-11 35z" />
<glyph unicode="8" horiz-adv-x="432" d="M-29 119q-3 58 29 123q43 87 188 196q-27 89 -12 160q13 66 74.5 107t136.5 36q54 -3 90 -39q33 -33 25 -38q-12 8 -35 26q-36 28 -80 25q-99 -3 -129 -103q-15 -56 0 -123l82 62q133 95 195 92q23 0 35.5 -14t7.5 -27q-17 14 -50 14q-68 -3 -159 -71l-105 -78 q2 -8 19 -57q37 -101 34 -166q-3 -74 -41 -129q-81 -124 -194 -121q-108 3 -111 125zM20 98q0 -87 62 -90q78 -3 131 111q25 55 25 117q0 52 -43 180q-106 -96 -152 -205q-23 -57 -23 -113z" />
<glyph unicode="9" horiz-adv-x="479" d="M-209 -115q9 5 41.5 -5.5t36.5 -10.5q233 0 389 338q98 209 98 325q0 88 -57 91q-82 3 -152 -146q-36 -76 -36 -166q0 -83 65 -110l25 -6q10 0 10 -2q0 -14 -49 -5q-126 24 -129 158q-3 65 28 131q41 83 117 129q61 38 123 35q106 -9 115 -156q9 -131 -78 -303 q-78 -153 -205.5 -242.5t-259.5 -89.5q-34 0 -55 9q-13 5 -22 13.5t-5 12.5z" />
<glyph unicode=":" horiz-adv-x="200" d="M-53 31q3 58 57 61q25 1 40 -13.5t13 -37.5q-3 -54 -57 -57q-25 -2 -39.5 10.5t-13.5 36.5zM51 369q3 58 60 61q25 1 40 -13.5t13 -37.5q-6 -54 -60 -57q-25 -2 -39.5 10.5t-13.5 36.5z" />
<glyph unicode=";" horiz-adv-x="210" d="M-104 -102q55 80 84 153q18 51 49 45q54 -9 26 -57q-27 -67 -159 -141zM51 369q3 58 60 61q25 1 40 -13.5t13 -37.5q-6 -54 -60 -57q-25 -2 -39.5 10.5t-13.5 36.5z" />
<glyph unicode="&#x3c;" horiz-adv-x="727" d="M31 328q0 1 41 16q276 94 606 170q35 9 39 -2q1 -1 -2 -3t-10.5 -5t-18.5 -6q-399 -118 -530 -176q138 -103 340 -203q14 -7 24 -12.5t14 -8.5t3 -4q-6 -9 -54 6q-229 81 -432 209q-11 8 -16 13t-4 6z" />
<glyph unicode="=" horiz-adv-x="522" d="M4 260q-3 9 8 17.5t37 15.5q61 15 146 18q77 3 155 -14q45 -11 65.5 -20.5t16.5 -18.5q0 -5 -22 -2t-84 6q-114 4 -121 4l-131 -4zM41 369q-2 8 9.5 16.5t35.5 15.5q81 19 147 19q88 0 154 -14q44 -9 65.5 -19.5t16.5 -21.5q0 3 -107 6q-114 4 -120 4q-36 0 -131 -6 q-67 -3 -70 0z" />
<glyph unicode="&#x3e;" horiz-adv-x="727" d="M-74 121q-1 1 2 3t10.5 5t18.5 6q399 118 530 176q-138 103 -340 203q-14 7 -24 12.5t-14 8.5t-3 4q6 9 54 -7q242 -84 432 -208q11 -8 16 -13t4 -6q0 -1 -41 -16q-276 -94 -606 -170q-35 -9 -39 2z" />
<glyph unicode="?" horiz-adv-x="458" d="M-27 27q3 56 60 59q25 2 39.5 -12t13.5 -37q-6 -57 -59 -60q-25 -2 -40 12t-14 38zM49 219q20 75 117 168l190 166q136 127 136 227q0 51 -30 83.5t-77 31.5q-81 -3 -131 -84q-28 -62 -23 -109q6 -51 27 -81q-40 27 -49 69q-15 64 12 129q13 36 58 74q53 44 124 47 q78 5 128.5 -38t50.5 -116q0 -125 -162 -262q-84 -59 -211 -159q-112 -95 -139 -160q-18 -44 0 -47q12 -3 47 35q21 21 24 34q21 -21 -4 -49q-39 -39 -71 -31q-32 14 -17 72z" />
<glyph unicode="@" horiz-adv-x="1206" d="M51 219q9 243 166 426q116 132 272.5 201.5t319.5 64.5q171 -3 274 -98q95 -89 95 -231q0 -59 -19 -127q-49 -175 -221 -303q-109 -80 -211 -80q-55 0 -73 24.5t-7 79.5q11 56 90 250q-66 -118 -166 -229q-96 -104 -147 -101q-64 3 -64 92q0 60 41 156q47 110 156 205 q112 95 188 92q57 -3 60 -45q0 1 5.5 10t8.5 13t9.5 12t12 12t13 6.5t14.5 1.5q30 -6 21 -30q-85 -204 -115 -283q-48 -126 -59 -184q-9 -39 8 -52q8 -5 49 -2q72 9 148 70q129 102 182 305q18 71 18 135q0 275 -313 281q-326 6 -541 -273q-135 -175 -141 -395 q-5 -185 98 -284t301 -99q108 0 215 45q102 42 172 109l50 47q11 -9 -41 -61q-67 -67 -175 -115q-111 -51 -221 -51q-222 0 -346 100q-133 109 -127 305zM424 166q0 -30 20 -33q41 -3 127 92q74 83 142 195q38 63 67 139q4 16 4 23q0 39 -41 39q-65 0 -147 -101 q-74 -88 -137 -233q-35 -81 -35 -121z" />
<glyph unicode="A" horiz-adv-x="1638" d="M-229 -92q-1 6 -1 13q0 39 46 79q49 46 123 66q25 8 30 4q2 -2 -8 -9l-8 -4q-109 -44 -109 -120q0 -74 112 -74h17q255 15 670 344q164 129 342 307q-18 5 -63 25q-43 18 -33 41q6 12 20 12q19 0 68 -21l45 -18q241 244 494 590l-336 67q-319 67 -351 72q-189 37 -340 51 q-50 6 -98 6q-353 0 -353 -202q0 -8 1 -17q3 -52 76 -125q56 -56 129 -98q4 -3 10 -8l6 -6q-4 -4 -29 6q-240 106 -266 217q-6 24 -6 47q0 118 174 170q118 37 303 37q57 0 82 -2q218 -14 680 -111l334 -80q35 49 52.5 75t37 65.5t23.5 66.5q2 10 2 49q0 21 8 21 q30 0 45 -74q11 -62 11 -148q0 -46 -3 -98q92 -21 156 -34q43 -9 43 -13q-3 -10 -47 -2q-108 18 -154 29q-1 -10 -3 -24t-5.5 -34.5t-5.5 -35.5q-56 -297 -119 -488q-58 -174 -174 -409q99 108 172 135q16 6 16 -4q0 -3 -4.5 -5.5t-11 -6t-8.5 -5.5q-73 -48 -156 -147 q-35 -40 -96 -121q-27 -37 -54 -37q-19 0 -4 27q7 14 35 80q97 219 187 499q90 283 124 457q21 102 25 135l-78 15q-227 -356 -465 -605q78 -20 115 -28q112 -24 223 -33q4 -1 8 -1t6 -0.5l4 -1t3 -0.5t0 -1q0 -10 -35 -10h-35q-132 0 -244 20q-30 5 -79 21 q-173 -170 -357 -306q-439 -327 -721 -348q-29 -2 -53 -2q-132 0 -145 68zM1561 1161q32 -4 65 -18q12 89 19 172q-1 -5 -25 -51q-10 -17 -23 -41t-21.5 -38.5t-14.5 -23.5z" />
<glyph unicode="B" horiz-adv-x="1511" d="M23 131q3 90 88 160q77 65 178 80q14 0 14 -9q0 -6 -14 -6q-82 -19 -142 -83.5t-61 -137.5v-5q0 -125 141 -200q127 -65 308 -65q282 0 495 121q229 129 287 346q14 49 14 102q0 122 -80 217q-70 79 -170 113q-188 -74 -360 -82q0 -4 -76 -150q-87 -176 -192 -319 q-101 -133 -146 -133h-2q-31 2 -31 34q0 8 2 17q4 16 14.5 31t21.5 21.5t16 2.5q6 -3 2 -14q-10 -23 -13 -39q-6 -29 5 -29q24 0 45 56q72 125 262 524q-66 4 -96 18t-25 37q12 53 186 80q122 246 228 428q-157 -10 -377 -10q-286 0 -286 101q0 7 1 14q9 56 129 90 q86 26 171 26q23 0 46 -2q51 -3 51 -10q0 -4 -32 -4h-21q-74 0 -147 -18q-121 -30 -121 -97q0 -82 209 -82q11 0 54 2t142.5 6.5t194.5 8.5q46 66 76 88q52 30 57 22q2 -2 -22 -30q-14 -20 -43 -76q58 4 73 4h12q151 0 235 -48q86 -50 87 -147q0 -99 -111 -194 q-74 -65 -172 -111q136 -47 218 -135q94 -98 94 -225q0 -40 -13 -90q-58 -224 -333 -361q-250 -125 -562 -125q-201 0 -346 68q-163 74 -163 214v5zM565 731q-3 -15 14.5 -23t55.5 -8l47 99q-114 -21 -117 -68zM731 702q118 3 313 74q-92 30 -213 33q-37 0 -51 -2zM791 825 q10 2 43 2q127 0 247 -30q84 36 140 104q70 79 82 182q1 12 1 22q0 66 -52 104q-61 44 -171 44q-72 0 -88 -2q-63 -128 -202 -426z" />
<glyph unicode="C" horiz-adv-x="1521" d="M8 274q15 190 146 385q116 173 284 304q190 149 414 239q204 83 377 98q62 5 76 5q281 0 311 -142q4 -28 4 -39q0 -111 -133 -188q-126 -72 -273 -72q-94 0 -167 31q-54 25 -80 61q-22 31 -17 39q9 -8 25 -24q36 -36 80 -56q67 -30 159 -30q124 0 216 59q104 67 104 170 q0 24 -6 45q-27 123 -244 123q-40 0 -63 -2q-140 -12 -320 -92q-212 -95 -391 -248q-160 -139 -260 -305q-116 -191 -125 -363q-1 -17 -1 -33q0 -178 122 -272q120 -86 341 -86h15q316 6 574 150q218 120 245 301q3 31 0 59q-2 11 -3 17.5t-2 11.5t-1.5 7t-1.5 1 q15 9 43 -29q17 -29 17 -58v-9q-6 -167 -289 -324q-277 -152 -590 -158h-33q-255 0 -397 89q-157 98 -157 299q0 18 1 36z" />
<glyph unicode="D" horiz-adv-x="1935" d="M39 1266q0 77 139 118q93 26 173 26q15 0 30 -1q80 -4 74 -20q0 1 -54 4h-19q-75 0 -151 -21q-116 -34 -116 -102q0 -90 227 -90q256 0 684 45l33 49l-53 -10q37 30 100 86q38 27 41 24q3 -2 3 -6q0 -25 -79 -139q73 8 160 8q321 0 502 -111q219 -133 219 -411 q0 -70 -19 -148q-71 -297 -315 -520q-217 -199 -553 -199q-282 0 -533 213q-69 60 -161 152q-50 -64 -119 -184q-67 -113 -88 -172l-12 -35q-15 0 0 55q44 147 176 379q-52 66 -103 117q-29 -20 -57 -88q-75 -184 -78 -314v-18q0 -98 31 -148l12 -22q-17 3 -33 31 q-41 65 -41 161q0 187 68 344q37 88 63 91h8q71 0 169 -97q101 186 254 406q71 97 387 481q-37 -3 -324 -35q-176 -19 -360 -22h-19q-90 0 -170 26q-96 35 -96 97zM412 272l161 -145q281 -254 500 -254q155 0 260 45q110 48 223 166q177 186 263 489q26 88 26 187 q0 233 -151.5 340.5t-481.5 107.5q-74 0 -157 -6q-221 -354 -367 -557q-98 -125 -276 -373z" />
<glyph unicode="E" horiz-adv-x="1286" d="M18 33q0 7 5 12q26 -42 67 -65q51 -26 115 -29q13 -1 25 0q100 0 178 43q61 32 118 96l-182 137q-146 106 -190 115q-41 9 -41 -10q0 -38 73 -111q87 -84 185 -108q-128 6 -211 80q-70 61 -70 122q0 27 16 37q28 19 59 19q14 0 28 -4q124 -34 380 -222q103 121 271 447 q-13 3 -40.5 12.5t-41.5 13.5q-36 17 -27 39q10 13 58 -2l69 -24l99 190q163 319 194 373q-266 78 -500 78q-363 0 -372 -238v-5q0 -56 63 -134q54 -67 117 -109q14 -14 14 -16q-3 -6 -26 8q-220 128 -238 234q-4 28 -4 37q0 144 184 208q131 46 314 46q43 0 73 -3 q204 -18 400 -65q56 98 112 151q22 20 45 35t39 20q9 3 13 3t6 -2q-12 -14 -35 -41q-57 -70 -107 -184q284 -76 447 -199q24 -18 24 -28q0 -3 -2 -5q1 1 -5.5 6t-20.5 13q-103 62 -463 170q-63 -136 -174 -361q-40 -86 -105 -207q136 -29 160 -33q156 -27 234 -30 q17 -1 16 -6q-4 -11 -35 -11h-24q-176 0 -371 41q-176 -314 -320 -452l146 -105q210 -146 340 -211q153 -75 286 -75q173 0 244 126q3 6 6 10t5.5 6t3.5 1q9 -3 -5 -27q-19 -54 -75 -96q-76 -55 -187 -55q-293 0 -653 258q-19 13 -73 52.5t-91 66.5q-188 -154 -355 -154h-13 q-94 3 -142 51q-33 33 -33 70z" />
<glyph unicode="F" horiz-adv-x="1239" d="M131 123q53 27 53 12q-14 -11 -45 -29q-113 -73 -116 -157v-5q1 -44 33 -74q34 -30 91 -30q207 0 426 291q119 155 279 461q-56 15 -81 31.5t-19 33.5q3 5 12 5q19 0 65 -19l43 -12q75 140 119 229l172 334q-272 78 -504 78q-361 0 -370 -238v-5q0 -56 63 -134 q54 -67 117 -109q14 -14 14 -16q-3 -6 -26 8q-220 125 -238 234q-4 28 -4 37q0 144 184 208q131 46 314 46q43 0 73 -3q236 -23 398 -65q39 68 98 133q21 24 68 45q30 15 40 15q3 0 5 -1q-9 -11 -27 -34q-52 -67 -108 -179q291 -77 446 -196q25 -18 25 -28q0 -3 -2 -5 q1 1 -5.5 6t-21.5 13q-105 62 -461 167q-10 -20 -34.5 -74t-54.5 -118.5t-62 -130.5q-75 -157 -123 -242q110 -29 172 -37q107 -18 262 -34q6 0 10 -1t5.5 -2.5t0.5 -3.5q-3 -5 -35 -8q-23 -1 -48 -1q-119 0 -265 24q-61 9 -121 24q-150 -279 -338 -479q-261 -276 -493 -276 q-75 0 -119 32q-43 30 -43 78q0 117 176 201z" />
<glyph unicode="G" horiz-adv-x="1591" d="M20 307q0 198 121 393q100 163 273 301q185 146 438 232q224 76 397 82q28 1 55 1q322 0 322 -136q0 -93 -121 -152q-102 -51 -223 -51q-80 0 -127 24q-44 23 -44 35q0 3 3 6q1 1 10.5 -4.5t20.5 -12t14 -7.5q51 -19 106 -19h15q96 3 170 45q92 53 92 132q0 62 -96 92 q-72 24 -179 24h-24q-163 -3 -352 -75q-224 -83 -397 -236q-361 -323 -361 -676q0 -164 105.5 -254t300.5 -90q42 0 65 2q287 21 537 199q134 96 225 233q32 46 76 150q10 29 21 42.5t20 8.5q37 -9 37 -55q0 -41 -54 -117q-82 -207 -125 -311l62 30q56 24 86 31q9 3 12 -2 q0 -7 -6 -10l-90 -41q-41 -21 -78 -45q-77 -177 -142 -284t-155 -183q-84 -72 -125 -72q-28 0 -28 39q0 10 2 23q14 98 131 245q92 117 225 219q46 98 113 267q-68 -103 -195 -195q-272 -196 -623 -196q-220 0 -360 90q-150 102 -150 278zM934 -367q-6 -25 -6 -38.5t6 -16.5 q4 -2 8 -2q19 0 49 35q53 61 99 147q47 84 127 265q-99 -73 -189 -193q-68 -87 -94 -197z" />
<glyph unicode="H" horiz-adv-x="1880" d="M10 14q0 132 92 267t250 231q124 75 318 119q181 39 346 39h24q36 0 134 -4q61 100 112 204q88 186 135 314q-135 30 -217 53q-144 40 -194 51q-151 32 -244 39q-20 2 -39 2q-94 0 -164 -37q-118 -61 -118 -201q0 -10 1 -20q3 -60 56 -137q36 -55 88 -100q16 -16 12 -19 q-3 -6 -20 8q-186 134 -205 232q-6 30 -6 57q0 149 168 207q98 33 222 34q10 0 21 -1q155 -3 428 -78q162 -46 220 -66q9 27 12 62q3 14 10 16q7 1 13 -15.5t9.5 -39t2.5 -39.5l46 -14q46 -13 79 -21q32 -8 32 -10q-3 -7 -35 -4q-44 7 -124 28q-17 -140 -97 -317 q-62 -133 -104 -197q110 -10 213 -26q121 -18 242 -62l16 33q100 221 209 496q46 100 65 145q14 33 66 45q5 3 10 -2q1 -2 1 -4q0 -6 -5 -18l-49 -144q-90 -283 -207 -540q-13 -31 -18 -39l81 -35q7 -3 11.5 -6t6.5 -5t1 -3q-3 -5 -27 4q-34 14 -82 28q-80 -172 -243 -405 q116 116 207 149q16 6 16 -4q-12 -8 -39 -24q-71 -45 -176 -150q-95 -95 -137 -147q-29 -29 -31 -29q-10 3 0 23l55 96q129 225 262 520q-91 29 -235 53q-117 19 -230 25q-180 -296 -403 -510q-138 -132 -293 -211q-179 -92 -332 -92q-219 0 -219 196zM37 8v-7 q0 -81 47 -121q49 -42 149 -42q239 0 558 307q168 162 366 490q-32 0 -55 2h-49q-169 0 -348 -45q-198 -45 -324 -125q-341 -221 -344 -459z" />
<glyph unicode="I" horiz-adv-x="870" d="M-63 1120q0 143 165 201q90 31 205 32q10 0 21 -1q160 -3 350 -54l340 -98q3 20 3 37t-3 31q-3 15 2 18q8 4 20.5 -11t23 -41t11.5 -50l62 -19l34 -10q-3 -9 -34 -6l-64 12q-16 -161 -102 -368q-141 -340 -365 -627q-146 -188 -287 -301q-92 -72 -158 -72q-12 0 -22 2 q-57 14 -57 83v7q3 117 104 221q38 38 56 46q-15 -17 -33 -50q-74 -148 -74 -249q0 -41 27 -41q47 0 106 53q122 116 256 311q206 302 348 625q92 208 142 377q-133 28 -254 61q-278 74 -434 88q-21 2 -40 2q-95 0 -161 -37q-110 -59 -110 -194q0 -13 1 -27q3 -58 60 -137 q40 -56 90 -100l14 -19q-3 -6 -22 8q-192 127 -213 232q-8 31 -8 65z" />
<glyph unicode="J" horiz-adv-x="1175" d="M-156 -348q-3 133 357 297q161 73 583 203q53 74 136 219q109 190 217 432q94 203 139 377q-142 28 -211 39q-138 21 -277 24q-26 1 -51 1q-194 0 -293 -42q-172 -70 -172 -280q0 -36 2 -54q12 -125 142 -237q16 -13 12 -17t-18 4q-64 34 -123 93q-75 72 -90 141 q-9 44 -9 82q0 208 242 293q149 53 362 53h23q182 -3 465 -76q3 39 12 86q1 1 3 1q6 0 15 -11q10 -13 19.5 -38t13.5 -52q22 -6 37.5 -10.5t31 -10t22 -10t4.5 -8.5q-4 -4 -8 -4l-87 18q-18 -168 -106 -366q-110 -248 -207 -420q-63 -112 -119 -193q60 19 187 80q12 8 30 25 q8 9 11 6q4 -3 4 -7q0 -14 -49 -44q-77 -49 -207 -94q-98 -137 -199 -232q-129 -124 -323 -229q-218 -117 -377 -117q-141 0 -144 78zM-10 -410q20 0 67 7q116 17 273 108q156 90 268 211q95 101 164 203q-162 -58 -543 -215q-338 -156 -338 -249q0 -65 109 -65z" />
<glyph unicode="K" horiz-adv-x="1431" d="M-35 -106q0 -4 27 -25q39 -33 114 -33q168 0 336 213q122 156 338 580q131 262 295 569q-82 29 -231 72q-220 59 -434 65h-17q-115 0 -186 -39q-118 -60 -118 -206q0 -10 1 -21q3 -67 53 -145q42 -67 88 -107q15 -15 13 -18q-3 -3 -19 6q-188 130 -209 239q-6 30 -6 58 q0 161 178 225q101 37 242 37q165 0 418 -61q113 -28 239 -84q35 60 97 107q47 36 69 36q7 0 13 -4q2 -2 -11 -15q-6 -5 -12 -11t-12.5 -13t-9.5 -10q-45 -54 -74 -117q36 -16 39 -18q15 -7 21.5 -12.5t4.5 -8.5q-4 -4 -6 -2q-13 6 -67 23q-70 -163 -256 -556 q-176 -350 -383 -575q-225 -243 -414 -246h-8q-62 0 -94 43q-21 27 -21 44q0 6 2 10zM954 651q4 13 39 41q215 185 461 355q284 196 412 196q63 0 93 -28q28 -26 28 -78v-7q1 -22 -7 -44.5t-16 -22.5q0 1 0.5 1.5t-0.5 5.5t-2 8.5t-2.5 12t-3.5 15.5q-18 80 -119 80 q-127 0 -360 -166q-150 -104 -404 -332q-28 -25 -31 -39q-2 -6 17 -61q75 -203 168 -385q134 -259 215 -359q132 -163 274 -163q84 0 139 49q49 43 64 112q6 31 8 31q4 0 10 -10t10 -26.5t1 -31.5q-9 -67 -86 -108q-64 -37 -150 -37q-307 0 -573 506q-117 218 -176 424 q-11 33 -11 50q0 7 2 11z" />
<glyph unicode="L" horiz-adv-x="747" d="M-31 10v11q0 218 121 368q53 65 88 68h7q21 0 57 -13q16 -3 75 -90q139 272 316 498q169 212 366 356q223 162 379 162q105 0 162 -57q45 -48 45 -116v-9q-6 -90 -76 -154q-10 -10 -16 -2q1 -1 4 3t8 14q43 58 43 127q0 149 -174 149q-167 0 -332 -133 q-138 -116 -327 -377q-198 -269 -348 -522q87 -121 235 -275q325 -340 545 -340q132 0 205 107q14 18 16 18q7 -4 -2 -22q-77 -158 -242 -158q-125 0 -251.5 72.5t-292.5 241.5q-122 122 -244 305q-134 -222 -197 -383q-15 -43 -18 -43q-6 5 -6 21q0 19 8 52q43 176 170 416 q-44 77 -88 127q-29 -13 -72 -78q-112 -178 -115 -411q0 -65 15 -117q11 -28 24 -47q-29 13 -49 57q-36 79 -39 174z" />
<glyph unicode="M" horiz-adv-x="2033" d="M-283 -115q-2 9 -2 19q0 44 47 86q45 42 115 61q31 8 35 4l-16 -10q-55 -21 -91 -65q-28 -34 -28 -64q0 -8 2 -16q15 -60 125 -60q326 0 930 592q326 320 606 762l-195 33l-375 61q-222 32 -366 35q-21 1 -41 1q-143 0 -244 -38q-161 -57 -161 -192q0 -9 1 -19 q3 -56 74 -127q61 -64 129 -94q8 -3 13.5 -6t8 -5t1.5 -3q-3 -3 -29 6q-98 31 -178 88q-83 59 -98 117q-9 30 -9 57q0 141 215 203q121 34 274 34q33 0 68 -2q349 -19 725 -81q11 0 203 -39q68 104 115 247q3 12 7 16q3 4 6 3h1q18 -3 21 -51v-13q0 -49 -19 -139l-18 -82 q150 -23 239 -26l47 -2q0 -13 -49 -13q-108 0 -243 15q-30 -139 -113 -447q-62 -204 -168 -457q-71 -164 -115 -239q114 106 199 194l178 189q118 131 203 239q174 221 309 428q38 61 68 99q17 23 33 20q18 -3 24 -18q7 -15 7 -38q0 -46 -27 -128q-54 -162 -181 -481 q-88 -217 -208 -443q119 131 182 150q9 3 16 -4q-1 0 -13 -7.5t-20 -13.5q-70 -47 -151 -155q-41 -53 -107 -125q-39 -45 -43 -45q-34 9 -18 41l41 77q35 72 221 529q91 223 231 534q17 35 25 64q3 8 4 14.5t1 9t-1 2.5q-1 1 -8 -8t-19.5 -28.5t-29.5 -47.5 q-90 -149 -314 -440q-132 -171 -374 -422q-82 -87 -256 -237q-41 -65 -76 -65q-4 0 -8 1q-7 1 -8.5 7.5t3 18.5t15.5 29q15 22 31 41q33 82 104 277q103 293 152 457l133 438l-21 2q-133 -222 -329 -471q-175 -219 -344 -385q-262 -253 -521 -393q-227 -124 -379 -127h-12 q-148 0 -162 71zM1479 1219l14 -2q5 12 23 71q-3 -5 -19 -35.5t-18 -33.5z" />
<glyph unicode="N" horiz-adv-x="1628" d="M-137 -45q6 79 65 100q-14 -22 -14 -73v-19q6 -121 147 -133q19 -2 39 -1q375 0 803 626q215 317 273 491q15 47 15 85q0 35 -13 61q-141 311 -496 311q-160 0 -264 -107q-96 -98 -96 -246v-18q9 -237 198 -317q11 -5 16.5 -8.5t4.5 -4.5q-3 -6 -35 0q-253 88 -262 334 v14q0 157 129 263q133 112 329 112q412 0 576 -348q69 -144 104 -375q29 -176 30 -354q0 -17 -1 -33q-3 -144 -27 -264q22 78 64 185q56 140 184 436q105 224 176 338q85 134 174 190q48 28 99 31h10q53 0 68 -29q-85 0 -150 -41q-73 -46 -182 -217q-72 -110 -166 -303 q-124 -252 -195 -424q-6 -13 -84 -205q-23 -61 -42 -90t-33 -26q-14 2 -14 21q0 17 10 46l24 53q9 58 9 137q0 70 -7 156q-15 194 -49 414q-27 169 -70 291q0 -24 -12 -70q-69 -253 -254 -528q-205 -304 -465 -473q-225 -147 -408 -147q-17 0 -34 1q-83 7 -131 49 q-44 39 -43 99v10z" />
<glyph unicode="O" horiz-adv-x="1267" d="M55 225q-2 27 -2 54q0 193 94 383q54 116 134 206q-30 59 -33 123q-1 11 -1 21q0 144 118 245q126 108 309 111h14q384 0 500 -336q16 -48 -8 -51q-17 -3 -33 45q-9 26 -37 78q-58 64 -166 67h-24q-154 0 -273 -73q-154 -93 -289 -279q56 -91 174 -139q12 -5 17 -8t4 -4 q-5 -7 -33 2q-121 44 -184 116q-18 -27 -88 -141q-123 -237 -123 -420q0 -304 262 -348q37 -6 72 -6q178 0 346 137q144 119 248 297q200 335 200 604q0 281 -256 441q-13 3 -6 10q7 4 19 -2q80 -40 153 -123q96 -103 125 -215q25 -92 25 -195q0 -276 -156 -534 q-105 -177 -293 -305q-201 -136 -399 -136q-170 0 -285 103q-113 101 -125 272zM305 981q2 -35 14 -74q120 136 297 219q138 65 289 65q19 0 37 -1q95 -6 156 -49q-62 93 -168 147q-116 62 -253 62h-13q-158 -3 -265 -107q-95 -93 -96 -230z" />
<glyph unicode="P" horiz-adv-x="1265" d="M-41 -72q0 143 131 283q18 20 40.5 38t38.5 26t19 4q-6 -7 -20 -19q-32 -29 -53 -61q-93 -140 -99 -305v-15q0 -62 23 -65q3 -1 5 -1q29 0 89 68q62 68 184 289l234 442q-47 32 -78 65t-31 50q0 4 2 6q4 0 13 -12q11 -20 28 -33q32 -32 74 -59q20 42 98 192 q145 277 209 385q-59 2 -309 19q-122 8 -182 22q-47 12 -69 31t-19 45q6 55 129 82q82 17 155 17q20 0 39 -1q49 -3 49 -10q0 -9 -32 -6q-23 1 -44 1q-223 0 -223 -86q0 -54 203 -71q76 -2 316 -22q43 67 71 98q26 27 56.5 49.5t52 32t26.5 4.5q-10 -14 -30 -43 q-63 -88 -94 -147q76 -8 96 -11q483 -58 483 -313q0 -39 -12 -80q-52 -180 -240 -260q-137 -59 -346 -59h-20q-164 3 -289 67q-292 -530 -483 -706q-70 -65 -111 -65q-5 0 -10 1q-70 12 -70 133zM643 586q125 -61 275 -64h8q402 0 495 299q17 59 17 99q0 220 -391 270 q-30 4 -97 10l-186 -381q-62 -127 -121 -233z" />
<glyph unicode="Q" horiz-adv-x="1216" d="M-160 -524q-2 2 -2 5q0 6 8 15q60 74 140 123q140 84 354 156q118 70 184 119q251 185 453 436q319 395 319 667q0 124 -64 198t-181 75h-8q-179 0 -377 -123q-233 -145 -410 -436q-202 -339 -205 -531v-7q0 -212 189 -212q150 0 358 152q136 100 213 206q64 82 80 144 q10 37 2 63q-3 23 -2 23q12 4 18 -9t6 -44q0 -21 -6 -45q-15 -67 -69 -152q-76 -125 -207 -221q-186 -137 -387 -137q-247 0 -262 245q-1 20 -1 39q0 243 171 504q179 276 444 434q211 125 442 125h11q116 -3 194 -53q104 -64 125 -188q6 -41 6 -82q0 -313 -299 -660 q-169 -196 -456 -391q-82 -51 -209 -121q245 68 419 68q154 0 229.5 -41.5t74.5 -124.5q-3 -41 -29 -70q-22 -23 -29 -16q1 -1 6 5t15 21q10 17 10 37q-3 65 -100 105q-84 35 -189 35q-274 0 -493 -72q-124 -95 -283 -172l-184 -86q-12 -7 -17 -7q-1 0 -2 1zM-113 -481 q196 81 394 207q-171 -62 -287 -132q-55 -31 -107 -75z" />
<glyph unicode="R" horiz-adv-x="1173" d="M-96 1016q0 180 274 254q161 45 381 45q151 0 326 -21q31 40 65 76q26 26 60 40q23 10 34 9q5 0 7 -2q1 -1 -12 -15t-38 -47.5t-47 -72.5q82 -11 142 -31q350 -114 350 -331q0 -38 -12 -78q-49 -168 -248 -256q-151 -67 -319 -67q-20 0 -40 1q-17 0 -41 4l175 -307 q167 -289 229 -364q128 -152 266 -152q84 0 139 49q51 42 66 113l6 31q9 0 19 -22q7 -16 7 -33q0 -7 -1 -13q-9 -69 -88 -111q-67 -37 -152 -37q-307 0 -584 508q-78 167 -172 351q-76 18 -104 28q-275 -505 -486 -698q-78 -73 -127 -73q-5 0 -10 1q-51 9 -51 69v7 q3 81 53 162q50 89 117 119q-19 -24 -35 -50q-84 -162 -84 -260q0 -25 13 -28q3 0 5 -1q32 0 91 62q92 99 432 733q-43 19 -64 37q-63 45 -63 82q0 6 4 14q17 17 49 17q71 0 133 -39l70 137q166 316 233 418q-142 14 -270 14h-45q-225 -3 -358 -47q-217 -67 -217 -225 q0 -14 2 -29q6 -63 75 -129q60 -57 138 -92q16 -13 16 -14q-4 -4 -29 4q-94 28 -176 84q-86 62 -98 123q-6 27 -6 53zM414 723q0 -26 49 -66q16 -13 55 -32l35 67q-70 49 -113 49q-14 0 -24 -10q-2 -2 -2 -8zM602 584q30 -13 84 -25q-18 34 -55 78zM649 670q75 -60 123 -125 q46 -4 55 -4h13q165 0 293 71q142 81 190 236q14 43 14 92q0 183 -256 285q-55 22 -137 37q-10 -20 -45.5 -94t-78.5 -161.5t-89 -181.5q-28 -57 -82 -155z" />
<glyph unicode="S" horiz-adv-x="1654" d="M-37 170q9 174 146 332q138 159 356 254q234 105 506 105q22 0 43 -1q132 -3 215 -47q91 -45 90 -121v-14q-7 -78 -87 -160t-198 -139q-191 -90 -377 -90q-41 0 -60.5 10.5t-18.5 32.5q3 48 65 57q29 3 29 -6q0 -6 -27 -12q-49 -12 -49 -37q0 -19 59 -19q134 0 349 107 q279 135 288 262v8q0 123 -276 123q-252 0 -520 -119q-206 -90 -344 -225q-158 -155 -164 -303q-1 -10 -1 -19q0 -138 126 -208q111 -60 282 -60q384 0 834 283q472 298 481 584v6q0 119 -119 155q-69 20 -217 20q-36 0 -76 -1h-22q-155 0 -248 39q-105 43 -105 129 q0 7 1 14q9 122 188 199q149 63 320 63h16q76 -3 147 -24q68 -20 68 -46q0 -28 -49 -28q-22 0 -25 8q-1 3 8.5 8.5t19 11.5t9.5 9q0 13 -174 16h-17q-165 0 -313 -55q-171 -61 -180 -156q0 -3 -1 -6q0 -30 29 -52q31 -24 97 -34q49 -8 231 -8q435 0 435 -261v-7 q-3 -169 -138 -349q-120 -159 -327 -295q-396 -258 -873 -258q-183 0 -299 70q-134 81 -134 234q0 10 1 20z" />
<glyph unicode="T" horiz-adv-x="1226" d="M-86 70q0 55 20 88q13 23 21 20q0 -1 0.5 -1.5t-0.5 -4.5t-2 -7t-2.5 -10.5t-3.5 -13.5q-2 -8 -2 -28q0 -93 57 -162q89 -109 272 -109q142 0 304 101q147 90 272 239q203 246 379 619q120 255 155 407q-381 92 -569 95h-19q-145 0 -257 -43q-156 -60 -156 -188 q0 -15 2 -32q15 -117 203 -237q17 -13 14 -19q-3 -3 -24 9q-244 120 -271 229q-8 24 -8 55q0 153 227 211q127 35 285 35h25q282 -3 557 -68q-1 17 -1 33q0 26 3 49h1q4 0 13 -11q10 -12 20.5 -36t14.5 -49q187 -51 405 -162q62 -30 58 -41q-21 9 -62 23q-252 94 -401 131 q-16 -182 -115 -397q-156 -346 -375 -609q-126 -153 -323 -258q-195 -104 -361 -104q-300 0 -340 168q-16 37 -16 78z" />
<glyph unicode="U" horiz-adv-x="1558" d="M20 41q9 -2 25 -8q15 -6 37 -6q121 0 268 106q-6 5 -67 66q-50 52 -148 141q-26 19 -44 19q-9 0 -17 -5q-17 -9 -17 -26q0 -24 35 -62q61 -67 98 -78q-81 0 -124 58q-23 33 -23 67q0 36 23 56q18 14 41 14q21 0 47 -12q73 -37 159 -115l97 -82q31 24 84 70 q170 167 313 432q136 251 139 424v11q0 215 -225 218h-5q-154 0 -339 -188q-184 -187 -184 -348q0 -95 92 -95q68 0 133 35q23 15 26 12q5 -8 -22 -26q-71 -39 -137 -39q-114 0 -123 117q-1 11 -1 23q0 171 169 351q167 179 392 179h7q126 -2 210.5 -70.5t90.5 -179.5 q1 -13 0 -25q0 -188 -123 -422q-116 -215 -342 -413q-17 -15 -123 -97q237 -208 392 -211h7q248 0 511 443q78 185 143 317q116 237 197 352q64 89 141 140q69 47 119 53q14 3 22 0q7 -2 7 -6q0 -1 -1 -2q-7 -1 -53 -17q-74 -36 -158 -163q-70 -107 -153 -287 q-139 -308 -221 -504q-44 -104 -121 -299q56 62 117 82q7 2 16 -2q0 -4 -12 -10l-25 -13q-45 -31 -92 -88q-62 -77 -68 -80q-12 -14 -24 -14h-4q-38 12 -23 49q65 181 154 391q-228 -372 -488 -372q-229 0 -446 202q-146 -96 -279 -96q-23 0 -44 6q-20 4 -30 12q-7 5 -7 11 q0 2 1 4z" />
<glyph unicode="V" horiz-adv-x="1288" d="M-45 776q-2 17 -2 34q0 111 67 226q71 126 197 221q176 133 403 133q14 0 29 -1q117 -6 205 -66q95 -68 113 -174q8 -47 8 -105q0 -163 -111 -442q-50 -122 -153 -307q-99 -174 -205 -326q-44 -62 -41 -65q1 -4 17.5 4.5t49.5 30.5q255 173 488 395q159 150 366 405 q50 63 68 88q-39 79 -39 168t41 160q30 52 87 87.5t106 35.5q65 0 65 -68q0 -56 -37 -131q-64 -139 -178 -295q20 -41 39 -73q-29 26 -49 59q-16 -22 -64 -78q-142 -164 -368 -377q-248 -233 -594 -444q-61 -38 -86 -38q-3 0 -6 1q-9 3 -9 14q0 29 37 84q226 333 367 699 q113 287 113 463q0 265 -232 274q-11 1 -23 1l-343 -128q-129 -93 -211 -219q-81 -121 -81 -228q0 -11 1 -22q6 -91 98 -94h8q48 0 123 31l29 10q7 -7 -23 -23q-64 -37 -135 -37q-55 0 -93 31.5t-42 85.5zM1454 950q0 -55 14 -104q115 151 197 311q21 41 21 68q0 32 -37 32 q-75 0 -158 -145q-37 -64 -37 -162z" />
<glyph unicode="W" horiz-adv-x="2244" d="M-29 776q-1 15 -1 30q0 115 81 241q83 131 211 217q176 123 388 123q19 0 38 -1q129 -6 212 -69t95 -168q4 -50 4 -74q0 -177 -147 -473q-115 -229 -395 -563q243 159 430 334q245 233 364 377q78 97 164 241q30 98 76 180q21 43 42 43q4 0 9 -2q26 -9 12 -53 q-13 -30 -94 -158q-58 -204 -58 -473q0 -58 3 -118q9 -251 68 -375q65 -133 192 -139h13q192 0 327 254q117 217 117 446q0 216 -105 354q-42 52 -75 64q-38 12 -121 53q-16 10 -13 25q3 9 33 2q88 -15 146 -76q83 -37 104 -45q165 -62 297 -62q95 0 150 41.5t55 110.5 q0 23 -10 53q-6 16 -3 19q10 3 17 -15q15 -27 18 -59q1 -9 1 -17q0 -75 -56 -122q-62 -52 -166 -52q-113 0 -305 82l-82 41l29 -28q157 -183 157 -410t-147 -444q-162 -236 -364 -236h-15q-163 6 -258 139q-104 140 -104 392q0 249 86 499q-36 -60 -125 -178 q-111 -141 -371 -383q-87 -80 -242 -197q-170 -128 -247 -174q-57 -69 -119 -141q-32 -34 -51 -34q-3 0 -5 1q-32 3 -10 45q35 72 123 142q267 344 412 645q80 166 108 252q42 125 42 235q0 20 -1 39q-6 93 -64.5 149t-154.5 60h-17q-174 0 -345 -119q-140 -95 -226 -217 q-92 -129 -92 -244v-14q3 -91 94 -94h10q58 0 123 31q27 12 29 10q5 -8 -22 -23q-70 -37 -138 -37q-122 0 -131 117z" />
<glyph unicode="X" horiz-adv-x="1306" d="M43 229q0 41 20 52q11 9 30 9q24 0 59 -14q45 -19 184 -122q16 -12 32 -24.5t30.5 -24t19.5 -15.5q17 10 92 70q108 87 215 200q52 56 322 351q0 201 -19 321q-49 307 -276 307q-194 0 -394 -176q-227 -202 -227 -391q0 -93 92 -96h11q61 0 122 29q31 15 31 12 q2 -2 0 -5.5t-8.5 -8t-16.5 -9.5q-69 -35 -129 -35h-10q-116 3 -125 115q-1 13 -1 26q0 94 57 199q61 116 159 195q197 164 441 164q303 0 362 -293q27 -129 27 -268q183 194 330 311q181 140 314 140q11 0 21 -1q58 -6 93 -47q26 -29 26 -59q0 -9 -2 -11q-9 11 -27 29 q-34 34 -90 37q-10 1 -21 1q-139 0 -286 -114q-173 -136 -358 -327q0 -200 -15 -338q-21 -228 -61 -340q58 113 150 141q18 9 18 -2q0 1 -35 -20q-51 -36 -108 -113l-76 -113q-23 -33 -39 -30q-32 3 -23 24q17 37 23 62q19 65 57 395q15 123 15 248l-306 -332 q-107 -114 -202 -193q-53 -45 -99 -73q68 -51 105 -70q70 -40 123 -43h13q130 0 189 115q9 20 17 16q6 -3 -10 -39q-63 -123 -215 -123h-7q-127 3 -276 107q-116 -70 -209 -70q-23 0 -44 6t-32 14.5t-6 16.5q0 1 10.5 -3t30 -8.5t37.5 -4.5q75 0 188 67q-43 32 -65 51 q-120 109 -158 142q-29 26 -47 26q-6 0 -14 -4q-10 -6 -10 -20q0 -23 28 -68q36 -61 76 -82q-52 8 -87.5 45t-35.5 86z" />
<glyph unicode="Y" horiz-adv-x="1423" d="M-94 -653q0 6 4 10q-2 -2 13 -11l20 -12q49 -25 135 -28h28q171 0 314 67q145 68 301 221q302 293 586 902q40 83 153 331q-203 -348 -510 -614q-263 -231 -444 -291q-38 -12 -66 -12q-20 0 -34 6q-27 12 -27 49q0 25 16 62q11 25 150 241q146 230 211 363 q150 304 150 498q0 14 -1 28q-12 196 -211 205h-17q-165 0 -339 -109q-141 -87 -242 -215q-108 -137 -108 -254v-12q3 -91 94 -94h9q53 0 126 33q27 12 27 10q3 -9 -23 -23q-71 -39 -139 -39q-117 0 -123 111v16q0 122 84 256q85 130 197 205q200 136 424 136q14 0 28 -1 q141 -4 225.5 -88t86.5 -215v-7q0 -186 -150 -470q-73 -140 -358 -565q-34 -50 -34 -72q0 -6 3 -10q7 -11 24 -11q19 0 50 15q158 68 403 281q305 266 545 678q24 70 76 176q30 56 59 56q4 0 8 -1q20 -5 20 -30q0 -15 -8 -38q-27 -68 -90 -151q-91 -299 -182 -496 q-246 -537 -584 -848q-368 -336 -723 -336q-77 0 -122 39q-35 27 -35 58z" />
<glyph unicode="Z" horiz-adv-x="901" d="M-25 -47q0 197 156 414q68 95 107 98q32 3 59 -6q29 -9 82 -101q163 199 401 443q187 190 404 370q-96 44 -203 80l-154 49q-96 27 -192 39q-46 4 -68 4q-273 0 -276 -215v-6q0 -52 45 -121q40 -58 84 -96q14 -12 10 -16q-3 -3 -18 6q-164 108 -179 213q-2 12 -2 35 q0 123 136 182q91 39 235 39q48 0 66 -2q163 -17 333 -74q108 -37 209 -94l70 55l-2 25q33 9 78 45q27 24 45 24q7 0 12 -4q6 -7 6 -16q0 -24 -41 -61l-112 -103q55 -36 82 -63q24 -24 14 -27q-7 4 -19 14q-52 36 -96 56q-182 -175 -401 -394q-269 -269 -430 -444 q92 -145 194 -268q176 -209 320 -209q125 0 205 115q6 11 10.5 16t7.5 4q8 -5 -2 -25q-81 -142 -229 -145h-6q-190 0 -349 188q-62 75 -188 287q-179 -176 -289 -350l-29 -45q-8 3 7 49q58 157 278 406q-24 47 -67 114q-38 -15 -84 -82q-177 -248 -189 -426q0 -8 -1 -17 q0 -26 5 -54q3 -23 6 -23q-9 -9 -24 31q-17 39 -17 86z" />
<glyph unicode="[" horiz-adv-x="694" d="M12 -313q0 16 23 67q130 280 676 1516q19 43 34.5 52t71.5 9h211q20 0 29.5 -3t7.5 -9q-3 -12 -29 -12h-227l-721 -1624h231q46 0 46 -13q0 -12 -37 -12h-260q-56 0 -56 29z" />
<glyph unicode="\" horiz-adv-x="307" d="M100 535q0 280 43 495q16 73 27 70q5 0 2 -68q-12 -297 10 -698q22 -353 54 -551q6 -45 2 -49q-6 -3 -13 8t-14 37q-88 306 -105 592q-6 79 -6 164z" />
<glyph unicode="]" horiz-adv-x="694" d="M-211 -330q3 13 29 13h227l721 1624h-231q-46 0 -46 12t37 12h260q56 0 56 -28q0 -17 -23 -68q-130 -280 -676 -1516q-19 -43 -34.5 -52t-71.5 -9h-211q-20 0 -29.5 3t-7.5 9z" />
<glyph unicode="^" horiz-adv-x="1024" d="M236 393q-3 10 24 25q186 108 381 260q30 24 49 24q17 0 25 -32q41 -145 86 -244q10 -26 0 -29q-9 -6 -27 19q-62 88 -115 196q-123 -88 -364 -204q-53 -24 -59 -15z" />
<glyph unicode="_" horiz-adv-x="1024" d="M-201 -420h1041v-65h-1041v65z" />
<glyph unicode="`" d="M344 791q0 24 25 24q28 0 63 -41l66 -74q42 -42 69 -57q-23 -3 -90 27q-53 23 -94 59q-39 36 -39 62z" />
<glyph unicode="a" horiz-adv-x="530" d="M-25 106q0 68 41 158q48 105 148 195q108 102 191 102h5q52 -3 58 -49q21 37 22 39q16 20 36 20h5q23 -5 23 -20q0 -5 -2 -10l-113 -285q-49 -129 -110 -240q52 67 110 113q42 34 72 45q11 5 14 2q3 -7 -10 -12q-32 -17 -86 -67.5t-103 -110.5q-30 -35 -53 -35h-4 q-29 3 -10 45q52 117 141 350q-79 -139 -174 -237q-87 -93 -136 -93h-3q-62 3 -62 90zM39 84q0 -28 20 -31h2q40 0 123 94q76 89 142 193q38 63 67 139q4 16 4 23q0 39 -41 39q-65 0 -147 -101q-70 -91 -135 -233q-35 -78 -35 -123z" />
<glyph unicode="b" horiz-adv-x="452" d="M-4 102q0 149 160 480q156 316 307 440q44 35 69 35q5 0 9 -4q0 -2 -11 -9q-16 -8 -36 -28q-31 -31 -107 -162q-89 -148 -149 -283q-131 -279 -175 -467q-7 -28 -7 -48q0 -42 30 -46h6q39 0 96 76q51 65 88 155t50 165q4 24 4 34q0 54 -45 80q-39 22 -11 47q8 4 13 4 q23 0 43 -26q10 -10 28 -47q23 -23 52 -23q11 -1 27 4.5t26.5 11.5t9.5 7q12 -8 -14 -26q-25 -17 -49 -17q-26 0 -43 10q14 -32 14 -84q0 -77 -31 -150q-44 -103 -127 -176q-71 -65 -135 -65h-6q-86 6 -86 112z" />
<glyph unicode="c" horiz-adv-x="362" d="M-27 98v9q0 85 52 192q57 116 149 199q87 81 170 84q57 0 57 -38q0 -28 -32 -50q-21 -9 -23 -5q-1 1 1.5 9.5t5.5 21.5t3 23q0 19 -14 22q-4 1 -8 1q-55 0 -139 -120q-86 -122 -127 -266q-19 -74 -19 -106q0 -51 37 -51q47 0 115 86q43 51 82 127q5 12 11.5 24.5t8 16.5 t0.5 4q13 -3 -8 -56q-40 -100 -117 -174q-58 -55 -112 -55q-90 0 -93 102z" />
<glyph unicode="d" horiz-adv-x="444" d="M-27 106q0 84 58 203q91 199 282 246q35 9 35 -2q0 -3 -33 -14q-129 -48 -217 -258q-61 -143 -61 -222q0 -44 22 -47q3 -1 7 -1q36 0 100 81q81 106 141 273q7 22 23 66.5t22 62.5q28 99 35 153q-23 23 -45 51q-72 97 -72 183q0 91 49 94h5q41 0 79 -51q47 -62 56 -160 q3 -35 3 -69.5t-3 -69.5q30 -30 69 -50q15 -9 37 -12q15 -3 15 -4q-6 -6 -19 -6q-18 0 -49 14q-33 16 -55 33q-24 -173 -119 -350q-58 -107 -141 -184q-80 -77 -136 -77q-6 0 -12 1q-76 12 -76 116zM305 913q0 -43 6 -73q18 -91 80 -168q5 31 5 59q0 12 -1 23q-3 93 -33 159 q-25 48 -47 48q-10 0 -10 -48z" />
<glyph unicode="e" horiz-adv-x="382" d="M-29 100q0 28 11 78q29 116 108 221q150 187 296 187h5q49 0 49 -37q0 -41 -39 -74q-57 -46 -123 -46q-11 0 -22 1q-29 2 -59 16q-38 -53 -58 -92q-59 -122 -86 -215q-10 -45 -10 -69q0 -47 27 -56q6 -1 12 -1q47 0 110 72q71 82 91 181q6 25 12 25q9 0 6 -23 q-3 -58 -49 -137q-86 -148 -183 -148q-9 0 -18 1q-80 12 -80 116zM207 461q27 -15 55 -15h2q42 0 80 32q40 33 37 65q0 20 -25 20q-35 0 -86 -39q-42 -34 -63 -63z" />
<glyph unicode="f" horiz-adv-x="342" d="M-750 -549q0 1 7.5 -3t23.5 -13q44 -23 105 -23q233 0 383 178q99 123 229 437q80 193 117 301q9 28 9 65q0 10 -1 21q-3 53 -45 75q-11 6 -16.5 11t-4.5 8q6 15 54 18q20 2 86 2q62 157 125 254q189 287 389 287q35 0 51 -15q11 -11 11 -31q0 -6 -1 -13q-6 -44 -78 -92 q-26 -15 -28 -9q6 7 18 19q28 28 31 61v5q0 46 -51 46q-138 0 -273 -258q-39 -72 -112 -252q12 0 86 -4q77 -6 77 -15q0 -3 -75 -3q-15 0 -101 -4l-190 -475q-123 -292 -293 -465q-192 -195 -404 -195q-64 0 -104 37q-27 24 -27 38q0 4 2 7zM115 498q24 -26 24 -73 q0 -23 -6 -52l51 129q-23 0 -69 -4z" />
<glyph unicode="g" horiz-adv-x="495" d="M-139 -457q16 92 108 215q76 102 199 183q14 28 139 348q-77 -127 -147 -197q-76 -76 -118 -76h-3q-65 3 -68 93v10q0 62 35 139q80 180 264 268q104 52 187 52q73 0 73 -35q0 -11 -11 -21q-12 -12 -19 -10q2 5 0.5 15t-13 21t-32.5 11q-72 0 -146 -45 q-150 -88 -241 -305q-32 -70 -35 -127q-3 -32 16 -35h5q32 0 96 66q50 52 174 233l59 86q32 29 70 43q19 8 22 2q0 -2 -16 -18q-78 -155 -197 -482q12 8 55 29q29 14 58 17q20 3 20 -3q0 -3 -5 -5t-25 -9.5t-43 -17.5q-15 -6 -70 -41q-57 -121 -146 -258q-51 -74 -114 -129 q-70 -64 -107 -64q-26 0 -26 29q0 8 2 18zM-90 -430q-4 -14 -4 -23q0 -12 8 -14h3q14 0 40 23q46 41 98 133q63 116 103 219q-92 -54 -168 -162q-59 -80 -80 -176z" />
<glyph unicode="h" horiz-adv-x="460" d="M-57 -2q-8 2 -7.5 12t7.5 29l100 264q39 107 125 303q66 135 154 266q81 119 182 183q40 27 56 27q7 0 7 -3q0 -2 -8 -10q-19 -11 -39 -31q-65 -62 -139 -182q-90 -149 -176 -342q-49 -110 -117 -285q63 83 131 162q78 90 152 154q33 26 57 26q6 0 12 -2q27 -9 9 -53 q-46 -101 -109 -258q-56 -149 -76 -221q-3 -29 4 -31h2q13 0 56 35q15 15 18 12q9 -6 -8 -20q-66 -74 -112 -74h-7q-29 2 -29 43q0 10 2 23q14 90 78 247q6 13 20.5 47t30.5 72t31 76q9 22 4 27q-8 3 -26 -15q-93 -93 -156 -172q-48 -58 -162 -250l-33 -43q-16 -22 -34 -16z " />
<glyph unicode="i" horiz-adv-x="290" d="M-25 2q17 57 103 301q36 86 106 229q-31 -13 -34 -14q-23 0 -23 6q0 5 29 15q39 12 98 43q22 9 25 6q5 -5 -5 -25q-56 -101 -118 -260q-63 -165 -88 -244q55 52 100 72q16 10 16 0q-55 -34 -112 -100q-63 -72 -75 -72h-1q-25 0 -25 22q0 8 4 21zM270 782q8 29 66 72 q52 36 88 47q-30 -37 -92 -127q-9 -23 -18 -34q-8 -9 -15 -9h-2q-13 2 -23 18q-6 10 -6 20q0 6 2 13z" />
<glyph unicode="j" horiz-adv-x="280" d="M-391 -453q15 100 108 215q88 109 213 187q69 141 152 354q53 135 84 232q-18 -12 -33 -15q-24 0 -24 6q0 4 28 13q63 25 103 47q15 9 18 2q7 -4 0 -21l-100 -266q-58 -157 -133 -311q11 8 47 24l59 19q19 0 19 -4q0 -5 -19 -11q-20 -5 -59 -23t-60 -34 q-62 -136 -133 -246q-63 -95 -131 -155q-77 -68 -117 -68q-24 0 -24 33q0 10 2 22zM-350 -438q-2 -11 -2 -19q0 -16 8 -20q3 -1 5 -1q17 0 47 34q35 41 91 133q78 128 123 233q-112 -75 -185 -174.5t-87 -185.5zM252 782q8 30 65 72q50 35 91 47q-36 -44 -93 -127 q-9 -23 -18 -34q-8 -9 -15 -9h-3q-14 2 -23 18q-6 10 -6 20q0 6 2 13z" />
<glyph unicode="k" horiz-adv-x="538" d="M-41 16q0 85 37 172q46 114 141 222q42 113 80 194q152 332 332 449q45 29 61 29q5 0 8 -3l-45 -45q-77 -77 -143 -184q-70 -110 -145 -268l-49 -111q129 123 251 123q82 0 82 -51q0 -44 -65.5 -78.5t-147.5 -36.5q-49 0 -73 6q18 -153 94 -350q135 -361 313 -367h5 q142 0 163 162l10 -2q17 -20 17 -42v-7q-4 -58 -65 -92q-58 -33 -137 -33h-9q-106 3 -207 107q-95 98 -158 251q-80 192 -92 363q-96 -260 -180 -395l-29 -41q-14 -18 -28 -15q-21 6 -21 43zM-18 4q21 33 77 191q12 32 34 93.5t32 88.5q-66 -83 -104.5 -180.5t-38.5 -192.5z M240 457q40 -12 93 -12q11 0 23 1q54 5 92.5 28t38.5 52q0 33 -47 33q-86 0 -200 -102z" />
<glyph unicode="l" horiz-adv-x="280" d="M-14 53q3 49 22 111q66 217 162 420q141 299 301 434q41 35 70 35q4 0 8 -4q0 -2 -10 -9q-18 -9 -37 -28q-32 -32 -111 -162q-79 -135 -149 -289q-126 -283 -176 -467q-13 -46 -13 -66q0 -13 6 -14q3 -1 6 -1q30 0 80 85q20 33 23 33q4 -1 4 -6.5t-4 -16t-12 -24.5 q-65 -111 -122 -111h-3q-46 3 -46 65q0 7 1 15z" />
<glyph unicode="m" horiz-adv-x="722" d="M-41 43l100 260l86 227q9 21 -8 21q-9 0 -47 -21q-10 -8 -14 -4t8 15q61 55 113 61h8q19 0 26 -12q6 -13 0 -35q-14 -48 -55 -152q-59 -135 -72 -174q55 72 132 162q81 94 151 154q33 26 57 26q7 0 13 -2q21 -9 6 -53q-20 -53 -117 -285q75 96 129 160q80 91 152 154 q33 26 57 26q6 0 12 -2q16 -5 16 -23q0 -12 -7 -30l-107 -258q-37 -96 -78 -221q-6 -28 4 -31q15 -3 47 29q15 15 19 12q6 -6 -8 -20q-63 -68 -103 -68h-6q-30 3 -30 45q0 7 1 16q9 66 82 252l80 195q9 27 4 29q-6 3 -26 -17q-88 -88 -154 -170q-64 -79 -166 -256l-31 -37 q-21 -23 -38 -20q-10 3 8 51l86 225q9 21 78 195q8 23 4 27q-9 3 -27 -15q-93 -93 -156 -172q-41 -48 -161 -246l-33 -43q-12 -24 -31 -18q-11 5 -11 18q0 10 7 25z" />
<glyph unicode="n" horiz-adv-x="479" d="M-41 39l186 491q9 21 -8 21q-9 0 -47 -21q-11 -11 -14 -4q-4 4 8 15q61 55 113 61h8q19 0 26 -12q6 -13 0 -35q-20 -47 -127 -326q55 72 132 162q81 94 151 154q33 26 57 26q7 0 13 -2q14 -5 13 -22q0 -12 -7 -31l-107 -258q-34 -89 -75 -221q-6 -28 2 -31q11 -6 49 29 q15 15 18 12q5 -5 -10 -20q-60 -68 -101 -68h-6q-30 2 -30 40q0 9 2 21q15 92 80 252q6 13 20.5 47t30.5 72t31 76q9 21 2 25q-9 3 -25 -13q-93 -93 -156 -172q-30 -35 -161 -250l-33 -43q-16 -22 -31 -16q-9 5 -9 18q0 9 5 23z" />
<glyph unicode="o" horiz-adv-x="425" d="M-20 129q0 57 24 125q65 186 225 264q37 18 41 14l-24 -24q-127 -133 -185 -336q-18 -64 -18 -100q0 -54 35 -54q49 0 119 107q78 115 116 252q15 53 15 86q0 56 -37 90q-27 24 -31 35q-9 20 14 30q5 2 9 2q7 0 13 -5q10 -9 24.5 -31t25.5 -33q16 -19 49 -25 q11 -1 26 0.5t24.5 3t9.5 -0.5q0 -3 -8 -7q-9 -6 -24 -11t-28 -5q-24 0 -45 12q25 -48 25 -115q0 -78 -33 -151q-54 -118 -141 -193q-74 -64 -125 -64q-11 0 -21 3q-75 21 -75 131z" />
<glyph unicode="p" horiz-adv-x="516" d="M-317 -672q-2 1 -2 9q0 14 6 49q17 104 65 227q65 172 189 350l94 254q27 71 100 309l-55 15q62 12 149 49q1 -1 3 -2t4 -3t4 -5l-13 -33q-52 -149 -170 -459q78 150 185 311q122 179 195 179h5q35 -2 35 -48q0 -10 -2 -22q-18 -149 -129 -358q7 1 27.5 4.5t36 6 t16.5 1.5q3 -9 -33 -21q-53 -13 -57 -14q-38 -58 -107 -127q-20 -23 -34 -23q-27 0 -27 45v9q8 38 16 92l11 8q53 0 86 10q26 62 71 205q40 127 43 193q-65 -27 -243 -322q-75 -124 -144 -283q-44 -112 -141 -331q-64 -131 -133 -234q-27 -42 -46 -42q-3 0 -5 1zM-289 -614 l96 213q8 17 117 303q-94 -147 -153 -297q-34 -89 -60 -219zM201 104q0 -50 8 -86q24 24 59 101q-60 -12 -67 -15z" />
<glyph unicode="q" horiz-adv-x="495" d="M-74 -584q0 44 17 68q97 132 215 420q80 196 151 383q-56 -100 -133 -189q-86 -100 -136 -100h-3q-60 3 -60 97v9q3 94 66 205q78 134 203 213q107 68 191 68h7q66 0 66 -31q0 -12 -8 -20q-15 -21 -27 -21q-3 0 0 25q3 27 -35 30q-6 1 -13 1q-65 0 -157 -82 q-111 -102 -188 -285q-43 -101 -43 -158q0 -19 12 -22h4q34 0 105 82q82 94 168 235q22 29 69 143q12 31 25 31q24 0 24 -63q0 -28 -71 -217q-7 -18 -113 -273q-130 -305 -248 -442l117 110q93 93 135 166q5 10 9.5 17t7.5 10t4 2q6 -2 1 -15t-20 -40q-42 -73 -125 -156 l-116 -113q-10 -13 -45 -84q-27 -57 -36 -57h-1q-19 3 -19 53z" />
<glyph unicode="r" horiz-adv-x="399" d="M-92 -27q1 -1 3.5 1t6 7.5t8.5 14.5q47 72 119 252q69 172 84 274q-13 -6 -39 -10q-12 0 -16 4q-3 9 12 12q74 21 119 54q7 3 13 3l7 -1q5 -5 2 -23q-26 -122 -90 -256q28 41 115 154q49 55 96 84q39 22 64 22q40 0 40 -35q0 -7 -1 -14q-8 -60 -84 -108q-19 -13 -25 -7 q-12 6 4 31q23 38 23 39q6 34 -15 37q-20 3 -37 -14q-40 -34 -63 -60q-51 -54 -104 -139q-47 -106 -146 -277l-11 -11t-23 -20t-29 -16q-10 -4 -18 -4q-9 0 -15 6z" />
<glyph unicode="s" horiz-adv-x="354" d="M-106 55q12 79 106 131q48 28 66 28q6 0 8 -3q0 -1 -2 -2t-6.5 -3.5t-8.5 -4.5l-43 -31q-55 -48 -63 -109q-4 -20 -4 -26q0 -43 41 -49q5 -1 10 0q60 0 102 78q46 85 52 219q3 145 34 215q43 92 136 92h6q62 -3 65 -41v-8q0 -50 -69 -82q20 36 20 73q0 36 -20 39 q-6 1 -12 1q-46 0 -62 -64q-10 -42 -10 -102q-1 -35 -2 -65.5t-1.5 -45t-0.5 -16.5q-9 -152 -105 -242q-75 -72 -152 -72h-12q-75 5 -75 67q0 11 2 23z" />
<glyph unicode="t" horiz-adv-x="323" d="M-33 -12q51 185 148 422l39 88q-2 0 -6.5 -0.5t-13 -1.5t-15.5 -2q-46 -6 -49 2q-2 6 3.5 10.5t19 8t31 6.5t42.5 5q21 47 84 166q30 55 65 96q23 23 39 23h4q11 -4 11 -10q0 -1 -25 -49q-32 -58 -98 -224q62 0 102 -4q77 -9 74 -26q3 5 -62 6h-16q-86 0 -111 -2 q-11 -24 -79 -193l-93 -248q52 49 99 72q14 14 14 -2l-14 -11q-15 -10 -41.5 -33.5t-48.5 -51.5q-71 -82 -87 -82h-1q-18 2 -18 19q0 6 3 16z" />
<glyph unicode="u" horiz-adv-x="499" d="M-18 55q0 68 71 242q31 73 113 219q-20 -4 -29 -4q-26 5 -33 8l41 10q71 17 99 35q10 3 12 2q2 -3 0 -10q-88 -168 -125 -260q-57 -137 -70 -195q-5 -20 -5 -34q0 -23 14 -29h4q25 -1 80 63q60 70 135 199q9 9 12 29q45 104 76 168q20 39 48.5 66.5t50.5 35.5q12 5 19 5 q6 0 9 -3q1 -1 1 -2q0 -5 -7 -18q-67 -107 -136 -289q-31 -86 -81 -205q51 51 114 88q24 12 27 6q3 -4 -14 -14q-121 -94 -207 -182l-6 -15q-5 -11 -12 -11q-2 0 -3 1q-20 3 4 41q15 45 84 236q-69 -106 -100 -142q-82 -94 -129 -94q-57 0 -57 53z" />
<glyph unicode="v" horiz-adv-x="466" d="M6 504q-1 3 -1 6q0 8 10 18q14 12 46 25q58 22 82 22q74 0 74 -99v-15q-6 -109 -88 -316q-13 -36 -45 -98q35 37 154 170q168 210 219 342q0 7 3 29t7 22q9 0 20 -18t11 -41q0 -46 -35 -105q-51 -85 -187 -233q-71 -65 -208 -225q-15 -17 -23 -17h-2q-31 3 -31 33 q0 34 25 70q18 37 37 94q58 174 61 287v8q0 74 -53 74q-15 0 -37 -11z" />
<glyph unicode="w" horiz-adv-x="708" d="M-2 8q0 20 29 70q18 33 41 94q58 168 73 289q1 11 1 20q0 60 -50 62q-13 0 -39 -11q-3 -2 -13.5 -9.5t-17.5 -11.5t-8 -1q-2 6 8.5 16t32.5 23q50 29 95 29q74 0 74 -90q0 -10 -1 -21q-12 -122 -100 -315q-15 -43 -49 -107q52 59 176 213q77 100 125 193q18 36 39 63 q26 39 61 39q19 0 19 -12q0 -22 -37 -68l-25 -223q-12 -112 -47 -189q90 96 133 156q130 174 156 330q3 19 0 35q-3 10 0 10q39 0 39 -74q0 -57 -43 -139q-42 -76 -121 -170l-195 -205q-8 -25 -37 -22q-18 3 -18 22q0 32 27 66q18 69 26 176q7 102 21 164q-37 -75 -119 -179 q-63 -73 -197 -237q-13 -20 -27 -20q-3 0 -7 1q-28 12 -25 33z" />
<glyph unicode="x" horiz-adv-x="434" d="M-106 -20q27 94 120 204q66 76 150 154l-8 98q-9 71 -39 88q-12 8 -37 4l-21 -4q-3 9 21 21q34 16 61 16h9q64 -3 79 -98q6 -34 9 -70q40 42 131 117q61 50 112 59q11 2 20 2q36 0 36 -30q-21 9 -58 -4q-45 -15 -96 -58q-91 -75 -145 -129q0 -43 2 -82v-100q0 -91 2 -105 q3 -30 16 -30q18 0 45 49q5 9 8 12t4 2q4 -4 2 -10q-6 -32 -39 -67t-59 -35q-44 3 -53 77q-2 10 -2 111v123q-72 -69 -127 -135q-99 -120 -127 -185l-14 -36q-8 0 -8 12q0 10 6 29z" />
<glyph unicode="y" horiz-adv-x="514" d="M-643 -555q-2 -2 10 -10l8 -6q36 -25 101 -25q163 0 297 88q130 84 299 299q136 176 266 483q-48 -71 -143 -159q-102 -91 -132 -138q-11 -17 -26 -14q-32 8 -21 47q38 90 52 133q53 184 59 301v9q0 71 -43 71q-4 0 -31 -12q-25 -9 -26 -8q-5 8 28 28q57 31 92 31 q61 0 61 -88q0 -11 -1 -24q-12 -149 -76 -316q-20 -55 -59 -127q101 106 188 199q123 144 191 348l6 33q0 12 4 12q9 0 18 -18q13 -26 13 -58q0 -21 -11 -63q-32 -110 -94 -252q-118 -269 -254 -436q-144 -175 -328 -289q-191 -117 -340 -117q-59 0 -98 39q-16 18 -16 29 q0 6 6 10z" />
<glyph unicode="z" horiz-adv-x="444" d="M-66 63q9 62 56 146q27 35 28 35q35 0 64 -39q62 91 129 164q59 62 176 151q-112 -43 -179 -43h-9q-52 1 -76 18t-19 48q9 28 41 41q11 7 16 7q3 0 5 -3q3 -7 -10 -10q-21 -9 -21 -25q0 -26 74 -29q30 -2 58 -2q81 0 147 19q16 16 30 26q43 25 43 -3q0 -12 -24 -25 l-184 -209q-12 -14 -160 -162q37 -52 65 -88q48 -57 88 -60h7q61 0 94 95q8 14 6 14q7 0 4 -23q-21 -126 -115 -126h-4q-65 3 -110 51q-37 40 -70 102q-70 -65 -113 -123q-14 -14 -16 -14q-2 2 6 22q48 95 98 156l-18 43q-7 -4 -23 -29q-48 -71 -67 -133q-15 -46 -15 -59 q0 -6 3 -6q-10 0 -10 25q0 18 5 48z" />
<glyph unicode="{" horiz-adv-x="663" d="M180 -131q0 67 35 151l100 238q60 148 60 209q0 89 -111 139q-43 18 -43 21q4 4 60 4q116 0 184 53q61 49 123 176q58 123 74 162q129 311 395 311q50 0 94 -8q11 -2 18 -4.5t9 -5.5t0 -6q-3 -8 -29 -2q-39 8 -82 8q-195 0 -297 -242l-63 -143q-144 -326 -404 -320 q133 -62 133 -190q0 -95 -74 -260q-9 -19 -34 -77t-43 -99q-33 -79 -33 -146q0 -153 172 -174q31 -3 31 -8q-3 -9 -45 -6q-94 9 -156 59q-74 59 -74 160z" />
<glyph unicode="|" horiz-adv-x="819" d="M477 -483v1843h45v-1843h-45z" />
<glyph unicode="}" horiz-adv-x="663" d="M-276.5 -334q-1.5 3 0.5 6q3 8 28 2q39 -8 82 -8q195 0 297 242q32 79 78 182q147 329 407 320q-135 59 -135 196q0 100 74 254q11 23 61 137q37 81 37 150q0 149 -176 170q-31 3 -31 8q3 9 46 6q91 -9 157 -59q74 -59 74 -160q0 -70 -37 -154q-5 -11 -35 -77.5 t-53 -118.5q-59 -142 -59 -207q0 -92 112 -141q43 -18 43 -21q-4 -4 -59 -4q-115 0 -179.5 -49.5t-127.5 -179.5q-28 -58 -88 -201q-129 -311 -396 -311q-50 0 -94 8q-11 2 -18 4.5t-8.5 5.5z" />
<glyph unicode="~" horiz-adv-x="1024" d="M266 483q-10 3 4 27q60 117 179 108q46 -3 133 -40q90 -38 131 -41q78 -6 133 67q16 23 20 19q6 -3 -6 -29q-62 -132 -170 -123q-45 3 -135 41q-87 40 -129 43q-89 9 -139 -53q-17 -23 -21 -19z" />
<glyph unicode="&#xa2;" horiz-adv-x="356" d="M-12 188q0 40 16 93q35 104 117 180q83 80 168 80h14l76 141l6 -18l-66 -127q28 -9 31 -31q7 -30 -28 -45q-22 -13 -43 -4l-89 -172q-81 -153 -106 -197q4 -2 14 -2q41 0 92 57q42 52 68 113l16 37q8 -3 -4 -45q-23 -73 -77 -127q-64 -64 -115 -55h-6l-72 -132l-6 21 l61 115q-67 24 -67 118zM66 211q-21 -95 2 -115q22 51 98 199q122 217 127 225q-2 0 -2 2h-4q-58 6 -127 -94q-67 -102 -94 -217z" />
<glyph unicode="&#xa3;" d="M-92 72q0 10 4 34q22 36 51 33q20 -4 119 -45q27 45 45 99l43 126q-102 0 -102 9q3 23 116 26l9 21q59 144 167 215q79 55 152 55q80 0 80 -74q0 -52 -72 -106q-11 -3 -12 -2q-3 3 4 10q39 39 39 86q0 54 -62 57q-53 3 -92 -28q-56 -45 -116 -195l-17 -41 q113 -12 156 -37q-62 4 -170 4q-64 -143 -144 -235q56 -24 87 -35q45 -17 124 -31q123 -6 123 101q0 8 4 8q7 0 7 -14q6 -57 -34.5 -94t-109.5 -37q-65 0 -139 26q-63 21 -96 37q-48 -48 -107 -45q-57 3 -57 72zM-78 96q0 -73 47 -76q44 -3 82 35q-28 14 -102 47 q-21 3 -27 -6z" />
<glyph unicode="&#xa5;" horiz-adv-x="485" d="M20 287q3 26 130 26q9 95 6 160q-6 120 -41 135q-23 10 -45 2q-19 -8 -23 -4q-3 9 21 21q48 31 82 28q74 -6 83 -153q3 -107 -8 -178q71 121 195 239q83 80 141 80q55 0 55 -51q0 -8 -2 -10q-22 14 -55 14q-56 0 -117 -55q-122 -108 -204 -230q89 -3 141 -37 q-78 5 -158 5q-48 -91 -94 -213q-31 -78 -55 -78q-27 0 -9 73q16 69 78 218h-37.5t-30.5 0.5t-24 1t-16.5 1.5t-9.5 2.5t-3 2.5z" />
<glyph unicode="&#xa8;" d="M317 707q0 47 48 47q47 0 47 -47q0 -48 -47 -48q-48 0 -48 48zM489 707q0 47 48 47q47 0 47 -47q0 -48 -47 -48q-48 0 -48 48z" />
<glyph unicode="&#xa9;" horiz-adv-x="1024" d="M213 518q0 152 104 256q107 107 261 107q149 0 256 -107q106 -103 106 -256q0 -152 -106 -258q-103 -106 -256 -106q-154 0 -261 104q-104 107 -104 260zM252 518q0 -137 94 -231q97 -97 232 -97q130 0 227 97q96 96 96 231q0 131 -96 227q-94 99 -227 99 q-134 0 -230 -96t-96 -230zM362 506q0 105 74 164q65 53 164 53q81 0 129 -25q12 -15 12 -65v-43h-18q-15 115 -127 115q-72 0 -116 -51.5t-44 -137.5q0 -89 44.5 -140.5t117.5 -51.5q112 0 133 94h19l-5 -33q-6 -42 -20 -61q-64 -25 -123 -25q-101 0 -166 47 q-74 53 -74 160z" />
<glyph unicode="&#xab;" horiz-adv-x="534" d="M12 291q108 55 275 178q18 15 22 8q4 -8 -16 -28q-97 -104 -187 -168q30 -89 41 -166q3 -37 -4 -37q-1 0 -16 24q-39 89 -115 189zM213 291q105 54 274 178q19 16 23 8t-16 -28q-97 -104 -187 -168q30 -89 41 -166q3 -37 -4 -37q-1 0 -16 24q-39 89 -115 189z" />
<glyph unicode="&#xad;" horiz-adv-x="350" d="M4 315q29 3 94 27q70 26 99 33q83 21 96 -8q15 -38 -68 -56q-52 -12 -119 -12q-73 0 -102 16z" />
<glyph unicode="&#xae;" horiz-adv-x="1024" d="M207 518q0 150 104 254q107 107 260 107q149 0 256 -107q107 -104 107 -254q0 -153 -107 -260q-103 -106 -256 -106q-152 0 -258 106t-106 260zM246 518q0 -139 94 -233q97 -97 231 -97q131 0 228 97q96 96 96 233q0 133 -94 227q-97 97 -230 97q-132 0 -229 -97 q-96 -96 -96 -227zM375 317v17q71 0 71 88v213q0 74 -71 74v16h164q176 0 170 -109q-3 -50 -45 -73l-35 -17q15 -29 67 -106q66 -91 117 -88v-15q-20 -4 -53 -4q-69 0 -96 35q-7 18 -41 78q-20 31 -60 78l-55 6v-90q0 -48 13.5 -66.5t53.5 -19.5v-17h-200zM508 526 q129 -9 129 90q0 101 -127 89q-2 -16 -2 -64v-115z" />
<glyph unicode="&#xb4;" d="M358 649q39 20 136 131q33 39 63 39q25 0 25 -24q0 -25 -37.5 -59t-93.5 -60q-62 -30 -93 -27z" />
<glyph unicode="&#xb8;" d="M20 -121q5 5 11 -4q30 -35 106 -35q69 0 78 49q6 39 -43 48q-16 0 -35 8q-4 4 15 26q15 15 28 33h27l-25 -29q-9 -9 8 -12q92 -12 89 -74q-2 -41 -41 -64.5t-99 -19.5q-88 3 -116 58q-9 9 -3 16z" />
<glyph unicode="&#xbb;" horiz-adv-x="534" d="M-47 88q-4 9 16 29q97 104 187 168q-30 89 -41 166q-3 36 4 36q1 0 16 -24q39 -89 115 -189q-108 -55 -275 -178q-18 -15 -22 -8zM154 88q-4 9 16 29q99 106 186 168q-30 89 -41 166q-3 36 4 36q2 0 17 -24q39 -89 115 -189q-108 -55 -275 -178q-18 -15 -22 -8z" />
<glyph unicode="&#x2c6;" d="M313 653q-4 8 9 11q77 54 184 147q15 12 18 12q5 0 8 -20q22 -95 41 -141q1 -1 2.5 -5.5t2.5 -5.5l-5 -4q-3 -3 -16 10q-40 40 -55 74q-88 -51 -174 -80q-12 -3 -15 2z" />
<glyph unicode="&#x2da;" d="M367 731q0 38 28 66t66 28t67 -28t29 -66q0 -39 -27.5 -67.5t-68.5 -28.5q-39 0 -66.5 27.5t-27.5 68.5zM406 731q0 -57 55 -57q57 0 57 57q0 55 -57 55q-55 0 -55 -55z" />
<glyph unicode="&#x2dc;" d="M303 666q-17 0 12 41l4 6q36 48 87 45q17 -1 60.5 -16.5t53.5 -16.5q42 -3 64 25q3 13 12 10q6 -3 0 -17q-35 -78 -96 -75q-14 1 -58.5 16t-56.5 16q-23 3 -66 -26z" />
<glyph unicode="&#x401;" horiz-adv-x="1286" d="M18 33q0 7 5 12q38 -51 67 -65q51 -26 115 -29q115 -6 203 43q61 32 118 96l-182 137q-146 106 -190 115q-41 9 -41 -10q0 -38 73 -111q87 -84 185 -108q-128 6 -211 80q-70 61 -70 122q0 27 16 37q40 27 87 15q124 -34 380 -222q103 121 271 447q-13 3 -40.5 12.5 t-41.5 13.5q-36 17 -27 39q10 13 58 -2l69 -24l99 190q163 319 194 373q-266 78 -500 78q-363 0 -372 -238q-3 -58 63 -139q54 -67 117 -109q14 -14 14 -16q-3 -6 -26 8q-220 128 -238 234q-4 28 -4 37q0 144 184 208q131 46 314 46q43 0 73 -3q204 -18 400 -65 q56 98 112 151q22 20 45 35t38.5 20t19.5 1l-35 -41q-57 -70 -107 -184q284 -76 447 -199q32 -23 22 -33q1 1 -5.5 6t-20.5 13q-103 62 -463 170q-63 -136 -174 -361q-40 -86 -105 -207q136 -29 160 -33q156 -27 234 -30q17 -1 16 -6q-4 -11 -35 -11q-186 -3 -395 41 q-176 -314 -320 -452l146 -105q210 -146 340 -211q153 -75 286 -75q173 0 244 126q3 6 6 10t5.5 6t3.5 1q9 -3 -5 -27q-19 -54 -75 -96q-76 -55 -187 -55q-293 0 -653 258q-19 13 -73 52.5t-91 66.5q-195 -160 -368 -154q-94 3 -142 51q-33 33 -33 70zM1231 1526q0 47 47 47 t47 -47t-47 -47t-47 47zM1403 1526q0 47 47 47t47 -47t-47 -47t-47 47z" />
<glyph unicode="&#x404;" horiz-adv-x="1521" d="M8 274q15 190 146 385q116 173 284 304q190 149 414 239q204 83 377 98q62 5 76 5q281 0 311 -142q4 -28 4 -39q0 -111 -133 -188q-126 -72 -273 -72q-94 0 -167 31q-54 25 -80 61q-22 31 -17 39l25 -24q36 -36 80 -56q67 -30 159 -30q124 0 216 59q104 67 104 170 q0 24 -6 45q-27 123 -244 123q-40 0 -63 -2q-140 -12 -320 -92q-212 -95 -391 -248q-160 -139 -260 -305q-116 -191 -125 -363q-12 -202 121 -305q124 -89 356 -86q316 6 574 150q218 120 245 301q3 31 0 59q-2 11 -3 17.5t-2 11.5t-1.5 7t-1.5 1q15 9 43 -29q20 -33 17 -67 q-6 -167 -289 -324q-277 -152 -590 -158q-279 -6 -430 89q-171 107 -156 335zM106 762q6 11 64 2q81 -18 188 -33q61 -9 183 -20q178 -12 266 -6q18 1 18 -5q0 -11 -37 -14q-201 -22 -448 2q-150 22 -201 35q-42 15 -33 39z" />
<glyph unicode="&#x405;" horiz-adv-x="538" d="M-41 16q0 85 37 172q46 114 141 222q72 184 148 327q-61 31 -78 76q-9 27 2 27q-3 0 16 -29q22 -36 68 -57q192 346 461 618q160 163 354 273q214 120 393 120q127 0 202 -64t69 -167q-15 -301 -433 -612q-137 -101 -346 -170q-222 -72 -413 -72q-151 0 -230 33 q-66 -127 -114 -242q129 123 251 123q82 0 82 -51q0 -44 -65.5 -78.5t-147.5 -36.5q-49 0 -73 6q18 -153 94 -350q135 -361 313 -367q147 -3 168 162l10 -2q20 -23 17 -49q-4 -58 -65 -92.5t-146 -32.5q-106 3 -207 107q-95 98 -158 251q-80 192 -92 363q-96 -260 -180 -395 l-29 -41q-14 -18 -28 -15q-21 6 -21 43zM-18 4q21 33 77 191q12 32 34 93.5t32 88.5q-66 -83 -104.5 -180.5t-38.5 -192.5zM240 457q49 -14 116 -11q54 5 92.5 28t38.5 52q0 33 -47 33q-86 0 -200 -102zM358 729q86 -27 222 -27q169 0 391 78q210 74 342 176 q376 286 397 588q6 95 -45 146q-57 57 -168 57q-302 0 -680 -393q-274 -285 -459 -625z" />
<glyph unicode="&#x406;" horiz-adv-x="870" d="M-63 1120q0 143 165 201q98 34 226 31q160 -3 350 -54l340 -98q6 41 0 68q-3 15 2 18q8 4 20.5 -11t23 -41t11.5 -50l62 -19l34 -10q-3 -9 -34 -6l-64 12q-16 -161 -102 -368q-141 -340 -365 -627q-146 -188 -287 -301q-108 -85 -180 -70q-60 15 -57 90q3 117 104 221 q38 38 56 46q-15 -17 -33 -50q-74 -148 -74 -249q0 -41 27 -41q47 0 106 53q122 116 256 311q206 302 348 625q92 208 142 377q-133 28 -254 61q-278 74 -434 88q-122 9 -201 -35q-121 -65 -109 -221q3 -58 60 -137q40 -56 90 -100q14 -19 13 -21.5t-21 10.5 q-192 127 -213 232q-8 31 -8 65z" />
<glyph unicode="&#x407;" horiz-adv-x="870" d="M-63 1120q0 143 165 201q98 34 226 31q160 -3 350 -54l340 -98q6 41 0 68q-3 15 2 18q8 4 20.5 -11t23 -41t11.5 -50l62 -19l34 -10q-3 -9 -34 -6l-64 12q-16 -161 -102 -368q-141 -340 -365 -627q-146 -188 -287 -301q-108 -85 -180 -70q-60 15 -57 90q3 117 104 221 q38 38 56 46q-15 -17 -33 -50q-74 -148 -74 -249q0 -41 27 -41q47 0 106 53q122 116 256 311q206 302 348 625q92 208 142 377q-133 28 -254 61q-278 74 -434 88q-122 9 -201 -35q-121 -65 -109 -221q3 -58 60 -137q40 -56 90 -100q14 -19 13 -21.5t-21 10.5 q-192 127 -213 232q-8 31 -8 65zM897 1444q0 47 47 47t47 -47t-47 -47t-47 47zM1069 1444q0 47 47 47t47 -47t-47 -47t-47 47z" />
<glyph unicode="&#x40e;" horiz-adv-x="1423" d="M-94 -653q0 6 4 10q-2 -2 13 -11l20 -12q49 -25 135 -28q187 -6 342 67q145 68 301 221q302 293 586 902q40 83 153 331q-203 -348 -510 -614q-263 -231 -444 -291q-66 -21 -100 -6q-27 12 -27 49q0 25 16 62q11 25 150 241q146 230 211 363q161 327 149 526 q-12 196 -211 205q-173 6 -356 -109q-141 -87 -242 -215q-114 -144 -108 -266q3 -91 94 -94q56 -3 135 33q27 12 27 10q3 -9 -23 -23q-71 -39 -139 -39q-117 0 -123 111q-6 129 84 272q85 130 197 205q212 144 452 135q141 -4 225.5 -88t86.5 -215q3 -187 -150 -477 q-73 -140 -358 -565q-43 -64 -31 -82q16 -23 74 4q158 68 403 281q305 266 545 678q24 70 76 176q34 64 67 55t12 -68q-27 -68 -90 -151q-91 -299 -182 -496q-246 -537 -584 -848q-368 -336 -723 -336q-77 0 -122 39q-35 27 -35 58zM1325 1243q-55 40 6 141q21 40 43 31 l-8 -29q-12 -53 27 -79q73 -49 295 104q20 14 21 13l-7 -7q-11 -11 -46.5 -48t-51 -51.5t-46.5 -36.5t-63 -36q-105 -52 -170 -2z" />
<glyph unicode="&#x410;" horiz-adv-x="1638" d="M-229 -92q-9 45 45 92q49 46 123 66q25 8 30 4q2 -2 -8 -9l-8 -4q-109 -44 -109 -120q0 -80 129 -74q255 15 670 344q164 129 342 307q-18 5 -63 25q-43 18 -33 41q6 12 20 12q19 0 68 -21l45 -18q241 244 494 590l-336 67q-319 67 -351 72q-189 37 -340 51q-50 6 -98 6 q-367 0 -352 -219q3 -52 76 -125q56 -56 129 -98q4 -3 10 -8l6 -6q-4 -4 -29 6q-240 106 -266 217q-6 24 -6 47q0 118 174 170q118 37 303 37q57 0 82 -2q218 -14 680 -111l334 -80q35 49 52.5 75t37 65.5t23.5 66.5q2 10 2 49q0 21 8 21q30 0 45 -74q17 -95 8 -246 q92 -21 156 -34q43 -9 43 -13q-3 -10 -47 -2q-108 18 -154 29q-1 -10 -3 -24t-5.5 -34.5t-5.5 -35.5q-56 -297 -119 -488q-58 -174 -174 -409q99 108 172 135q16 6 16 -4q0 -3 -4.5 -5.5t-11 -6t-8.5 -5.5q-73 -48 -156 -147q-35 -40 -96 -121q-27 -37 -54 -37q-19 0 -4 27 q7 14 35 80q97 219 187 499q90 283 124 457q21 102 25 135l-78 15q-227 -356 -465 -605q78 -20 115 -28q112 -24 223 -33q4 -1 8 -1t6 -0.5l4 -1t3 -0.5t0 -1q0 -10 -35 -10q-152 -3 -279 20q-30 5 -79 21q-173 -170 -357 -306q-439 -327 -721 -348q-183 -15 -198 66z M1561 1161q32 -4 65 -18q12 89 19 172q-1 -5 -25 -51q-10 -17 -23 -41t-21.5 -38.5t-14.5 -23.5z" />
<glyph unicode="&#x411;" horiz-adv-x="1622" d="M18 33q0 7 5 12q38 -51 67 -65q51 -26 115 -29q27 -3 55 0q-70 64 -70 153q5 80 84 151.5t183 88.5q14 0 14 -8q0 -6 -14 -6q-83 -20 -143 -87t-60 -141q0 -84 63 -141q38 7 91 33q61 32 118 96l47 55q103 121 271 447l18 39l78 149l-70 -8q-118 -24 -118 -74 q0 -37 41 -61q-97 7 -97 70q0 56 187 86l67 8l11 20q163 319 194 373l25 41q22 44 51 80q-297 42 -518 28q-187 -21 -306.5 -91.5t-123.5 -174.5q-9 -133 194 -248l7.5 -5t6.5 -4.5t1 -2.5q0 -2 -3 -2q-2 0 -4.5 -0.5l-5 -1t-6 0.5t-6.5 3q-151 61 -212 122t-56 136 q4 116 152 191t405 100q271 25 508 -8l28 28q22 20 45 35t38.5 20t19.5 1l-35 -41q-10 -12 -39 -53q135 -26 323.5 -80.5t188.5 -83.5l-66 18q-357 88 -460 103h-11q-31 -60 -43 -88l-20 -43q-63 -136 -174 -361l-6 -14q155 -12 243 -45q142 -50 227 -147t85 -214 q0 -162 -129.5 -295.5t-337 -206.5t-441.5 -73q-262 0 -407 104q-56 -13 -100 -10q-94 3 -142 51q-33 33 -33 70zM344 -63q129 -99 358 -99q212 0 394 72t292.5 203.5t110.5 294.5t-128 263.5t-329 108.5l-88 -174l-20 -39q-176 -314 -320 -452l-53 -49q-116 -90 -217 -129z " />
<glyph unicode="&#x412;" horiz-adv-x="1511" d="M23 131q3 90 88 160q77 65 178 80q14 0 14 -9q0 -6 -14 -6q-82 -19 -142 -83.5t-61 -137.5q-3 -129 141 -205q127 -65 308 -65q282 0 495 121q229 129 287 346q14 49 14 102q0 122 -80 217q-70 79 -170 113q-188 -74 -360 -82q0 -4 -76 -150q-87 -176 -192 -319 q-103 -136 -148 -133q-38 3 -29 51q4 16 14.5 31t21.5 21.5t16 2.5q6 -3 2 -14q-10 -23 -13 -39q-6 -29 5 -29q24 0 45 56q72 125 262 524q-66 4 -96 18t-25 37q12 53 186 80q122 246 228 428q-157 -10 -377 -10q-306 0 -285 115q9 56 129 90q110 33 217 24q51 -3 51 -10 q0 -4 -32 -4q-85 3 -168 -18q-121 -30 -121 -97q0 -82 209 -82q11 0 54 2t142.5 6.5t194.5 8.5q46 66 76 88q52 30 57 22q2 -2 -22 -30q-14 -20 -43 -76q58 4 73 4q161 2 247.5 -47.5t86.5 -147.5q0 -99 -111 -194q-74 -65 -172 -111q136 -47 218 -135q94 -98 94 -225 q0 -40 -13 -90q-58 -224 -333 -361q-250 -125 -562 -125q-201 0 -346 68q-166 75 -163 219zM565 731q-3 -15 14.5 -23t55.5 -8l47 99q-114 -21 -117 -68zM731 702q118 3 313 74q-92 30 -213 33q-37 0 -51 -2zM791 825q10 2 43 2q127 0 247 -30q84 36 140 104q70 79 82 182 q10 82 -51 126t-171 44q-72 0 -88 -2q-63 -128 -202 -426z" />
<glyph unicode="&#x413;" horiz-adv-x="1226" d="M-86 70q0 37 13.5 72.5t25.5 35.5q2 0 2 -2t-2.5 -10.5t-5 -23t-2.5 -29.5q0 -120 91 -195.5t238 -75.5q133 0 290.5 93.5t285.5 246.5q204 248 379 619q121 261 155 407q-386 95 -589 95q-183 0 -297.5 -62t-114.5 -170q0 -140 205 -268q14 -14 14 -17q0 -2 -2 -2 q-7 0 -22 9q-151 76 -215 143.5t-64 140.5q0 118 142 182t395 64q255 0 557 -68q-2 10 -2 33q0 38 4 49q5 0 15 -12t20 -35.5t14 -48.5q110 -31 286.5 -104t176.5 -99l-62 23q-280 101 -401 131q-16 -182 -115 -397q-156 -346 -375 -609q-125 -150 -325 -256t-359 -106 q-182 0 -269 61t-87 185z" />
<glyph unicode="&#x414;" horiz-adv-x="1935" d="M39 1266q0 77 139 118q111 31 203 25q80 -4 74 -20q0 1 -54 4q-84 3 -170 -21q-116 -34 -116 -102q0 -90 227 -90q256 0 684 45l33 49l-53 -10q37 30 100 86q38 27 41 24q17 -10 -76 -145q73 8 160 8q321 0 502 -111q219 -133 219 -411q0 -70 -19 -148 q-71 -297 -315 -520q-217 -199 -553 -199q-282 0 -533 213q-69 60 -161 152q-50 -64 -119 -184q-67 -113 -88 -172q-11 -33 -19 -35q-11 -3 6 53q1 1 1 2q44 147 176 379q-52 66 -103 117q-29 -20 -57 -88q-75 -184 -78 -314q-3 -111 31 -166q11 -22 3 -20q-10 3 -24 29 q-41 65 -41 161q0 187 68 344q37 88 63 91q74 6 177 -97q101 186 254 406q71 97 387 481q-37 -3 -324 -35q-176 -19 -360 -22q-101 -3 -189 26q-96 35 -96 97zM412 272l161 -145q281 -254 500 -254q155 0 260 45q110 48 223 166q177 186 263 489q26 88 26 187 q0 233 -151.5 340.5t-481.5 107.5q-74 0 -157 -6q-221 -354 -367 -557q-98 -125 -276 -373z" />
<glyph unicode="&#x415;" horiz-adv-x="1286" d="M18 33q0 7 5 12q38 -51 67 -65q51 -26 115 -29q115 -6 203 43q61 32 118 96l-182 137q-146 106 -190 115q-41 9 -41 -10q0 -38 73 -111q87 -84 185 -108q-128 6 -211 80q-70 61 -70 122q0 27 16 37q40 27 87 15q124 -34 380 -222q103 121 271 447q-13 3 -40.5 12.5 t-41.5 13.5q-36 17 -27 39q10 13 58 -2l69 -24l99 190q163 319 194 373q-266 78 -500 78q-363 0 -372 -238q-3 -58 63 -139q54 -67 117 -109q14 -14 14 -16q-3 -6 -26 8q-220 128 -238 234q-4 28 -4 37q0 144 184 208q131 46 314 46q43 0 73 -3q204 -18 400 -65 q56 98 112 151q22 20 45 35t38.5 20t19.5 1l-35 -41q-57 -70 -107 -184q284 -76 447 -199q32 -23 22 -33q1 1 -5.5 6t-20.5 13q-103 62 -463 170q-63 -136 -174 -361q-40 -86 -105 -207q136 -29 160 -33q156 -27 234 -30q17 -1 16 -6q-4 -11 -35 -11q-186 -3 -395 41 q-176 -314 -320 -452l146 -105q210 -146 340 -211q153 -75 286 -75q173 0 244 126q3 6 6 10t5.5 6t3.5 1q9 -3 -5 -27q-19 -54 -75 -96q-76 -55 -187 -55q-293 0 -653 258q-19 13 -73 52.5t-91 66.5q-195 -160 -368 -154q-94 3 -142 51q-33 33 -33 70z" />
<glyph unicode="&#x416;" horiz-adv-x="2076" d="M10 63q0 125 73.5 243t204 210t327 147.5t425.5 55.5q36 0 134 -4q143 232 247 518q-104 23 -263.5 64t-257.5 61t-175 20q-126 0 -202.5 -64t-76.5 -173q0 -56 38.5 -128t105.5 -130q12 -12 12 -17q0 -4 -4 -4q-6 0 -16 10q-120 86 -165.5 152.5t-45.5 136.5 q0 118 106 179t305 61q87 0 294.5 -46.5t353.5 -97.5q2 7 5 28.5t7 35t10 14.5q11 0 18 -31.5t7 -62.5l135 -39l22 -6q-3 -6 -20 -6q-12 0 -29 3t-31 7t-39.5 10.5t-39.5 10.5q-16 -113 -79 -268t-122 -246q33 -3 145 -17l33 -6q36 74 66 150q74 184 90 225q0 1 17.5 47 t43 80.5t57.5 34.5q7 0 7 -7v-5t-1 -4t-4 -11l-7.5 -20t-14 -38t-20.5 -59q-57 -176 -140 -364l-18 -43l37 -8q46 -9 116 -31q8 18 26.5 52.5t21.5 39.5q53 92 96 154q111 168 277.5 275.5t318.5 107.5q139 -1 203.5 -53t64.5 -158q0 -54 -30 -127t-78.5 -141.5t-120 -117.5 t-144.5 -53q-33 0 -66.5 13t-33.5 32q0 4 4 4q10 0 48 -14t54 -14q63 0 121.5 40t98 99t63 124.5t23.5 119.5q0 103 -59 162t-163 59l-4 -2q-149 -3 -288.5 -106.5t-253.5 -278.5q-72 -111 -127 -232q81 -25 165 -61q19 -9 19 -14q0 -2 -4 -2q-8 0 -23 6q-58 28 -137 47 l-29 8q-29 -56 -38 -84q-56 -145 -56 -295q0 -107 53.5 -165t131.5 -58q69 0 155 61q15 11 17 11l2 -2q0 -5 -21 -29q-128 -96 -219 -96q-81 0 -137 64.5t-56 166.5q0 157 86 373l31 69q-108 26 -155 35q-9 -23 -37 -82q-63 -141 -209 -352q129 129 188 129q4 0 4 -4 l-32 -20q-77 -50 -197 -170q-53 -52 -102 -111q-5 0 -5 6q0 4 5 14l47 82q46 81 133 259.5t114 230.5q8 13 15 31q-98 13 -185 16q-186 -304 -403 -510q-148 -140 -315.5 -221.5t-309.5 -81.5q-219 0 -219 196zM37 51q0 -164 196 -164q238 0 558 308q169 163 366 489h-24 q-21 0 -31 2h-49q-186 0 -353 -42t-285 -109.5t-205.5 -151.5t-130 -170t-42.5 -162z" />
<glyph unicode="&#x417;" horiz-adv-x="1511" d="M33 76q-21 99 5.5 195.5t95 174t166 135.5t225.5 87t266 22q139 -8 233 -54t111 -118q19 -91 -56.5 -176.5t-201.5 -134t-252 -43.5q-73 6 -82 43q-5 23 11.5 36.5t47.5 12.5q12 0 16 -4q0 -4 -15.5 -9t-30 -14t-11.5 -22q0 -14 55 -17q120 -6 289 82q232 113 207 238 q-24 115 -270 127q-225 12 -441 -86q-183 -84 -279.5 -217.5t-64.5 -267.5q44 -231 406 -254q70 -3 159.5 9t189 42t197 73.5t184.5 107.5t151.5 139.5t98 174.5t23.5 207q-5 44 -26 82.5t-48.5 63.5t-59 44.5t-57 28.5t-42.5 11q-188 -59 -352 -56l-88 11q-55 9 -82 24 t-25 37q4 26 93 48t186 22q5 -1 18.5 -1t22.5 -1q103 -8 235 -52q92 30 161 109.5t81 175.5q10 71 -44.5 112.5t-152.5 49.5q-45 6 -151 6q-217 5 -363 18q-273 21 -264 121q5 50 96 81t209 24q29 -3 49.5 -6.5t30 -6.5t8.5 -6q0 -5 -31 -2q-16 0 -20 2q-107 8 -184.5 -18.5 t-81.5 -73.5q-4 -41 43 -64.5t147 -31.5q15 -1 375 -14q17 0 74.5 -1.5t70.5 -1.5q151 -12 225 -65.5t64 -149.5q-10 -78 -96 -152t-217 -122l8 4q78 -39 142.5 -108t80.5 -160q29 -158 -39 -318t-227 -280q-278 -209 -758 -185q-176 11 -297 94t-147 218zM737 797 q0 -14 51 -27.5t105 -9.5q4 0 33 2.5t39.5 3.5t38 3.5t45.5 5.5t45 8t53 11.5t53 14.5q-81 35 -199 47q-8 0 -73 1t-72 1q-116 -15 -119 -61z" />
<glyph unicode="&#x418;" horiz-adv-x="1558" d="M20 41l25 -8q15 -6 37 -6q121 0 268 106q-6 5 -67 66q-50 52 -148 141q-39 28 -61 14q-42 -22 18 -88q61 -67 98 -78q-81 0 -124 58q-23 33 -23 67q0 36 23 56q34 27 88 2q73 -37 159 -115l97 -82q31 24 84 70q170 167 313 432q136 251 139 424q6 226 -225 229 q-156 3 -344 -188q-184 -187 -184 -348q0 -95 92 -95q68 0 133 35q23 15 26 12q5 -8 -22 -26q-71 -39 -137 -39q-114 0 -123 117q-12 182 168 374q170 182 399 179q126 -2 210.5 -70.5t90.5 -179.5q9 -198 -123 -447q-116 -215 -342 -413q-17 -15 -123 -97 q237 -208 392 -211q251 -6 518 443q78 185 143 317q116 237 197 352q64 89 141 140q69 47 119 53q14 3 22 0q9 -3 6 -8q-7 -1 -53 -17q-74 -36 -158 -163q-70 -107 -153 -287q-139 -308 -221 -504q-44 -104 -121 -299q56 62 117 82q7 2 16 -2q0 -4 -12 -10l-25 -13 q-45 -31 -92 -88q-62 -77 -68 -80q-14 -17 -28 -14q-38 12 -23 49q65 181 154 391q-228 -372 -488 -372q-229 0 -446 202q-146 -96 -279 -96q-23 0 -43.5 5.5t-30.5 13t-6 14.5z" />
<glyph unicode="&#x419;" horiz-adv-x="1558" d="M20 41l25 -8q15 -6 37 -6q121 0 268 106q-4 3 -67 66q-50 52 -148 141q-42 28 -61 14q-42 -22 18 -88q61 -67 98 -78q-81 0 -124 58q-23 38 -23 67q0 36 23 56q33 26 88 2q62 -30 159 -115l97 -82q61 47 84 70q170 170 313 432q136 245 139 424q6 226 -225 229 q-156 3 -344 -188q-184 -187 -184 -348q0 -95 92 -95q68 0 133 35q23 15 26 12q5 -8 -22 -26q-68 -39 -137 -39q-114 0 -123 117q-12 182 168 374q170 182 399 179q126 -2 210.5 -70.5t90.5 -179.5q9 -198 -123 -447q-113 -213 -342 -413q-7 -5 -26.5 -21t-44 -35.5 t-52.5 -40.5q236 -208 392 -211q251 -6 518 443q69 166 143 317q115 233 197 352q63 86 141 140q72 47 119 53q14 3 22 0q9 -3 6 -8q-7 -1 -53 -17q-74 -36 -158 -163q-70 -104 -153 -287q-139 -308 -221 -504q-44 -104 -121 -299q55 61 117 82q5 2 16 -2q0 -4 -12 -10 l-25 -13q-37 -26 -92 -88q-62 -77 -68 -80q-14 -17 -28 -14q-38 12 -23 49q55 153 154 391q-228 -372 -488 -372q-229 0 -446 202q-146 -96 -279 -96q-23 0 -43.5 5.5t-30.5 13t-6 14.5zM1325 1243q-55 40 6 141q21 40 43 31l-8 -29q-12 -53 27 -79q73 -49 295 104 q20 14 21 13l-7 -7q-11 -11 -46.5 -48t-51 -51.5t-46.5 -36.5t-63 -36q-105 -52 -170 -2z" />
<glyph unicode="&#x41a;" horiz-adv-x="1431" d="M-35 -106q0 -4 27 -25q39 -33 114 -33q168 0 336 213q122 156 338 580q131 262 295 569q-82 29 -231 72q-220 59 -434 65q-126 3 -203 -39q-126 -64 -117 -227q3 -67 53 -145q42 -67 88 -107q15 -15 13 -18q-3 -3 -19 6q-188 130 -209 239q-6 30 -6 58q0 161 178 225 q101 37 242 37q165 0 418 -61q113 -28 239 -84q35 60 96.5 107t82.5 32q2 -2 -11 -15q-6 -5 -12 -11t-12.5 -13t-9.5 -10q-45 -54 -74 -117q36 -16 39 -18q15 -7 21.5 -12.5t4.5 -8.5q-4 -4 -6 -2q-13 6 -67 23q-70 -163 -256 -556q-176 -350 -383 -575q-225 -243 -414 -246 q-68 -3 -102 43q-28 36 -19 54zM954 651q4 13 39 41q215 185 461 355q284 196 412 196q63 0 93 -28t28 -85q1 -22 -7 -44.5t-16 -22.5q0 1 0.5 1.5t-0.5 5.5t-2 8.5t-2.5 12t-3.5 15.5q-18 80 -119 80q-127 0 -360 -166q-150 -104 -404 -332q-28 -25 -31 -39q-2 -6 17 -61 q75 -203 168 -385q134 -259 215 -359q132 -163 274 -163q84 0 139 49q49 43 64 112q6 31 8 31q4 0 10 -10t10 -26.5t1 -31.5q-9 -67 -86 -108q-64 -37 -150 -37q-307 0 -573 506q-117 218 -176 424q-15 46 -9 61z" />
<glyph unicode="&#x41b;" horiz-adv-x="1638" d="M-229 -92q-9 45 45 92q49 46 123 66q25 8 30 4q2 -2 -8 -9l-8 -4q-109 -44 -109 -120q0 -80 129 -74q255 15 670 344q164 129 342 307l37 39q241 244 494 590l-336 67q-319 67 -351 72q-189 37 -340 51q-50 6 -98 6q-367 0 -352 -219q3 -52 76 -125q56 -56 129 -98 q4 -3 10 -8l6 -6q-4 -4 -29 6q-240 106 -266 217q-6 24 -6 47q0 118 174 170q118 37 303 37q57 0 82 -2q218 -14 680 -111l334 -80q35 49 52.5 75t37 65.5t23.5 66.5q2 10 2 49q0 21 8 21q30 0 45 -74q17 -95 8 -246q92 -21 156 -34q43 -9 43 -13q-3 -10 -47 -2 q-108 18 -154 29q-1 -10 -3 -24t-5.5 -34.5t-5.5 -35.5q-56 -297 -119 -488q-58 -174 -174 -409q99 108 172 135q16 6 16 -4q0 -3 -4.5 -5.5t-11 -6t-8.5 -5.5q-73 -48 -156 -147q-35 -40 -96 -121q-27 -37 -54 -37q-19 0 -4 27q7 14 35 80q97 219 187 499q90 283 124 457 q21 102 25 135l-78 15q-219 -342 -499 -639q-173 -170 -357 -306q-439 -327 -721 -348q-183 -15 -198 66zM1561 1161q32 -4 65 -18q12 89 19 172q-1 -5 -25 -51q-10 -17 -23 -41t-21.5 -38.5t-14.5 -23.5z" />
<glyph unicode="&#x41c;" horiz-adv-x="2033" d="M-283 -115q-12 54 45 105q45 42 115 61q31 8 35 4l-16 -10q-55 -21 -91 -64.5t-26 -80.5q15 -60 125 -60q326 0 930 592q326 320 606 762l-195 33l-375 61q-222 32 -366 35q-169 6 -285 -37q-172 -61 -160 -211q3 -56 74 -127q61 -64 129 -94q8 -3 13.5 -6t8 -5t1.5 -3 q-3 -3 -29 6q-98 31 -178 88q-83 59 -98 117q-9 30 -9 57q0 141 215 203q148 41 342 32q349 -19 725 -81q11 0 203 -39q68 104 115 247q3 11 6.5 15.5t7.5 3.5q18 -3 21 -51q3 -49 -19 -152l-18 -82q150 -23 239 -26q44 -1 47 -8q2 -7 -49 -7q-108 0 -243 15 q-30 -139 -113 -447q-62 -204 -168 -457q-71 -164 -115 -239q114 106 199 194l178 189q118 131 203 239q174 221 309 428q38 61 68 99q17 23 33 20q18 -3 24 -18q21 -43 -20 -166q-54 -162 -181 -481q-88 -217 -208 -443q119 131 182 150q9 3 16 -4q-1 0 -13 -7.5t-20 -13.5 q-70 -47 -151 -155q-41 -53 -107 -125q-39 -45 -43 -45q-34 9 -18 41l41 77q35 72 221 529q91 223 231 534q17 35 25 64q3 8 4 14.5t1 9t-1 2.5q-1 1 -8 -8t-19.5 -28.5t-29.5 -47.5q-90 -149 -314 -440q-132 -171 -374 -422q-82 -87 -256 -237q-46 -73 -84 -64 q-7 1 -8.5 7.5t3 18.5t15.5 29q15 22 31 41q33 82 104 277q103 293 152 457l133 438l-21 2q-133 -222 -329 -471q-175 -219 -344 -385q-262 -253 -521 -393q-227 -124 -379 -127q-159 -3 -174 71zM1479 1219l14 -2q5 12 23 71q-3 -5 -19 -35.5t-18 -33.5z" />
<glyph unicode="&#x41d;" horiz-adv-x="1880" d="M10 14q0 132 92 267t250 231q124 75 318 119q194 42 370 39q36 0 134 -4q61 100 112 204q88 186 135 314q-135 30 -217 53q-144 40 -194 51q-151 32 -244 39q-119 9 -203 -35q-126 -65 -117 -221q3 -60 56 -137q36 -55 88 -100q16 -16 12 -19q-3 -6 -20 8 q-186 134 -205 232q-6 30 -6 57q0 149 168 207q106 36 243 33q155 -3 428 -78q162 -46 220 -66q9 27 12 62q3 14 10 16q7 1 13 -15.5t9.5 -39t2.5 -39.5l46 -14q46 -13 79 -21q32 -8 32 -10q-3 -7 -35 -4q-44 7 -124 28q-17 -140 -97 -317q-62 -133 -104 -197 q110 -10 213 -26q121 -18 242 -62l16 33q100 221 209 496q46 100 65 145q14 33 66 45q5 3 10 -2q3 -5 -4 -22l-49 -144q-90 -283 -207 -540q-13 -31 -18 -39l81 -35q7 -3 11.5 -6t6.5 -5t1 -3q-3 -5 -27 4q-34 14 -82 28q-80 -172 -243 -405q116 116 207 149q16 6 16 -4 l-39 -24q-71 -45 -176 -150q-95 -95 -137 -147q-29 -29 -31 -29q-10 3 0 23l55 96q129 225 262 520q-91 29 -235 53q-117 19 -230 25q-180 -296 -403 -510q-138 -132 -293 -211q-179 -92 -332 -92q-219 0 -219 196zM37 8q-2 -85 47 -127.5t149 -42.5q239 0 558 307 q168 162 366 490q-32 0 -55 2h-49q-169 0 -348 -45q-198 -45 -324 -125q-341 -221 -344 -459z" />
<glyph unicode="&#x41e;" horiz-adv-x="1267" d="M55 225q-15 221 92 437q54 116 134 206q-30 59 -33 123q-9 158 117 266t309 111q396 6 514 -336q16 -48 -8 -51q-17 -3 -33 45q-9 26 -37 78q-58 64 -166 67q-169 6 -297 -73q-154 -93 -289 -279q56 -91 174 -139q12 -5 17 -8t4 -4q-5 -7 -33 2q-121 44 -184 116 q-18 -27 -88 -141q-123 -237 -123 -420q0 -304 262 -348q37 -6 72 -6q178 0 346 137q144 119 248 297q200 335 200 604q0 281 -256 441q-13 3 -6 10q7 4 19 -2q80 -40 153 -123q96 -103 125 -215q25 -92 25 -195q0 -276 -156 -534q-105 -177 -293 -305q-201 -136 -399 -136 q-170 0 -285 103q-113 101 -125 272zM305 981q2 -35 14 -74q120 136 297 219q155 73 326 64q95 -6 156 -49q-62 93 -168 147q-121 65 -266 62q-158 -3 -265 -107q-106 -103 -94 -262z" />
<glyph unicode="&#x41f;" horiz-adv-x="1239" d="M-45 -74q0 113 176 197q35 18 45 18q8 0 8 -6l-45 -29q-116 -76 -116 -161q0 -47 34 -76t90 -29q207 0 426 291q124 161 279 461q123 225 311 602q30 51 49 81t59.5 75t78.5 63q39 17 41 17q1 0 2 -1.5t2 -1.5l-27 -34q-26 -35 -127 -222q-178 -394 -274 -565 q-175 -325 -357 -518q-261 -276 -493 -276q-77 0 -119.5 31t-42.5 83zM254 895q-28 113 119.5 193t423.5 118q105 14 409.5 25.5t565 35t368.5 74.5q2 -2 2 -4q0 -10 -35 -22q-102 -39 -327 -74.5t-420 -48.5q-28 0 -129 0.5t-139.5 0t-113 -2.5t-130 -6.5t-109.5 -12.5 q-221 -31 -320 -101.5t-73 -180.5q7 -43 90 -100t178 -91q6 -2 11.5 -5t8 -4t3.5 -1q0 -1 -6 -4q-15 0 -29 6q-168 43 -251 93.5t-97 111.5zM930 -94q0 1 0.5 2.5l1.5 4.5t2 5q63 163 129 307q111 256 182 391t131 211q52 64 115 108t111 44q6 0 10 -4q2 -2 4 -2 q0 3 -25.5 -8t-69.5 -46.5t-81 -89.5q-112 -159 -310 -614q-62 -139 -102 -235q63 63 102 63q7 0 9 -2q-12 7 -53.5 -32.5t-82 -82.5t-47.5 -43q-12 0 -19 7.5t-7 15.5z" />
<glyph unicode="&#x420;" horiz-adv-x="1265" d="M-41 -72q0 143 131 283q18 20 40.5 38t38.5 26t19 4l-20 -19q-32 -29 -53 -61q-93 -140 -99 -305q-3 -77 23 -80q29 -7 94 67q62 68 184 289l234 442q-47 32 -78 65t-31 50q0 4 2 6q4 0 13 -12q11 -20 28 -33q32 -32 74 -59q20 42 98 192q145 277 209 385q-59 2 -309 19 q-122 8 -182 22q-47 12 -69 31t-19 45q6 55 129 82q105 22 194 16q49 -3 49 -10q0 -9 -32 -6q-252 9 -267 -80q-9 -58 203 -76q76 -2 316 -22q43 67 71 98q26 27 56.5 49.5t52 32t26.5 4.5l-30 -43q-63 -88 -94 -147q76 -8 96 -11q483 -58 483 -313q0 -39 -12 -80 q-52 -180 -240 -260q-144 -62 -366 -59q-164 3 -289 67q-292 -530 -483 -706q-79 -73 -121 -64q-70 12 -70 133zM643 586q125 -61 275 -64q409 -3 503 299q17 59 17 99q0 220 -391 270q-30 4 -97 10l-186 -381q-62 -127 -121 -233z" />
<glyph unicode="&#x421;" horiz-adv-x="1521" d="M8 274q15 190 146 385q116 173 284 304q190 149 414 239q204 83 377 98q62 5 76 5q281 0 311 -142q4 -28 4 -39q0 -111 -133 -188q-126 -72 -273 -72q-94 0 -167 31q-54 25 -80 61q-22 31 -17 39l25 -24q36 -36 80 -56q67 -30 159 -30q124 0 216 59q104 67 104 170 q0 24 -6 45q-27 123 -244 123q-40 0 -63 -2q-140 -12 -320 -92q-212 -95 -391 -248q-160 -139 -260 -305q-116 -191 -125 -363q-12 -202 121 -305q124 -89 356 -86q316 6 574 150q218 120 245 301q3 31 0 59q-2 11 -3 17.5t-2 11.5t-1.5 7t-1.5 1q15 9 43 -29q20 -33 17 -67 q-6 -167 -289 -324q-277 -152 -590 -158q-279 -6 -430 89q-171 107 -156 335z" />
<glyph unicode="&#x422;" horiz-adv-x="1404" d="M-45 -74q0 113 176 197q35 18 45 18q8 0 8 -6l-45 -29q-116 -76 -116 -161q0 -47 34 -76t90 -29q207 0 426 291q124 161 279 461q123 225 311 602v2h-39q-178 0 -327 -20q-246 -31 -356 -102t-81 -183q7 -43 99.5 -101t197.5 -92q6 -2 12 -4.5t9 -3.5t4 -2q0 -1 -6 -4 q-17 0 -33 6q-357 83 -385 207q-31 112 133 193.5t469 119.5q92 13 209 19l117 4l10 16q86 131 154 164q39 17 41 17l4 -3l-27 -34q-11 -16 -63 -101l-29 -55q18 2 59 2q498 21 683 41q230 25 331 68q2 -2 2 -5q0 -10 -39 -22q-115 -39 -364.5 -75.5t-462.5 -49.5h-232 l-12 -25q-178 -394 -274 -565q-175 -325 -357 -518q-261 -276 -493 -276q-77 0 -119.5 31t-42.5 83zM848 -8l8 24q83 173 211 424q94 166 184 318q-18 -13 -39 -17q-16 3 -16 13l33 16q38 11 100 47q20 14 27 4q0 -4 -17 -35q-87 -138 -209 -358q-68 -128 -169 -344 q59 72 114 94q12 9 15 -2q-86 -64 -136 -131q-95 -95 -96 -94q-24 3 -10 41zM1094 -94l4 12q63 163 129 307q111 256 182 391t131 211q52 64 114.5 108t110.5 44q7 0 11 -4l2 -2q-1 0 -3 -0.5t-5.5 -1.5t-6.5 -2q-89 -37 -159 -140q-112 -159 -310 -614q-62 -139 -102 -235 q63 63 102 63q4 0 6 -2q-10 3 -34 -18q-20 -16 -55.5 -52t-61.5 -62t-29 -26q-12 0 -19 7.5t-7 15.5zM1300 41h3h-3z" />
<glyph unicode="&#x423;" horiz-adv-x="1423" d="M-94 -653q0 6 4 10q-2 -2 13 -11l20 -12q49 -25 135 -28q187 -6 342 67q145 68 301 221q302 293 586 902q40 83 153 331q-203 -348 -510 -614q-263 -231 -444 -291q-66 -21 -100 -6q-27 12 -27 49q0 25 16 62q11 25 150 241q146 230 211 363q161 327 149 526 q-12 196 -211 205q-173 6 -356 -109q-141 -87 -242 -215q-114 -144 -108 -266q3 -91 94 -94q56 -3 135 33q27 12 27 10q3 -9 -23 -23q-71 -39 -139 -39q-117 0 -123 111q-6 129 84 272q85 130 197 205q212 144 452 135q141 -4 225.5 -88t86.5 -215q3 -187 -150 -477 q-73 -140 -358 -565q-43 -64 -31 -82q16 -23 74 4q158 68 403 281q305 266 545 678q24 70 76 176q34 64 67 55t12 -68q-27 -68 -90 -151q-91 -299 -182 -496q-246 -537 -584 -848q-368 -336 -723 -336q-77 0 -122 39q-35 27 -35 58z" />
<glyph unicode="&#x424;" horiz-adv-x="1566" d="M10 1219q0 98 108 149t308 51q201 0 664 -108q11 -3 48.5 -13t63.5 -18q15 21 27 33q34 35 73.5 60.5t55.5 27.5q3 0 6 -2l-31 -43q-2 -2 -24.5 -36.5t-36.5 -57.5q45 -14 108 -29q11 0 74 -18.5t80 -24.5q10 -3 58.5 -13.5t81 -19t32.5 -12.5q-3 -6 -14 -6q-19 0 -44 4 t-41 8t-42.5 11.5t-32.5 8.5q-5 0 -39 8t-74 17.5t-53 11.5l-111 25q-93 -168 -155 -301q-2 -6 -6 -10q274 54 442 -3t164 -212q0 -39 -12 -80q-18 -71 -74 -136.5t-132 -113.5t-169.5 -78t-183.5 -36t-176 18.5t-146 80.5q-12 -16 -16 -26q-146 -253 -273.5 -404 t-200.5 -151q-79 0 -79 135q0 146 131 283q25 28 54 48.5t40 18.5h4l-21 -18q-74 -66 -112.5 -170t-38.5 -211q0 -66 29 -66q48 0 138.5 126t244.5 433q-177 -34 -303.5 -17t-196 82.5t-66.5 168.5q0 36 13 80q22 82 91.5 155t166 118.5t201.5 66.5t209.5 2.5t178.5 -76.5 q2 5 19 33q132 230 162 276l-109 25q-125 28 -337.5 71.5t-264.5 47.5q-8 1 -38 3.5t-46 2.5q-307 0 -307 -197q0 -50 47.5 -114.5t130.5 -116.5l14 -15l-4 -2q-5 0 -20 9q-127 62 -182.5 122.5t-55.5 133.5zM244 580q0 -51 13 -90t46.5 -70.5t86 -47t136 -13.5t193.5 24 q166 333 272 537q-96 71 -214 84t-220.5 -24t-184.5 -117t-112 -185q-16 -59 -16 -98zM817 383q78 -64 173.5 -87t186.5 -6t173.5 60.5t143.5 115.5t87 157q16 59 16 98q0 53 -15 91.5t-51.5 67t-94 41t-147 7.5t-206.5 -29q-10 -20 -50 -100.5t-69.5 -139t-71.5 -138.5 t-75 -138z" />
<glyph unicode="&#x425;" horiz-adv-x="1306" d="M43 229q0 41 20 52q25 20 89 -5q45 -19 184 -122q16 -12 32 -24.5t30.5 -24t19.5 -15.5q17 10 92 70q108 87 215 200q52 56 322 351q0 201 -19 321q-49 307 -276 307q-194 0 -394 -176q-227 -202 -227 -391q0 -93 92 -96q67 -3 133 29q31 15 31 12q2 -2 0 -5.5t-8.5 -8 t-16.5 -9.5q-74 -38 -139 -35q-116 3 -125 115q-9 105 56 225q61 116 159 195q197 164 441 164q303 0 362 -293q27 -129 27 -268q183 194 330 311q195 151 335 139q58 -6 93 -47q26 -29 26 -59q0 -9 -2 -11l-27 29q-34 34 -90 37q-149 9 -307 -113q-173 -136 -358 -327 q0 -200 -15 -338q-21 -228 -61 -340q58 113 150 141q18 9 18 -2q0 1 -35 -20q-51 -36 -108 -113l-76 -113q-23 -33 -39 -30q-32 3 -23 24q17 37 23 62q19 65 57 395q15 123 15 248l-306 -332q-107 -114 -202 -193q-53 -45 -99 -73q68 -51 105 -70q70 -40 123 -43 q140 -6 202 115q9 20 17 16q6 -3 -10 -39q-65 -126 -222 -123q-127 3 -276 107q-116 -70 -209 -70q-23 0 -44 6t-32 14.5t-6 16.5q0 1 10.5 -3t30 -8.5t37.5 -4.5q75 0 188 67q-43 32 -65 51q-120 109 -158 142q-29 26 -47 26q-6 0 -14 -4q-26 -16 18 -88q36 -61 76 -82 q-52 8 -87.5 45t-35.5 86z" />
<glyph unicode="&#x426;" horiz-adv-x="1630" d="M18 37l2 4l25 -8q15 -6 37 -6q121 0 268 106q-8 7 -78 77t-137 130q-24 18 -45 18q-13 0 -23 -8.5t-10 -19.5q0 -26 30.5 -60.5t70.5 -62.5q24 -17 30 -19q-60 0 -102.5 33.5t-42.5 91.5q0 32 17 51t46 19q24 0 49.5 -10.5t67 -41.5t64 -50t85.5 -74q25 -22 38 -33 q112 85 207.5 207.5t189.5 294.5q139 263 139 434q0 219 -231 219q-98 0 -222.5 -90t-212 -218t-87.5 -228q0 -95 92 -95q68 0 133 35q21 12 24 12q2 0 2 -4q0 -21 -61.5 -41t-97.5 -20q-125 0 -125 139q0 66 29 140.5t82.5 143t122.5 124.5t157 89.5t178 33.5 q135 0 218 -77t83 -200q0 -186 -123 -420q-74 -137 -184.5 -258.5t-280.5 -251.5q236 -211 398 -211q248 0 512 443q86 207 182.5 394t157.5 275q57 82 137.5 138.5t134.5 56.5q16 0 16 -8v-2q-79 -13 -166 -120t-198 -347l-379 -864q57 47 131 71t143 21t126.5 -23.5 t90 -63t25.5 -96.5q-16 -79 -92.5 -137.5t-180.5 -79.5t-202 -2q-91 27 -268 95q-95 36 -142 45q-159 34 -233 -93l-25 7q48 87 131 127.5t179 21.5q40 -8 216 -72.5t220 -72.5q124 -25 211.5 11.5t107.5 123.5q26 112 -50.5 158t-194 21t-207.5 -99q-18 -22 -34.5 -24 t-25 8.5t-8.5 23.5q0 6 4 18q44 122 154 387q-228 -372 -488 -372q-229 0 -446 202q-146 -96 -279 -96q-34 0 -58 9t-24 20z" />
<glyph unicode="&#x427;" horiz-adv-x="1558" d="M250 819q0 66 29 140.5t82.5 143t122.5 124.5t157 89.5t178 33.5q77 0 138 -26.5t97.5 -72t54.5 -104t14 -124.5t-29 -132q-35 -111 -104 -209t-185 -203l-43 -35q206 -135 328 -135q60 0 117.5 44t112.5 125t106.5 168.5t124 201t141.5 196.5q69 82 145 138.5t127 56.5 q16 0 16 -8v-2q-79 -13 -166 -120t-198 -347l-43 -98q-47 -108 -164.5 -388t-134.5 -317q77 82 121 82q10 0 12 -2q0 -4 -12 -10l-25 -13q-50 -33 -85.5 -69t-49.5 -59t-26 -38.5t-23 -15.5q-16 0 -23.5 9.5t-7.5 21.5q0 6 4 18q38 108 132 361t130 342q-7 -11 -22 -33 q-91 -139 -137 -186q-80 -82 -179 -82t-213 30q-89 24 -178 86q-8 -2 -24 -10q-84 -41 -144 -41q-28 0 -49.5 7.5t-23.5 15.5l2 4l20 -6q20 -4 33 -4q47 0 131 43q9 7 27 14l-13 12q-14 11 -46 38t-47.5 39.5t-39 31t-40 30t-29.5 19.5q-17 10 -23 10t-15 -8t-8 -14 q3 -14 22 -33.5t40 -32.5q4 -4 16 -10q-28 0 -53 19t-31 48q-7 31 35 45q26 5 104.5 -32.5t178.5 -106.5l14 -10q14 10 39 35q157 142 240 405q28 98 28 201q0 219 -231 219q-98 0 -222.5 -90t-212 -218t-87.5 -228q0 -95 92 -95q68 0 133 35q21 12 24 12t3 -4 q0 -21 -62 -41t-98 -20q-125 0 -125 139z" />
<glyph unicode="&#x428;" horiz-adv-x="2342" d="M20 41l25 -8q15 -6 37 -6q121 0 268 106l-26 25l-41 41q-50 52 -148 141q-42 28 -61 14q-42 -22 18 -88q61 -67 98 -78q-81 0 -124 58q-23 38 -23 67q0 36 23 56q33 26 88 2q62 -30 159 -115l97 -82q61 47 84 70q170 170 313 432q136 245 139 424q6 226 -225 229 q-156 3 -344 -188q-184 -187 -184 -348q0 -95 92 -95q68 0 133 35q23 15 26 12q5 -8 -22 -26q-68 -39 -137 -39q-114 0 -123 117q-12 182 168 374q170 182 399 179q126 -2 210.5 -70.5t90.5 -179.5q9 -198 -123 -447q-113 -213 -342 -413q-7 -5 -26.5 -21t-44 -35.5 t-52.5 -40.5q216 -193 392 -196q93 4 172.5 47.5t156.5 122.5l6 6l-26 29l-56 55q-55 59 -147 141q-42 28 -61 14q-42 -22 18 -88q59 -66 98 -77q-83 0 -125 57q-22 36 -22 68q0 36 22 55q33 26 88 2q64 -31 160 -115q40 -30 94 -84l5 -4l32 45l80 119q38 53 86 147 t98.5 205t61.5 133q117 237 197 353q62 84 141 139q72 47 119 53q14 3 22 0q9 -3 6 -8q-12 -2 -53 -16q-73 -36 -158 -164q-70 -104 -153 -287q-203 -454 -312 -602l-102 -123l-25 -29q225 -197 381 -200q252 -6 519 442q135 299 141 311q120 242 196 353q61 83 142 139 q72 47 119 53q14 3 22 0q9 -3 6 -8q-7 -1 -53 -17q-74 -36 -158 -163q-70 -104 -153 -287q-139 -308 -221 -504q-44 -104 -121 -299q55 61 116 82q5 2 17 -2q0 -4 -12 -10l-25 -13q-37 -26 -92 -88q-62 -77 -68 -80q-14 -17 -28 -14q-38 12 -23 49q55 153 154 391l2 7 q-229 -373 -488 -373q-218 0 -422 180l-49 -43q-159 -131 -334 -131q-244 0 -446 188q-146 -96 -279 -96q-23 0 -43.5 5.5t-30.5 13t-6 14.5z" />
<glyph unicode="&#x429;" horiz-adv-x="2467" d="M20 41l25 -8q15 -6 37 -6q121 0 268 106l-26 25l-41 41q-50 52 -148 141q-42 28 -61 14q-42 -22 18 -88q61 -67 98 -78q-81 0 -124 58q-23 38 -23 67q0 36 23 56q33 26 88 2q62 -30 159 -115l97 -82q61 47 84 70q170 170 313 432q136 245 139 424q6 226 -225 229 q-156 3 -344 -188q-184 -187 -184 -348q0 -95 92 -95q68 0 133 35q23 15 26 12q5 -8 -22 -26q-68 -39 -137 -39q-114 0 -123 117q-12 182 168 374q170 182 399 179q126 -2 210.5 -70.5t90.5 -179.5q9 -198 -123 -447q-113 -213 -342 -413q-7 -5 -26.5 -21t-44 -35.5 t-52.5 -40.5q216 -193 392 -196q93 4 172.5 47.5t156.5 122.5l21 20l-13 15l-55 55q-56 59 -147 141q-42 28 -62 14q-41 -21 19 -88q59 -66 98 -77q-83 0 -125 57q-22 36 -22 68q0 36 22 55q33 26 88 2q64 -31 160 -115l57 -51l25 -20l20 28l80 119q38 53 86 147t98.5 205 t61.5 133q117 237 197 353q62 84 141 139q72 47 119 53q14 3 22 0q9 -3 6 -8q-12 -2 -53 -16q-73 -36 -158 -164q-70 -104 -153 -287q-203 -454 -312 -602l-102 -123l-12 -14l6 -4q236 -208 391 -211q251 -6 518 442q123 273 142 311q120 242 196 353q62 84 141 139 q72 47 119 53q14 3 23 0t6 -8q-7 -1 -53 -17q-74 -36 -158 -163q-73 -109 -154 -287q-139 -308 -221 -504q-22 -52 -68 -174.5t-61 -159.5q75 48 151.5 66t137 6.5t107.5 -41t69.5 -77.5t15.5 -103q-16 -79 -92.5 -137.5t-180.5 -79.5t-202 -2q-102 31 -268 94 q-96 36 -141 45q-160 35 -234 -92l-24 6q48 87 130.5 127.5t178.5 21.5q40 -8 216 -72.5t220 -72.5q124 -25 212 11.5t108 123.5q8 39 8 73.5t-10.5 61t-27.5 47.5t-43.5 32.5t-57 15.5t-69 -2.5t-79 -21.5t-87 -42t-93.5 -64q-14 -17 -29 -14q-37 12 -22 49q35 97 157 391 l2 7q-229 -373 -491 -373q-226 0 -438 194q-39 -39 -62 -57q-159 -131 -334 -131q-244 0 -446 188q-146 -96 -279 -96q-23 0 -43.5 5.5t-30.5 13t-6 14.5z" />
<glyph unicode="&#x42a;" horiz-adv-x="1558" d="M-102 -90q65 65 319 35l135 -19l15 27q21 38 90.5 166t131.5 240t105 182l39 71h-2v2q2 2 4 2l13 23l-15 -6v2l17 6q78 146 116 211q71 124 78 141q49 86 96 191l13 26l-133 -43l-103 -30l-6 -13q-44 -103 -41 -153v-23h-2l-4 2q-11 0 -15 27t3 59l18 88l-20 -6 q-70 -19 -138 -22q-164 -10 -288 129q-77 89 -56 215q3 14 15 14q1 0 1 -7t-1 -13q-12 -111 55 -187q76 -85 280 -76l164 17q7 0 9 2q24 65 94 129q61 58 117.5 82t93.5 12q33 -11 30 -80q-3 -29 -12 -78l14 5q79 20 148 49q21 9 20 0q-1 -13 -24 -26l-19 -7q-5 -2 -59 -19 t-86 -28q-10 -40 -23 -74q-35 -107 -108 -268q-86 -174 -103 -207l23 4q73 15 129 18q93 2 178 -20t150 -62.5t105 -101.5t49 -132t-24 -158t-108 -175q-140 -146 -350 -186q-182 -39 -463 -14q0 -2 -2 0l-55 6l2 8l-94 12l-4 -8q-25 -43 -74 -158l-14 -47h-5q-17 7 -24 35 t3 78.5t40 111.5l-31 5q-153 27 -227 25.5t-107 -40.5q-76 -66 66 -113l65 -18q21 -9 60 -12q9 -12 2 -19q-3 -3 -13.5 -3t-32 4t-44.5 12q-116 31 -165 81t-11 97zM432 -90q70 -15 117 -27h16l-2 -4q6 0 8 -2q-2 2 -2 6q213 -17 385 11q185 35 303 161q18 18 45.5 54.5 t32.5 42.5q64 112 57 211.5t-59.5 172.5t-143.5 112t-194 30q-28 -2 -118 -21l-15 -4l-57 -108q-133 -254 -330 -568zM440 455q-5 33 64 76t160 79l69 23l-2 -19q-27 -7 -55 -18q-74 -28 -126 -63.5t-44 -67.5q12 -37 65 -47q-117 -21 -131 37zM565 -117q0 4 4 0h-4z M848 1198q85 11 219 45q13 29 20 62q24 84 -10 88q-56 3 -112.5 -45t-102.5 -127q-5 -5 -14 -23z" />
<glyph unicode="&#x42b;" horiz-adv-x="2168" d="M33 -25q35 32 125 33t186 -22l131 -29l35 66q185 338 291 499q25 40 39 68h-4v2q4 0 6 2q2 6 10 18l-16 -4v2l18 6q26 48 65 117.5t42 75.5q58 102 73 131q195 342 123 373q-20 8 -90 -37q-108 -90 -178 -183.5t-70 -168.5l-2 -23l-4 4q-11 0 -15.5 26.5t1.5 57.5 q30 155 170 268q135 108 205 74q52 -23 24.5 -151.5t-129.5 -343.5q-43 -94 -94 -193l20 4q62 8 129 4q91 -4 175.5 -34t148.5 -77.5t105 -112t50.5 -134t-21 -146t-103.5 -145.5q-126 -126 -337.5 -154t-510.5 31v10l-90 19l-4 -8q-18 -24 -41.5 -77t-32.5 -69l-12 -45h-2 q-28 14 -28.5 69.5t38.5 147.5l-27 6q-115 26 -169.5 35t-95.5 4.5t-65 -28.5q-60 -50 39 -100q37 -19 95 -36q22 -12 57 -18q11 -9 4 -16q-4 -11 -92 18q-112 37 -162.5 90t-9.5 94zM551 459q-4 22 30.5 48.5t84 47.5t102.5 35l68 18v-16l-56 -14q-72 -21 -122 -51.5 t-42 -63.5q12 -32 64 -51q-115 -10 -129 47zM557 -66l43 -12l55 -18l31 -4v-4l6 -2l-2 4q205 -33 375 -17q180 18 295 133q16 11 28.5 24t28.5 33.5t23 28.5q59 102 49.5 198t-62 170.5t-142.5 119.5t-191 45q-46 0 -117 -12l-14 -3l-54 -100q-141 -261 -311 -520l-15 -22.5 t-15.5 -23.5t-10.5 -18zM686 -100q2 2 4 -2zM1579 -207l55 101q132 243 267 552l22 52q94 211 211 526l68 156q16 36 65 47q5 3 10 -2q3 -6 -4 -23l-49 -153q-99 -317 -237 -633q-76 -174 -246 -430q111 117 209 159q16 6 16 -6l-39 -24q-80 -57 -178 -158 q-98 -103 -139 -158l-21 -20zM1579 -231l10 10q9 -17 6.5 -19t-16.5 9z" />
<glyph unicode="&#x42c;" horiz-adv-x="1433" d="M-190 -90q67 67 319 37l135 -21q13 24 35 72q190 377 285 543l37 71h-3v2q2 2 5 2l10 23l-12 -6v2l14 4l108 213q69 135 72 141q46 88 76.5 157.5t45 112.5t18 72t-2.5 42t-18 16q-22 8 -90 -47q-106 -93 -176 -199.5t-70 -185.5l-2 -23h-2l-4 2q-11 0 -16 27t1 59 q26 163 168 293q62 56 117 81t90 13q53 -21 27 -156.5t-125 -369.5q-57 -133 -92 -207l20 4q74 15 129 18q70 1 136.5 -12.5t123 -39.5t103 -64.5t78 -83.5t45.5 -99t9 -110.5t-35.5 -118.5t-84.5 -121q-134 -146 -342 -186q-182 -39 -463 -14q0 -2 -2 0l-55 6v8l-90 12 l-4 -8q-24 -41 -70 -158l-14 -47h-4q-28 12 -28.5 69.5t38.5 155.5l-31 5q-153 27 -228 25.5t-108 -40.5q-70 -68 77 -115l60 -16q24 -9 62 -12q10 -13 4 -19q-3 -3 -13.5 -3t-32.5 4t-46 12q-117 31 -169 81t-15 97zM334 455q-8 32 60 76t157 79q16 6 42.5 14.5t27.5 8.5 l-3 -19q-27 -7 -55 -18q-74 -28 -124.5 -63.5t-39.5 -67.5q12 -36 66 -47q-65 -12 -95 0.5t-36 36.5zM348 -90q27 -8 43 -10l88 -21v-10v-16h-2v6l-55 8l4 20l53 -4v-4l6 -2q-2 2 -2 6q214 -17 385 11q186 35 297 161q18 18 43 53t33 44q44 87 48 171.5t-28 150t-87.5 115 t-132.5 73t-160 16.5q-29 -2 -119 -21l-14 -4l-54 -108q-101 -211 -305 -568zM479 -117q2 2 4 0h-4z" />
<glyph unicode="&#x42d;" horiz-adv-x="1251" d="M-4 143q9 66 104 93q19 5 32.5 7t20.5 0.5t7 -5.5q3 -3 -17 -37q-23 -25 -26 -64q-2 -10 6 -26t24.5 -33t48 -30t70.5 -15q239 -9 477 172q89 67 170 157q72 79 134 160q-225 9 -379 53q-33 9 -33 19q-2 3 3 3q3 0 13 -1q87 -16 248 -25l170 -6h10l4 6 q88 126 142.5 280.5t50.5 268.5q-5 103 -63.5 163.5t-172.5 66.5q-186 7 -296 -76t-105 -213q0 -49 61 -129t134 -133l16 -17q0 -4 -4 -4q-9 0 -25 13q-134 84 -194.5 154.5t-65.5 139.5q-3 85 58.5 153.5t169 104t235.5 27.5q166 -10 254.5 -95t93.5 -224q8 -217 -168 -465 q-8 -8 -10 -15l51 7q56 3 62 -13q2 -11 -7.5 -20t-29.5 -13q-89 -7 -111 -8q-70 -84 -121 -133q-84 -84 -168 -149q-127 -105 -289.5 -171t-318.5 -59q-93 7 -157 31t-88 49.5t-21 50.5z" />
<glyph unicode="&#x42e;" horiz-adv-x="2750" d="M10 14q0 131 91.5 265.5t250.5 232.5q124 75 318 119q194 42 370 39q36 0 134 -4q76 127 112 204q88 186 135 314q-135 30 -217 53q-144 40 -194 51q-157 32 -244 39q-121 9 -203 -35q-126 -65 -117 -221q3 -60 56 -137q36 -55 88 -100q16 -16 12 -19q-4 -8 -20 8 q-187 131 -205 232q-6 30 -6 57q0 149 168 207q106 36 243 33q152 -3 428 -78q162 -46 220 -66q9 27 12 62q3 14 10 16q11 0 18 -31t7 -63q12 -3 53 -15t72 -20q32 -8 32 -10q-4 -7 -35 -4q-71 12 -124 28q-17 -137 -97 -317q-62 -133 -104 -197q138 -12 213 -26 q55 -9 108 -23l15 29q56 121 133 207q-30 59 -33 123q-9 158 117 266q125 107 309 110q397 6 514 -335q16 -49 -8 -52q-17 -3 -33 45q-9 26 -37 78q-59 65 -166 68q-167 6 -297 -74q-153 -93 -288 -278q57 -92 174 -140q11 -5 16 -8t4 -4q-5 -7 -33 2q-119 43 -184 117 q-18 -27 -88 -141q-4 -8 -11.5 -22t-8.5 -17q7 -3 19.5 -6.5t19.5 -6.5q8 -5 80 -30t89 -33q7 -3 11.5 -6t6.5 -5t1 -3q-4 -4 -27 4q-36 17 -168 57q-7 3 -20.5 6t-20.5 6q-94 -201 -94 -364q0 -304 262 -348q44 -7 72 -7q177 0 346 138q144 119 248 297q201 337 201 604 q0 280 -256 440q-13 3 -6 10q7 3 18 -2q81 -41 154 -123q94 -102 124 -215q25 -92 25 -194q0 -277 -156 -535q-106 -178 -292 -305q-199 -135 -400 -135q-171 0 -285 102q-112 100 -124 273q-12 197 69 387l-100 18q-116 19 -230 25q-186 -304 -403 -510 q-141 -135 -293 -211q-179 -92 -332 -92q-219 0 -219 196zM37 8q-2 -85 47 -127.5t149 -42.5q239 0 558 307q168 162 366 490q-32 0 -55 2h-49q-172 0 -348 -45q-197 -44 -324 -125q-341 -221 -344 -459zM1767 956q2 -30 15 -73q120 136 297 219q153 72 325 63 q95 -6 156 -49q-63 94 -168 148q-119 64 -266 61q-158 -3 -264 -106q-107 -104 -95 -263z" />
<glyph unicode="&#x42f;" horiz-adv-x="1398" d="M-143 -111q-12 48 39 93q47 44 118 65q19 8 31 4q1 -1 -3 -4t-13 -8q-104 -43 -101 -121q3 -80 131 -74l2 2q103 -22 232.5 59t261.5 281q240 368 510 420l43 6q-72 9 -127 33q-90 37 -146.5 103t-71.5 141t8.5 154.5t80.5 144.5t158.5 110t230.5 52q132 3 278 -18 t247 -48t198.5 -51.5t140.5 -26.5q64 0 107 28t43 64q-3 54 -125 95q-6 -1 -11.5 3t-7.5 9q1 2 3.5 2t6.5 -0.5t9 2.5q90 -18 139 -60t51 -92q8 -41 -29.5 -69.5t-91 -36.5t-102.5 0q-48 7 -125.5 29t-153 47.5t-168 49.5t-176.5 39t-172.5 11.5t-161.5 -28.5t-138.5 -86 t-108.5 -156q-34 -83 -35 -159t44 -141.5t130 -101.5q71 -30 174 -30l6 4h2l3 4q19 46 39 88.5t32.5 68t34.5 64.5t27.5 49t31 51.5t27.5 44.5q54 84 141 137.5t162 61.5q7 0 -4 -12q-2 -1 -2 -2q-102 -12 -174.5 -94t-153.5 -291v18l-35 -94l-40 -109q66 -19 103 -62 t34 -101q-4 -35 -33 -62t-57 -27q36 49 36 95q0 69 -47 110q-23 16 -43 25l-2 -2q-17 -51 -49.5 -144t-57.5 -165t-40 -119l-27 -80q45 45 138.5 115.5t125.5 70.5q0 -1 -12 -10l-29 -16q-57 -41 -111 -97t-85.5 -98t-58.5 -72t-41 -30q-7 0 -13 2t-10 4.5t-7 7t-4.5 7.5 t-3.5 9t-3 7q0 8 2 10q14 54 32 115t28.5 94.5t35.5 108t31 93.5q66 190 71 203h-24q-72 -8 -138 -31q-62 -23 -115.5 -63.5t-94 -88t-79.5 -103.5t-76.5 -112t-79.5 -111t-94.5 -102.5t-114.5 -85t-147 -60t-186 -25.5q-183 -15 -200 65z" />
<glyph unicode="&#x430;" horiz-adv-x="530" d="M-25 106q0 68 41 158q48 105 148 195q111 105 196 102q52 -3 58 -49q21 37 22 39q18 23 41 20q30 -6 21 -30l-113 -285q-49 -129 -110 -240q52 67 110 113q42 34 72 45q11 5 14 2q3 -7 -10 -12q-32 -17 -86 -67.5t-103 -110.5q-32 -38 -57 -35q-29 3 -10 45 q52 117 141 350q-79 -139 -174 -237q-90 -96 -139 -93q-62 3 -62 90zM39 84q0 -28 20 -31q40 -3 125 94q76 89 142 193q38 63 67 139q4 16 4 23q0 39 -41 39q-65 0 -147 -101q-70 -91 -135 -233q-35 -78 -35 -123z" />
<glyph unicode="&#x431;" horiz-adv-x="425" d="M-20 129q0 119 72.5 227.5t176.5 161.5q25 14 39 14h2l-24 -24q-77 -77 -140 -204.5t-63 -231.5q0 -54 35 -54q34 0 90 70t104 166q60 122 56 209q9 68 -10.5 150t-43.5 136.5t-35 116.5t15 92q36 29 81.5 37.5t91.5 3.5t93 -10.5t102 0t103 29.5q2 2 4 2h2 q-6 -22 -85 -57t-176 -47t-179 40q-24 -9 -26 -46t12 -86.5t33.5 -111t38.5 -118t28.5 -109.5t1.5 -82q-3 -12 -6.5 -39.5t-7.5 -44.5q-14 -43 -33 -86q-44 -96 -121 -166.5t-137 -70.5q-46 0 -70 35.5t-24 97.5z" />
<glyph unicode="&#x432;" horiz-adv-x="452" d="M-4 102q0 149 160 480q-53 -10 -93 -2q-62 0 -65 38q0 18 14.5 40t36.5 22q4 0 4 -2t-4 -12.5t-6 -20t0 -20.5q14 -42 119 -29q91 185 196.5 311t186.5 146q46 6 72.5 -10t33.5 -44q6 -28 0 -63q-12 -59 -65.5 -126.5t-143.5 -131.5q-66 -47 -206 -84q-8 -13 -11 -23 q-168 -378 -168 -516q0 -45 35 -45q46 0 104 86.5t96 188.5t38 155q0 24 -17 45.5t-34 37t-17 24.5q0 7 7.5 15.5t17.5 8.5q19 0 34 -14.5t37 -58.5q23 -23 54 -23q28 0 57 20l4 3q4 -4 4 -6q0 -11 -22.5 -24t-44.5 -13q-26 0 -43 10q14 -25 14 -84q0 -74 -31 -148 t-76.5 -126t-97.5 -84.5t-94 -32.5q-86 6 -86 112zM244 612q90 26 184 82q82 52 125.5 125t48.5 133q3 44 -16 66q-12 15 -34.5 12t-49 -19.5t-62 -57t-73.5 -99.5q-14 -23 -27 -46.5t-27 -51t-22.5 -45.5t-24 -51.5t-22.5 -47.5z" />
<glyph unicode="&#x433;" horiz-adv-x="321" d="M10 27q-16 42 17 106q5 10 36 60q157 254 167 328q5 40 -27 38q-22 0 -87.5 -57t-97.5 -105l11 41q46 61 97 103t96 52.5t67 -32.5q18 -38 -1.5 -101t-54.5 -122t-81 -139t-66 -131q-24 -36 6 -35q41 1 113 57q29 22 55 49q18 11 19 11l2 -3q1 -1 -9 -18 q-101 -126 -188 -138q-57 -9 -74 36z" />
<glyph unicode="&#x434;" horiz-adv-x="495" d="M-139 -457q16 92 108 215q76 102 199 183q14 28 139 348q-77 -127 -147 -197q-79 -79 -121 -76q-65 3 -68 93q-3 66 35 149q80 180 264 268q104 52 187 52q70 0 73 -33q1 -12 -11 -23.5t-19 -9.5q2 5 0.5 15t-13 21t-32.5 11q-72 0 -146 -45q-150 -88 -241 -305 q-32 -70 -35 -127q-3 -32 16 -35q32 -6 101 66q50 52 174 233l59 86q32 29 70 43q19 8 22 2q0 -2 -16 -18q-78 -155 -197 -482q12 8 55 29q29 14 58 17q20 3 20 -3q0 -3 -5 -5t-25 -9.5t-43 -17.5q-15 -6 -70 -41q-57 -121 -146 -258q-51 -74 -114 -129q-70 -64 -107 -64 q-33 0 -24 47zM-90 -430q-9 -34 4 -37q14 -3 43 23q46 41 98 133q63 116 103 219q-92 -54 -168 -162q-59 -80 -80 -176z" />
<glyph unicode="&#x435;" horiz-adv-x="382" d="M-29 100q0 28 11 78q29 116 108 221q152 190 301 187q49 0 49 -37q0 -41 -39 -74q-66 -54 -145 -45q-29 2 -59 16q-38 -53 -58 -92q-59 -122 -86 -215q-10 -45 -10 -69q0 -47 27 -56q51 -11 122 71t91 181q6 25 12 25q9 0 6 -23q-3 -58 -49 -137q-94 -162 -201 -147 q-80 12 -80 116zM207 461q27 -15 55 -15q42 -1 81.5 32t37.5 65q0 20 -25 20q-35 0 -86 -39q-42 -34 -63 -63z" />
<glyph unicode="&#x436;" horiz-adv-x="870" d="M-55 25q0 18 12 40.5t33 22.5q4 0 4 -2q1 -2 -0.5 -11t-3.5 -21.5t-2 -22.5q0 -23 18 -23q44 0 108 92t109.5 215t42.5 205q0 53 -37 53q-34 0 -87.5 -65t-94.5 -156q-4 -13 -8.5 -24.5t-7 -16.5t-2.5 -6q-7 7 -4 10q0 58 40.5 127t93.5 114.5t89 45.5q91 0 94 -115 q3 -73 -33 -165v-5q0 3 2 5q28 32 82 96t85.5 99.5t35.5 33.5q12 0 18 -5.5t5 -15.5q-1 -14 -6 -34t-18.5 -53l-22.5 -55t-31.5 -73t-32.5 -73q-3 -8 -47 -142q11 11 38.5 45t62.5 77t52 63l19 18q29 64 72 127q53 76 114 123t115 47q49 0 55 -35q2 -17 -12 -40t-35 -23 q-4 0 -4 2q-1 2 1 11t4.5 21.5t2.5 22.5q0 23 -22 23q-44 0 -108 -92t-109.5 -215t-42.5 -205q3 -54 36 -54q34 0 88 65.5t95 156.5q4 13 8.5 24.5t7 16.5t2.5 6q7 -7 4 -11q0 -58 -40.5 -127t-93.5 -114t-89 -45q-91 0 -94 114q-3 79 31 166l4 8l-29 -32 q-28 -34 -77.5 -97.5t-78 -99t-32.5 -33.5q-13 0 -19 5t-4 14q0 14 3 30.5t12.5 45t15.5 45.5t24.5 64.5t26.5 70.5q54 126 68 174q-5 -5 -105 -119q-28 -28 -49 -55q-28 -65 -72 -129q-53 -77 -113 -123.5t-114 -46.5q-47 0 -53 35z" />
<glyph unicode="&#x437;" horiz-adv-x="325" d="M-678 -381q11 39 16.5 57t21 47t38.5 56q24 27 33 18q0 -7 -17 -26q-27 -43 -32 -58q-42 -75 8 -164q55 -74 164 -100q144 -24 300.5 88t223.5 270q23 47 36 113t4 122.5t-44 63.5q-14 -8 -47 -22t-50 -14q-6 0 -8 2q0 35 21 52.5t49 12.5q3 0 11 -1t11 -1 q129 132 183 255q53 125 -15 153q-13 5 -30 6q-31 5 -146 -74l-16 -12q-8 -3 -8 0q-3 12 37.5 45t99.5 58t96 14q124 -36 55 -182q-51 -109 -176 -225q-30 -28 -59 -50l-2 4q54 -8 83 -42.5t32.5 -82t-3 -90.5t-20.5 -82q-45 -120 -157.5 -221t-252.5 -153.5t-264 -39.5 q-232 15 -176 203z" />
<glyph unicode="&#x438;" horiz-adv-x="499" d="M-18 55q0 68 71 242q31 73 113 219q-20 -4 -29 -4q-26 5 -33 8l41 10q71 17 99 35q10 3 12 2q2 -3 0 -10q-88 -168 -125 -260q-57 -137 -70 -195q-14 -53 9 -63q24 -6 84 63.5t135 198.5q9 9 12 29q45 104 76 168q20 39 48.5 66.5t50 36t28.5 1.5q3 -3 -6 -20 q-67 -107 -136 -289q-31 -86 -81 -205q51 51 114 88q24 12 27 6q3 -4 -14 -14q-121 -94 -207 -182l-6 -15q-6 -13 -15 -10q-20 3 4 41q15 45 84 236q-69 -106 -100 -142q-82 -94 -129 -94q-57 0 -57 53z" />
<glyph unicode="&#x439;" horiz-adv-x="499" d="M-18 55q0 68 71 242q31 73 113 219q-20 -4 -29 -4q-26 5 -33 8l41 10q71 17 99 35q10 3 12 2q2 -3 0 -10q-88 -168 -125 -260q-57 -137 -70 -195q-14 -53 9 -63q24 -6 84 63.5t135 198.5q9 9 12 29q45 104 76 168q20 39 48.5 66.5t50 36t28.5 1.5q3 -3 -6 -20 q-67 -107 -136 -289q-31 -86 -81 -205q51 51 114 88q24 12 27 6q3 -4 -14 -14q-121 -94 -207 -182l-6 -15q-6 -13 -15 -10q-20 3 4 41q15 45 84 236q-69 -106 -100 -142q-82 -94 -129 -94q-57 0 -57 53zM332 760q-53 38 6 127q21 34 41 28l-8 -26q-13 -49 26 -72 q68 -43 276 91q25 16 25 14q0 -1 -6 -7q-12 -11 -43 -42t-47 -45t-45.5 -34t-60.5 -32q-100 -45 -164 -2z" />
<glyph unicode="&#x43a;" horiz-adv-x="538" d="M-41 16q0 85 37 172q46 114 141 222q42 113 80 194q152 332 332 449q58 37 69 26l-45 -45q-77 -77 -143 -184q-70 -110 -145 -268l-49 -111q129 123 251 123q82 0 82 -51q0 -44 -65.5 -78.5t-147.5 -36.5q-49 0 -73 6q18 -153 94 -350q135 -361 313 -367q147 -3 168 162 l10 -2q20 -23 17 -49q-4 -58 -65 -92.5t-146 -32.5q-106 3 -207 107q-95 98 -158 251q-80 192 -92 363q-96 -260 -180 -395l-29 -41q-14 -18 -28 -15q-21 6 -21 43zM-18 4q21 33 77 191q12 32 34 93.5t32 88.5q-66 -83 -104.5 -180.5t-38.5 -192.5zM240 457q49 -14 116 -11 q54 5 92.5 28t38.5 52q0 33 -47 33q-86 0 -200 -102z" />
<glyph unicode="&#x43b;" horiz-adv-x="524" d="M-39 27q0 45 35 104q55 91 186 234q76 70 209 225q16 19 25 16q30 -3 30 -33q0 -35 -24 -69q-18 -37 -37 -94q-58 -174 -61 -287q-3 -82 53 -82q17 0 37 10q32 20 41 14q8 -5 -22 -23l-36 -17q-61 -23 -82 -23q-79 0 -73 115q6 108 88 315q13 36 45 98q-35 -37 -154 -170 q-168 -210 -219 -342q0 -7 -3 -29t-7 -22q-9 0 -20 18.5t-11 41.5z" />
<glyph unicode="&#x43c;" horiz-adv-x="651" d="M-59 43q0 57 43 139q44 79 120 170l195 205q9 26 37 23q18 -3 18 -23q0 -32 -26 -65q-19 -75 -27 -177q-8 -108 -20 -163q37 76 118 178q63 73 197 237q16 25 35 19q27 -12 24 -33q0 -22 -28 -70q-18 -33 -41 -94q-59 -172 -74 -289q-9 -79 49 -82q13 0 39 11 q3 2 13.5 9.5t17.5 11.5t8 1q4 -15 -41 -41t-94 -26q-83 0 -74 110q12 124 100 316q12 35 50 106q-65 -75 -177 -213q-76 -98 -124 -192q-20 -39 -39 -64q-26 -39 -62 -39q-18 0 -18 12q0 22 37 68l24 223q12 112 47 189q-90 -96 -133 -156q-128 -173 -155 -330 q-3 -19 0 -34q4 -11 0 -11q-39 0 -39 74z" />
<glyph unicode="&#x43d;" horiz-adv-x="489" d="M-37 16q0 8 6 23l109 289q-48 -6 -55 -6q-17 0 -17 8q0 17 84 26l66 174q2 2 2 11q0 10 -11 10q-13 0 -47 -21q-6 -6 -10 -6t-4 4q0 22 51.5 48t69.5 26q19 0 28 -6t9 -23q0 -14 -2 -18q-9 -21 -32 -88t-38 -107q84 -3 145 -14q2 5 70 152q20 39 48.5 66.5t50 36 t28.5 1.5q3 -3 -6 -20q-65 -103 -135 -289q-25 -72 -82 -205q49 49 115 88q23 12 26 6q3 -4 -14 -14q-121 -94 -207 -182l-6 -15q-6 -13 -15 -10q-19 3 5 41q15 45 84 236l32 92l2 6h-32q-14 0 -55 -1t-64 -1q-10 -27 -30 -86t-32 -88q-9 -13 -26.5 -41t-35 -54.5 t-34.5 -50.5q-12 -18 -24 -18q-17 0 -17 20z" />
<glyph unicode="&#x43e;" horiz-adv-x="425" d="M-20 129q0 57 24 125q65 186 225 264q37 18 41 14l-24 -24q-127 -133 -185 -336q-18 -64 -18 -100q0 -54 35 -54q49 0 119 107q78 115 116 252q15 53 15 86q0 56 -37 90q-27 24 -31 35q-9 20 14 30q12 6 22.5 -3t24.5 -31t25 -33q16 -19 49 -25q11 -1 26 0.5t24.5 3 t9.5 0.5q1 -3 -8 -8.5t-24 -10.5t-28 -5q-24 0 -45 12q25 -48 25 -115q0 -78 -33 -151q-54 -118 -141 -193q-89 -77 -146 -61q-75 21 -75 131z" />
<glyph unicode="&#x43f;" horiz-adv-x="479" d="M-41 39l186 491q9 21 -8 21q-9 0 -47 -21q-11 -11 -14 -4q-4 4 8 15q61 55 113 61q25 3 34 -12q6 -13 0 -35q-20 -47 -127 -326q55 72 132 162q81 94 151 154q42 33 70 24q24 -9 6 -53l-107 -258q-34 -89 -75 -221q-6 -28 2 -31q11 -6 49 29q15 15 18 12q5 -5 -10 -20 q-65 -74 -107 -68q-37 3 -28 61q15 92 80 252q6 13 20.5 47t30.5 72t31 76q9 21 2 25q-9 3 -25 -13q-93 -93 -156 -172q-30 -35 -161 -250l-33 -43q-16 -22 -31 -16q-15 9 -4 41z" />
<glyph unicode="&#x440;" horiz-adv-x="516" d="M-317 -672q-5 3 4 58q17 104 65 227q65 172 189 350l94 254q27 71 100 309l-55 15q62 12 149 49q1 -1 3 -2t4 -3t4 -5l-13 -33q-52 -149 -170 -459q78 150 185 311q126 185 200 179q42 -3 33 -70q-18 -149 -129 -358q7 1 27.5 4.5t36 6t16.5 1.5q3 -9 -33 -21 q-53 -13 -57 -14q-38 -58 -107 -127q-20 -23 -34 -23q-30 0 -27 54q8 38 16 92l11 8q53 0 86 10q26 62 71 205q40 127 43 193q-65 -27 -243 -322q-75 -124 -144 -283q-44 -112 -141 -331q-64 -131 -133 -234q-30 -47 -51 -41zM-289 -614l96 213q8 17 117 303 q-94 -147 -153 -297q-34 -89 -60 -219zM201 104q0 -50 8 -86q24 24 59 101q-60 -12 -67 -15z" />
<glyph unicode="&#x441;" horiz-adv-x="362" d="M-27 98q-3 88 52 201q57 116 149 199q87 81 170 84q54 0 57 -33q3 -31 -32 -55q-21 -9 -23 -5q-1 1 1.5 9.5t5.5 21.5t3 23q0 19 -14 22q-57 9 -147 -119q-86 -122 -127 -266q-19 -74 -19 -106q0 -51 37 -51q47 0 115 86q43 51 82 127q5 12 11.5 24.5t8 16.5t0.5 4 q13 -3 -8 -56q-40 -100 -117 -174q-58 -55 -112 -55q-90 0 -93 102z" />
<glyph unicode="&#x442;" horiz-adv-x="722" d="M-41 43l100 260l86 227q9 21 -8 21q-9 0 -47 -21q-10 -8 -14 -4t8 15q61 55 113 61q25 3 34 -12q6 -13 0 -35q-14 -48 -55 -152q-59 -135 -72 -174q55 72 132 162q81 94 151 154q42 33 70 24q21 -9 6 -53q-20 -53 -117 -285q75 96 129 160q80 91 152 154q42 33 69 24 t9 -53l-107 -258q-37 -96 -78 -221q-6 -28 4 -31q15 -3 47 29q15 15 19 12q6 -6 -8 -20q-68 -74 -109 -68q-35 3 -29 61q9 66 82 252l80 195q9 27 4 29q-6 3 -26 -17q-88 -88 -154 -170q-64 -79 -166 -256l-31 -37q-21 -23 -38 -20q-10 3 8 51l86 225q9 21 78 195q8 23 4 27 q-9 3 -27 -15q-93 -93 -156 -172q-41 -48 -161 -246l-33 -43q-12 -24 -31 -18q-19 9 -4 43z" />
<glyph unicode="&#x443;" horiz-adv-x="514" d="M-643 -555q-2 -2 10 -10l8 -6q36 -25 101 -25q163 0 297 88q130 84 299 299q136 176 266 483q-48 -71 -143 -159q-102 -91 -132 -138q-11 -17 -26 -14q-32 8 -21 47q38 90 52 133q53 184 59 301q3 80 -43 80q-4 0 -31 -12q-25 -9 -26 -8q-5 8 28 28q57 31 92 31 q69 0 60 -112q-12 -149 -76 -316q-20 -55 -59 -127q101 106 188 199q123 144 191 348l6 33q0 12 4 12q9 0 18 -18q13 -26 13 -58q0 -21 -11 -63q-32 -110 -94 -252q-118 -269 -254 -436q-144 -175 -328 -289q-191 -117 -340 -117q-59 0 -98 39q-26 29 -10 39z" />
<glyph unicode="&#x444;" horiz-adv-x="737" d="M-506 -559q0 8 2 8l8 -4q7 -4 19.5 -9.5t28.5 -11.5t37 -10t42 -4q233 0 383 178q104 132 230 437l59 151q-68 -84 -130 -129t-107 -45q-38 3 -41 47q-8 123 135 365q-16 0 -54 -6l-38 -7q-1 4 5.5 8.5t30 10.5t66.5 14q18 30 71.5 87t77.5 57q29 0 35 -41q0 -6 -2 -19 t-6 -36t-6 -44l-12 -8q-52 0 -97 -10q-28 -57 -71 -193.5t-43 -187.5q28 9 87 61.5t124 137.5q11 27 32 88l70 174q115 289 248.5 428t277.5 139q62 0 62 -47q0 -55 -78 -105q-18 -12 -25 -12q-4 0 -4 4l19 19q31 31 31 65q0 47 -52 47q-98 0 -187.5 -120.5t-197.5 -389.5 l-12 -26l-66 -166q172 248 275 248q38 -3 41 -47q8 -121 -135 -363q11 0 33 3t40 6t19 3q1 -5 -5.5 -9.5t-31 -11t-66.5 -13.5q-18 -30 -71.5 -87t-77.5 -57q-29 0 -35 41q0 7 2 20t6 35t6 43l13 9q51 0 96 10q29 57 72 193.5t43 187.5q-33 -12 -106.5 -93t-153.5 -206 q-74 -183 -88 -221q-133 -310 -316.5 -485t-380.5 -175q-47 0 -89 25.5t-42 48.5zM244 442q71 14 73 15q-3 44 -12 82q-24 -19 -61 -97zM469 129q0 -37 10 -82q31 28 62 96q-2 0 -18.5 -2.5t-32 -5t-21.5 -6.5z" />
<glyph unicode="&#x445;" horiz-adv-x="434" d="M-106 -20q27 94 120 204q66 76 150 154l-8 98q-9 71 -39 88q-12 8 -37 4q-23 -5 -23 1q1 5 23 16q39 19 70 16q64 -3 79 -98q6 -34 9 -70q40 42 131 117q61 50 112 59q56 9 56 -28q-21 9 -58 -4q-45 -15 -96 -58q-91 -75 -145 -129q0 -43 2 -82v-100q0 -91 2 -105 q3 -30 16 -30q18 0 45 49q5 9 8 12t4 2q4 -4 2 -10q-6 -32 -39 -67t-59 -35q-44 3 -53 77q-2 10 -2 111v123q-72 -69 -127 -135q-99 -120 -127 -185l-14 -36q-14 0 -2 41z" />
<glyph unicode="&#x446;" horiz-adv-x="499" d="M-18 55q0 66 38.5 169t145.5 292q-28 -4 -29 -4q-29 6 -33 8l66 19q69 21 74 26q2 2 10 2q4 0 4 -4q0 -1 -1 -3t-1 -3q-93 -179 -147 -310.5t-54 -178.5q0 -29 19 -29q26 0 84.5 69.5t130.5 192.5q9 9 12 29q64 151 107 212.5t86 61.5q8 0 10 -2v-2q0 -6 -6 -18 q-34 -51 -57.5 -103.5t-70.5 -172t-89 -218.5q38 38 81 70q16 3 76 43l8 -23q-55 -67 -71.5 -100.5t-16.5 -73.5q0 -9 5.5 -53.5t5.5 -54.5q0 -60 -55 -109.5t-119 -54.5q-59 -3 -56 55q-3 24 11 55q27 -64 73 -61q87 3 84 84v65q0 21 2 39.5t8.5 38t11 31.5t16.5 32.5 t16.5 28t20 31t19.5 29.5q-3 -2 -27.5 -21t-39.5 -31.5t-40 -33.5t-48 -43t-45 -45q-6 -25 -19 -25q-12 0 -12 10q0 17 98 267q-85 -129 -138 -182.5t-91 -53.5q-57 0 -57 53z" />
<glyph unicode="&#x447;" horiz-adv-x="499" d="M47 233q3 42 29 111q17 40 90 172q-28 -4 -29 -4q-29 6 -33 8l66 19q69 21 74 26q2 2 10 2q4 0 4 -4l-2 -6q-41 -77 -109 -221q-18 -43 -24 -90q-3 -29 16 -29q23 0 86 66q63 70 127 159q10 20 54 99q42 63 88 63q8 0 10 -2v-2q0 -6 -6 -18q-34 -51 -57.5 -103.5 t-70.5 -172t-89 -218.5q35 35 76 65.5t61 30.5q4 0 4 -4q0 -2 -23 -18t-79 -64t-119 -112q-6 -25 -19 -25q-12 0 -12 10q0 17 98 267q3 3 18 44t15 48l21 47q-76 -101 -127 -146q-57 -51 -95 -51q-56 0 -53 53z" />
<glyph unicode="&#x448;" horiz-adv-x="741" d="M-20 51q0 68 71 242q31 73 113 219q-20 -4 -29 -4q-26 5 -33 8l41 10q71 17 99 35q10 3 12 2q2 -3 0 -10q-88 -168 -125 -260q-57 -137 -70 -195q-14 -53 9 -63q24 -6 84 63.5t135 198.5q2 2 1 -1q0 -2 -1 -7q1 2 2 5.5t2 4.5q34 80 112 219q-20 -4 -28 -4q-26 5 -33 8 l41 10q69 17 98 35q11 4 13 2q2 -3 0 -10q-88 -168 -125 -260q-57 -137 -70 -195q-14 -53 8 -63q24 -6 84 63.5t135 198.5q10 10 13 29q52 121 75 168q20 39 48.5 66.5t50 36t28.5 1.5q3 -3 -6 -20q-65 -103 -135 -289q-25 -72 -82 -205q49 49 115 88q23 12 26 6 q3 -4 -14 -14q-121 -94 -207 -182l-6 -15q-6 -13 -14 -10q-20 3 4 41q15 45 84 236q-69 -106 -100 -142q-82 -94 -130 -94q-57 0 -57 53q0 55 43 168q-65 -96 -96 -133q-82 -94 -129 -94q-57 0 -57 53z" />
<glyph unicode="&#x449;" horiz-adv-x="741" d="M-20 51q0 66 38.5 169t145.5 292q-28 -4 -29 -4q-29 6 -33 8l66 19q69 21 74 26q2 2 10 2q4 0 4 -4l-2 -6q-93 -179 -147 -310.5t-54 -179.5q0 -28 19 -28q26 0 84.5 69.5t130.5 192.5q15 26 22 45q56 110 94 176q-5 -1 -11.5 -2t-10 -1.5t-6.5 -0.5q-29 6 -33 8l66 19 q67 20 73 26q2 2 11 2q4 0 4 -4l-2 -6q-93 -179 -147 -310.5t-54 -178.5q0 -29 18 -29q26 0 84.5 69.5t130.5 192.5q10 10 13 29q65 151 107 212.5t85 61.5q8 0 10 -2v-2q0 -6 -6 -18q-34 -51 -57.5 -103.5t-70.5 -172t-89 -218.5q15 11 43.5 35t44.5 35q16 3 76 43l8 -23 q-55 -67 -71.5 -100.5t-16.5 -73.5q0 -9 5 -53.5t5 -54.5q0 -60 -55 -109.5t-119 -54.5q-29 -2 -42.5 12t-12.5 43q-3 26 10 55q27 -64 74 -61q87 3 84 84v65q0 21 2 39.5t8.5 38t11 31.5t16.5 32.5t16.5 28t20 31t19.5 29.5q-7 -6 -36 -28t-51.5 -39.5t-55 -46t-58.5 -56.5 l-6 -4q-6 -25 -18 -25t-12 10q0 17 98 267q-85 -129 -138.5 -182.5t-91.5 -53.5q-57 0 -57 53q0 65 35 158q-79 -119 -129 -166q-51 -51 -88 -51q-57 0 -57 53z" />
<glyph unicode="&#x44a;" horiz-adv-x="514" d="M39 547q0 19 18.5 38t38.5 19q4 0 4 -4q0 -3 -15 -13t-15 -20q0 -30 133 -30q65 0 100.5 8t75.5 37q19 8 22 8q5 0 5 -6q0 -2 1.5 -5.5t1.5 -6.5t-3 -7q-7 -11 -20.5 -36t-36 -67t-45.5 -88.5t-46.5 -97.5t-40.5 -98t-27.5 -87t-7.5 -67t21 -34q29 -12 69.5 20.5 t72.5 83.5t51.5 108.5t11.5 90.5q-6 23 -33 46t-27 28q0 6 6 12t15 6q18 0 30.5 -10t32.5 -41q20 -17 47 -17q7 0 14.5 1.5t14.5 4t12.5 5t9 4t2.5 2.5l5 -4q0 -8 -21 -17.5t-39 -9.5q-24 0 -37 8q29 -58 29 -78q0 -68 -42.5 -132t-104.5 -99t-119 -27q-38 2 -64.5 26.5 t-27.5 61.5q0 20 3 40.5t12.5 48t18 49.5t28 64t33 70.5t43.5 89.5t50 103q-95 -36 -166 -36q-46 0 -70 15t-24 40z" />
<glyph unicode="&#x44b;" horiz-adv-x="667" d="M-14 63q0 15 2 30.5t7.5 36t10.5 36.5t17 44t20 47t26 57t29.5 62t36 74t39.5 82q-7 -3 -26 -15t-23 -13q-23 0 -23 6q0 3 27.5 18.5t65 32t59.5 21.5q5 1 12 4.5t10 3.5q5 0 5 -6q0 -2 1.5 -5.5t1.5 -6.5t-3 -7q-7 -11 -20.5 -36t-36 -67t-45.5 -88.5t-46.5 -97.5 t-40.5 -98t-27.5 -87t-7.5 -67t21 -34q29 -12 69.5 20.5t72.5 83.5t51.5 108.5t11.5 90.5q-6 23 -33 46t-27 28q0 6 6 12t15 6q18 0 30.5 -10t32.5 -41q20 -17 47 -17q28 0 52 15q3 1 2 2l4 -4q0 -8 -21 -17.5t-39 -9.5q-24 0 -37 8q29 -58 29 -78q0 -68 -42.5 -132 t-104.5 -99t-119 -27q-38 2 -64.5 26.5t-27.5 61.5zM354 -8q0 4 4 16q17 57 103 301q39 92 106 230l-35 -15q-22 0 -22 6q0 5 29 15q39 12 98 43q22 9 25 6q5 -5 -5 -25q-56 -101 -118 -260q-65 -170 -88 -243q53 50 100 71q16 10 16 0q-70 -52 -112 -100q-66 -75 -76 -72 q-28 0 -25 27z" />
<glyph unicode="&#x44c;" horiz-adv-x="444" d="M-14 63q0 15 2 30.5t7.5 36t10.5 36.5t17 44t20 47t26 57t29.5 62t36 74t39.5 82q-46 -20 -47 -20q-23 0 -23 6q0 2 26 12t64 25t60 27q19 8 22 8q5 0 5 -6q0 -2 1.5 -5.5t1.5 -6.5t-3 -7q-7 -11 -20.5 -36t-36 -67t-45.5 -88.5t-46.5 -97.5t-40.5 -98t-27.5 -87 t-7.5 -67t21 -34q29 -12 69.5 20.5t72.5 83.5t51.5 108.5t11.5 90.5q-6 23 -33 46t-27 28q0 6 6 12t15 6q18 0 30.5 -10t32.5 -41q20 -17 47 -17q28 0 52 15q3 1 2 2l4 -4q0 -8 -21 -17.5t-39 -9.5q-24 0 -37 8q29 -58 29 -78q0 -68 -42.5 -132t-104.5 -99t-119 -27 q-38 2 -64.5 26.5t-27.5 61.5z" />
<glyph unicode="&#x44d;" horiz-adv-x="415" d="M-29 29q-3 30 33 55q21 9 23 4q1 -1 -2 -9t-6 -21t-3 -23q0 -20 15 -23q59 -9 147 117q45 65 72 123q-62 9 -121 31q-14 3 -14 12q-1 1 1 1t7 -1q47 -11 117 -14q8 -2 22 -2q30 65 43 118q19 74 19 107q0 51 -37 51q-47 0 -115 -86q-43 -51 -82 -127q-5 -12 -11.5 -24.5 t-8 -16.5t-0.5 -4q-13 3 8 55q40 100 117 174q59 56 112 56q89 0 92 -103q3 -89 -51 -200v-3q13 1 53 9q28 0 31 -9q3 -16 -18 -22l-82 -6q-55 -98 -133 -170q-88 -79 -170 -82q-55 0 -58 33z" />
<glyph unicode="&#x44e;" horiz-adv-x="667" d="M-37 16q0 8 6 23l109 289l-19 -2q-32 -4 -36 -4q-17 0 -17 8q0 10 25 16q26 7 59 10l66 174q2 2 2 11q0 10 -11 10q-13 0 -47 -21q-6 -6 -10 -6t-4 4q0 22 51.5 48t69.5 26q19 0 28 -6t9 -23q0 -14 -2 -18q-15 -36 -62 -172l-8 -23h23q56 -4 81 -8q11 0 15 -2 q64 117 186 176q38 18 41 15l-24 -25q-127 -133 -185 -336q-18 -64 -18 -100q0 -53 35 -53q49 0 118 106q80 117 117 252q14 49 14 86q0 57 -36 90q-27 24 -31 35q-9 21 14 31q12 6 22.5 -3.5t24.5 -31.5t25 -33q15 -18 49 -24q11 -1 26 0.5t24 3t9 0.5q1 -3 -8 -9 t-23.5 -11t-27.5 -5q-24 0 -45 12q25 -48 25 -114q0 -79 -33 -152q-54 -116 -141 -192q-89 -77 -146 -62q-76 21 -76 131q0 55 25 125q10 34 31 74h-2q-30 0 -48 -2l-57 -2h-14l-21 -62q-26 -73 -41 -110q-9 -13 -26.5 -41t-35 -54.5t-34.5 -50.5q-12 -18 -24 -18 q-17 0 -17 20z" />
<glyph unicode="&#x44f;" horiz-adv-x="524" d="M-59 -39q0 48 75 136.5t215 166.5q-33 6 -65.5 40t-32.5 95q0 78 64 137.5t145 59.5q46 0 109 -29q15 31 22 31q31 0 31 -33q-4 -26 -12 -45q4 -7 15 -32.5t11 -28.5q0 -6 -3.5 -10.5t-6 -5.5t-4.5 -1q4 0 -6.5 19.5t-20.5 32.5q-57 -91 -92 -210t-35 -186q0 -65 49 -65 q15 0 43 12t33 12q6 0 6 -4q0 -10 -58.5 -34.5t-86.5 -24.5q-68 0 -68 84q0 62 45 180q-8 -3 -43 -8q-60 -15 -124.5 -78.5t-103 -124.5t-52.5 -100q2 -6 2 -19q0 -16 -4 -16q-9 0 -28 16.5t-19 32.5zM209 397q-5 -64 23.5 -99.5t89.5 -8.5q53 144 108 233q3 5 4 11.5 t4 11.5q-30 26 -73 26q-23 0 -47.5 -9t-49 -27.5t-41 -54.5t-18.5 -83z" />
<glyph unicode="&#x451;" horiz-adv-x="382" d="M-29 100q0 28 11 78q29 116 108 221q152 190 301 187q49 0 49 -37q0 -41 -39 -74q-66 -54 -145 -45q-29 2 -59 16q-38 -53 -58 -92q-59 -122 -86 -215q-10 -45 -10 -69q0 -47 27 -56q51 -11 122 71t91 181q6 25 12 25q9 0 6 -23q-3 -58 -49 -137q-94 -162 -201 -147 q-80 12 -80 116zM207 461q27 -15 55 -15q42 -1 81.5 32t37.5 65q0 20 -25 20q-35 0 -86 -39q-42 -34 -63 -63zM227 707q0 47 47 47q48 0 48 -47q0 -48 -48 -48q-47 0 -47 48zM399 707q0 47 47 47q48 0 48 -47q0 -48 -48 -48q-47 0 -47 48z" />
<glyph unicode="&#x454;" horiz-adv-x="423" d="M43 100q-3 90 51 201q56 114 150 199q87 81 170 84q54 0 57 -33q3 -30 -33 -55q-20 -8 -22 -4q-1 1 1.5 9t5.5 21t3 23q0 19 -14 22q-59 9 -148 -118q-85 -121 -127 -267q-18 -71 -18 -106q0 -51 37 -51q46 0 114 86q43 51 82 127q6 13 12 25l8 16t1 4q13 -3 -8 -56 q-40 -100 -117 -174q-58 -55 -113 -55q-89 0 -92 102zM51 324q3 8 31 8q24 -5 98 -2l41 -4q15 0 23 2q68 3 116 14q8 2 9 0q0 -9 -15 -12q-59 -22 -121 -31q-147 0 -163 2q-22 6 -19 23z" />
<glyph unicode="&#x455;" horiz-adv-x="452" d="M-2 104q0 140 156 474q60 122 88 170q-61 31 -78 75q-9 27 2 27q-2 0 5.5 -14t29.5 -35.5t51 -36.5q170 305 461 602q160 160 362 272q236 127 414 127q127 0 201 -63t69 -166q-12 -304 -430 -614q-129 -97 -344 -170q-225 -72 -418 -72q-155 0 -256 39q-30 -53 -75 -152 q-134 -293 -173 -461q-21 -87 23 -96q41 -9 100 74q54 72 88 160q25 66 50 159q15 80 -41 115q-39 22 -11 47q22 19 52 -16q25 -32 32 -53q23 -23 60 -23q30 0 51 12q3 1 8.5 4t9 6t4.5 3q12 -7 -12 -24t-59 -21q-31 0 -51 10q12 -30 12 -78q0 -78 -31 -154 q-45 -105 -125 -176q-74 -68 -141 -65q-84 6 -84 114zM322 737q110 -35 245 -35q169 0 391 78q210 74 342 176q377 287 398 588q6 95 -45 146q-57 57 -168 57q-161 0 -371 -127q-188 -115 -338 -272q-259 -271 -454 -611z" />
<glyph unicode="&#x456;" horiz-adv-x="290" d="M-29 -14q0 4 4 16q17 57 103 301q36 86 106 229q-31 -13 -34 -14q-23 0 -23 6q0 5 29 15q39 12 98 43q22 9 25 6q5 -5 -5 -25q-56 -101 -118 -260q-63 -165 -88 -244q55 52 100 72q16 10 16 0q-70 -52 -112 -100q-66 -75 -76 -72q-28 0 -25 27zM270 782q8 29 66 72 q52 36 88 47q-30 -37 -92 -127q-9 -23 -18 -34t-17 -9q-14 2 -23.5 18t-3.5 33z" />
<glyph unicode="&#x457;" horiz-adv-x="290" d="M-29 -14q0 4 4 16q17 57 103 301q36 86 106 229q-31 -13 -34 -14q-23 0 -23 6q0 5 29 15q39 12 98 43q22 9 25 6q5 -5 -5 -25q-56 -101 -118 -260q-63 -165 -88 -244q55 52 100 72q16 10 16 0q-70 -52 -112 -100q-66 -75 -76 -72q-28 0 -25 27zM109 707q0 47 47 47 t47 -47q0 -48 -47 -48t-47 48zM281 707q0 47 47 47t47 -47q0 -48 -47 -48t-47 48z" />
<glyph unicode="&#x45e;" horiz-adv-x="514" d="M-643 -555q-2 -2 10 -10l8 -6q36 -25 101 -25q163 0 297 88q130 84 299 299q136 176 266 483q-48 -71 -143 -159q-102 -91 -132 -138q-11 -17 -26 -14q-32 8 -21 47q38 90 52 133q53 184 59 301q3 80 -43 80q-4 0 -31 -12q-25 -9 -26 -8q-5 8 28 28q57 31 92 31 q69 0 60 -112q-12 -149 -76 -316q-20 -55 -59 -127q101 106 188 199q123 144 191 348l6 33q0 12 4 12q9 0 18 -18q13 -26 13 -58q0 -21 -11 -63q-32 -110 -94 -252q-118 -269 -254 -436q-144 -175 -328 -289q-191 -117 -340 -117q-59 0 -98 39q-26 29 -10 39zM332 760 q-53 38 6 127q21 34 41 28l-8 -26q-13 -49 26 -72q68 -43 276 91q25 16 25 14q0 -1 -6 -7q-12 -11 -43 -42t-47 -45t-45.5 -34t-60.5 -32q-100 -45 -164 -2z" />
<glyph unicode="&#x490;" horiz-adv-x="1239" d="M-45 -74q3 114 176 197q53 27 53 12l-45 -29q-113 -73 -116 -157q-2 -48 32.5 -78.5t91.5 -30.5q207 0 426 291q119 155 279 461q69 128 139 268l172 334q-272 78 -504 78q-361 0 -370 -238q-3 -58 63 -139q54 -67 117 -109q14 -14 14 -16q-3 -6 -26 8q-220 125 -238 234 q-4 28 -4 37q0 144 184 208q131 46 314 46q43 0 73 -3q236 -23 398 -65q39 68 98 133q21 24 68 45q39 20 45 14l-27 -34q-52 -67 -108 -179q291 -77 446 -196q33 -23 23 -33q1 1 -5.5 6t-21.5 13q-105 62 -461 167q-10 -20 -34.5 -74t-54.5 -118.5t-62 -130.5 q-74 -154 -142 -281q-150 -279 -338 -479q-261 -276 -493 -276q-75 0 -119.5 31.5t-42.5 82.5zM1430 795q-6 3 6 30q54 104 145 219q47 55 70 80q128 130 149 109q9 -9 -43 -49q-4 -6 -84 -86q-57 -59 -98 -115q-55 -64 -135 -178q-5 -7 -6.5 -9t-3.5 -1z" />
<glyph unicode="&#x491;" horiz-adv-x="380" d="M-92 -27q24 0 116.5 227.5t104.5 321.5q-16 -7 -39 -10q-16 0 -16 6q17 8 39 18t35 16t26 12.5t20.5 10.5t10.5 7q2 1 5 2l4.5 1.5t2.5 0.5q12 0 12 -13q0 -3 -1 -6t-1 -6q-29 -130 -90 -256q-6 -14 -32.5 -78.5t-49.5 -112.5t-51 -96l-4 -4q-4 -5 -8 -9t-10.5 -9.5 t-13 -10.5t-14 -9t-16 -6.5t-16.5 -2.5t-14 6zM160 514l4 6q27 5 125.5 7.5t124.5 21.5q17 11 4 36.5t-8 32.5q11 11 20 11q42 8 61 -15t-6 -57q-13 -13 -57.5 -27t-75.5 -14q-55 -2 -81.5 -3.5t-36 -2.5t-29 -4t-39.5 -6z" />
<glyph unicode="&#x2000;" horiz-adv-x="882" />
<glyph unicode="&#x2001;" horiz-adv-x="1765" />
<glyph unicode="&#x2002;" horiz-adv-x="882" />
<glyph unicode="&#x2003;" horiz-adv-x="1765" />
<glyph unicode="&#x2004;" horiz-adv-x="588" />
<glyph unicode="&#x2005;" horiz-adv-x="441" />
<glyph unicode="&#x2006;" horiz-adv-x="294" />
<glyph unicode="&#x2007;" horiz-adv-x="294" />
<glyph unicode="&#x2008;" horiz-adv-x="220" />
<glyph unicode="&#x2009;" horiz-adv-x="353" />
<glyph unicode="&#x200a;" horiz-adv-x="98" />
<glyph unicode="&#x2010;" horiz-adv-x="350" d="M4 315q29 3 94 27q70 26 99 33q83 21 96 -8q15 -38 -68 -56q-52 -12 -119 -12q-73 0 -102 16z" />
<glyph unicode="&#x2011;" horiz-adv-x="350" d="M4 315q29 3 94 27q70 26 99 33q83 21 96 -8q15 -38 -68 -56q-52 -12 -119 -12q-73 0 -102 16z" />
<glyph unicode="&#x2012;" horiz-adv-x="350" d="M4 315q29 3 94 27q70 26 99 33q83 21 96 -8q15 -38 -68 -56q-52 -12 -119 -12q-73 0 -102 16z" />
<glyph unicode="&#x2013;" horiz-adv-x="614" d="M37 317q3 52 192 58q68 2 183 -15q110 -21 161 -57q-132 15 -374 12q-8 0 -78 -4q-54 -4 -62 -2q-22 0 -22 8z" />
<glyph unicode="&#x2014;" horiz-adv-x="1228" d="M37 315q3 33 78 45q108 21 417 21q194 0 381 -21q201 -21 275 -57q-207 19 -555 19q-192 0 -404 -7l-166 -6q-29 0 -26 6z" />
<glyph unicode="&#x2018;" horiz-adv-x="229" d="M178 664q34 76 168 141q-52 -64 -92 -154q-22 -57 -51 -47q-48 15 -25 60z" />
<glyph unicode="&#x2019;" horiz-adv-x="229" d="M135 598q55 72 92 154q22 57 52 47q46 -12 24 -60q-34 -76 -168 -141z" />
<glyph unicode="&#x201a;" horiz-adv-x="217" d="M-111 -104q53 65 95 153q24 53 49 47q46 -14 26 -59q-41 -84 -170 -141z" />
<glyph unicode="&#x201c;" horiz-adv-x="391" d="M178 664q34 76 168 141q-52 -64 -92 -154q-22 -57 -51 -47q-48 15 -25 60zM340 664q34 76 168 141q-52 -64 -92 -154q-22 -57 -51 -47q-48 15 -25 60z" />
<glyph unicode="&#x201d;" horiz-adv-x="391" d="M135 598q55 72 92 154q22 57 52 47q46 -12 24 -60q-34 -76 -168 -141zM297 598q55 72 92 154q22 57 51 47q47 -12 25 -60q-34 -76 -168 -141z" />
<glyph unicode="&#x201e;" horiz-adv-x="380" d="M-111 -104q53 65 95 153q24 53 49 47q46 -14 26 -59q-41 -84 -170 -141zM53 -104q56 73 92 153q21 57 50 47q46 -14 26 -59q-41 -80 -168 -141z" />
<glyph unicode="&#x2026;" horiz-adv-x="630" d="M-41 37q0 21 17 39.5t40 19.5t38.5 -13.5t13.5 -35.5q-6 -54 -58 -57q-51 -3 -51 47zM172 37q3 56 57 59q24 2 38.5 -12t13.5 -37q-3 -54 -58 -57q-25 -2 -38.5 10.5t-12.5 36.5zM387 37q3 56 55 59q25 1 39.5 -12.5t12.5 -36.5q-3 -54 -58 -57q-49 -3 -49 47z" />
<glyph unicode="&#x202f;" horiz-adv-x="353" />
<glyph unicode="&#x2039;" horiz-adv-x="333" d="M12 291q108 55 275 178q18 15 22 8q4 -8 -16 -28q-97 -104 -187 -168q30 -89 41 -166q3 -37 -4 -37q-1 0 -16 24q-39 89 -115 189z" />
<glyph unicode="&#x203a;" horiz-adv-x="333" d="M-47 88q-4 9 16 29q97 104 187 168q-30 89 -41 166q-3 36 4 36q1 0 16 -24q39 -89 115 -189q-108 -55 -275 -178q-18 -15 -22 -8z" />
<glyph unicode="&#x205f;" horiz-adv-x="441" />
<glyph unicode="&#x20ac;" horiz-adv-x="425" d="M-23 311q3 27 74 27q18 24 21 37q-67 0 -64 10q3 25 88 25q138 199 281 202q56 0 59 -34q3 -23 -22 -48q-25 -22 -35 -12q-7 7 2 21q24 52 -6 55q-84 15 -197 -188q102 -11 141 -35q-50 4 -157 4l-21 -41q106 -11 148 -35q-102 4 -162 4q-28 -73 -37 -104 q-18 -67 -18 -105q0 -51 45 -51q38 0 90 55q56 62 84 117q21 43 24 43q17 -3 -10 -55q-36 -70 -84 -121q-67 -73 -135 -70q-87 6 -90 111q-3 75 39 180q-15 0 -26 0.5t-18.5 1.5t-11 2.5t-2.5 3.5z" />
<glyph unicode="&#x2122;" horiz-adv-x="1024" d="M190 879l5 65q3 28 14 39q18 -6 31 -6h245q7 0 31 6q11 -11 14 -39l5 -65l-17 -2q-12 57 -31 67q-18 12 -96 12q-2 -35 -2 -79v-170q0 -75 64 -78v-15q-27 0 -47 2h-93q-18 -2 -41 -2v15q34 2 48 17t14 61v249q-78 0 -96 -12q-19 -10 -31 -67zM543 614v15q48 3 57 73 q19 151 23 205q1 34 -9 44t-47 16v14h33q14 -2 33 -2q16 0 26 2h25l66 -156l59 -133l125 289h29q12 -2 26 -2q17 0 29 2h29v-14q-59 -3 -50 -64q1 -36 17 -215q3 -53 53 -59v-15q-21 0 -39 2h-88q-18 -2 -41 -2v15q32 1 42.5 13.5t10.5 47.5q-6 122 -16 240l-62 -144 l-69 -165l-21 -7l-71 164q-27 56 -64 142q-9 -83 -18 -220q-3 -68 47 -71v-15q-15 0 -29 2h-74q-14 -2 -32 -2z" />
<glyph unicode="&#xe000;" horiz-adv-x="573" d="M0 0v573h573v-573h-573z" />
</font>
</defs>
</svg>
