<?xml version="1.0" standalone="no"?>
<!DOCTYPE svg PUBLIC "-//W3C//DTD SVG 1.1//EN" "http://www.w3.org/Graphics/SVG/1.1/DTD/svg11.dtd" >
<svg xmlns="http://www.w3.org/2000/svg" xmlns:xlink="http://www.w3.org/1999/xlink" version="1.1">
<metadata></metadata>
<defs>
<font id="magistralcregular" horiz-adv-x="1394" >
<font-face units-per-em="2048" ascent="1679" descent="-369" />
<missing-glyph horiz-adv-x="477" />
<glyph horiz-adv-x="0" />
<glyph horiz-adv-x="682" />
<glyph unicode=" "  horiz-adv-x="477" />
<glyph unicode="&#x09;" horiz-adv-x="477" />
<glyph unicode="&#xa0;" horiz-adv-x="477" />
<glyph unicode="!" horiz-adv-x="397" d="M143 0v158h111v-158h-111zM143 324v1110h111v-1110h-111z" />
<glyph unicode="&#x22;" horiz-adv-x="536" d="M102 1051v383h111v-383h-111zM324 1051v383h110v-383h-110z" />
<glyph unicode="#" horiz-adv-x="1638" d="M61 399l39 97h287l188 465h-286l39 96h286l152 377h106l-151 -377h463l151 377h107l-152 -377h287l-39 -96h-287l-188 -465h287l-39 -97h-287l-160 -399h-106l160 399h-463l-160 -399h-107l160 399h-287zM494 496h462l189 465h-463z" />
<glyph unicode="$" horiz-adv-x="1331" d="M102 1112q0 141 68 225q50 60 107.5 78.5t138.5 18.5h202v139h91v-139h450v-97h-450v-573l270 -102q106 -37 170 -101q50 -49 65 -101.5t15 -125.5q0 -83 -19.5 -150t-79.5 -118q-36 -31 -83.5 -46.5t-79 -17.5t-90.5 -2h-168v-139h-91v139h-483v96h483v596l-311 117 q-100 38 -147 94q-58 69 -58 209zM217 1108q0 -158 107 -199l294 -110v538h-215q-104 0 -149 -63q-37 -50 -37 -166zM709 96h204q99 0 158 68q43 52 43 155q0 106 -39 159.5t-108 80.5l-258 98v-561z" />
<glyph unicode="%" d="M102 1104q0 200 78 278q64 64 193 64q128 0 192 -64q78 -78 78 -278q0 -201 -78 -279q-63 -63 -192 -63q-130 0 -193 63q-78 78 -78 279zM205 1104q0 -148 41 -205q42 -53 127 -53t127 53q41 57 41 205t-41 205q-42 53 -127 53t-127 -53q-41 -57 -41 -205zM328 0 l651 1434h96l-651 -1434h-96zM752 330q0 201 77 278q64 64 193 64q128 0 192 -64q78 -78 78 -278q0 -201 -78 -279q-63 -63 -192 -63q-130 0 -193 63q-77 77 -77 279zM854 330q0 -46 2 -75t12.5 -66.5t30.5 -63.5q25 -33 54.5 -43t68.5 -10t68.5 10t54.5 43q20 26 30.5 63.5 t12.5 66.5t2 75t-2 75t-12.5 66.5t-30.5 63.5q-25 33 -54.5 43t-68.5 10t-68.5 -10t-54.5 -43q-20 -26 -30.5 -63.5t-12.5 -66.5t-2 -75z" />
<glyph unicode="&#x26;" horiz-adv-x="1294" d="M102 391q0 162 45 225q24 35 66.5 61.5t91.5 35.5v4q-91 10 -143 86q-60 86 -60 252q0 207 86 295q80 84 244 84h612v-97h-593q-118 0 -172 -49q-29 -27 -44 -75t-16.5 -76.5t-1.5 -73.5q0 -38 1 -57t5.5 -56.5t17 -67t33.5 -51.5q32 -35 91.5 -54t121.5 -19h787v-96 h-240v-506q0 -91 -26 -121q-14 -17 -42 -25.5t-42.5 -9t-44.5 -0.5h-426q-44 0 -70 2t-66.5 10t-74.5 29t-62 55q-34 42 -52.5 98.5t-22 97t-3.5 99.5zM217 371q0 -45 1 -70.5t9.5 -62.5t24.5 -62q18 -28 42 -45.5t53.5 -24t50.5 -8.5t53 -2h393q65 0 78 13q14 12 14 55v498 h-520q-123 0 -174 -93q-12 -21 -17.5 -54t-6.5 -60t-1 -84z" />
<glyph unicode="'" horiz-adv-x="315" d="M102 1051v383h111v-383h-111z" />
<glyph unicode="(" horiz-adv-x="663" d="M143 303v520q0 193 21 279q38 145 141 229q123 98 297 111v-94q-113 -8 -187 -60.5t-112 -116.5q-57 -99 -57 -294v-627q0 -196 57 -295q38 -64 112 -116t187 -60v-94q-169 5 -297 112q-110 91 -143 242q-19 90 -19 264z" />
<glyph unicode=")" horiz-adv-x="663" d="M61 -221q113 8 187 60t112 116q58 101 58 295v627q0 193 -58 294q-38 64 -112 116.5t-187 60.5v94q174 -13 297 -111q105 -85 142 -229q5 -19 8.5 -39.5t5.5 -44t3.5 -38.5t2 -43.5t0.5 -37.5v-40.5v-35.5v-520q0 -179 -18 -264q-33 -150 -144 -242q-128 -107 -297 -112 v94z" />
<glyph unicode="*" horiz-adv-x="1040" d="M102 782l332 193l-332 192l43 74l332 -192v385h86v-385l332 192l43 -74l-332 -192l332 -193l-43 -73l-332 192v-385h-86v385l-332 -192z" />
<glyph unicode="+" horiz-adv-x="1159" d="M143 586v98h381v381h111v-381h381v-98h-381v-381h-111v381h-381z" />
<glyph unicode="," horiz-adv-x="397" d="M0 -117l197 330l98 -59l-197 -330z" />
<glyph unicode="-" horiz-adv-x="819" d="M102 496v118h615v-118h-615z" />
<glyph unicode="." horiz-adv-x="327" d="M102 0v178h123v-178h-123z" />
<glyph unicode="/" horiz-adv-x="958" d="M-20 -334l897 1850h102l-897 -1850h-102z" />
<glyph unicode="0" horiz-adv-x="1253" d="M102 479v508q0 220 144 348q79 70 168.5 90.5t212.5 20.5t212.5 -20.5t168.5 -90.5q143 -127 143 -348v-508q0 -288 -176 -411q-22 -15 -45.5 -27t-41.5 -20t-45 -13.5t-41 -8t-44.5 -4t-41.5 -1.5h-45.5h-43.5h-43.5h-45.5t-41.5 1.5t-44.5 4t-41 8t-45 13.5t-41.5 20 t-45.5 27q-177 123 -177 411zM213 518q0 -71 3 -114.5t23 -103.5t58 -103q32 -36 71.5 -58.5t86 -32t82 -12t88.5 -2.5q55 0 91 2.5t83.5 12t86.5 32t70 58.5q38 43 58 103t23 103.5t3 114.5v438q0 222 -133 318q-45 33 -117.5 51.5t-105.5 20.5t-57 2q-25 0 -58 -2 t-105.5 -20.5t-117.5 -51.5q-133 -96 -133 -318v-438z" />
<glyph unicode="1" horiz-adv-x="428" d="M-20 1335v99h172q61 0 96 -27q37 -31 37 -111v-1296h-111v1253q0 46 -8 62q-11 20 -41 20h-145z" />
<glyph unicode="2" horiz-adv-x="1198" d="M102 98q0 69 56 113l714 565q63 51 86 107.5t23 169.5q0 166 -37 217q-45 65 -166 65h-569v99h559q51 0 85.5 -3.5t81 -21t79.5 -51.5q82 -84 82 -299q0 -174 -62 -264q-20 -29 -51 -59t-49 -44l-692 -549q-4 -2 -14.5 -12.5t-10.5 -15.5q0 -17 19 -17h778v-98h-805 q-107 0 -107 98z" />
<glyph unicode="3" horiz-adv-x="1155" d="M102 0v98h584q45 0 69.5 1t57.5 9t53 23q34 24 51.5 76.5t19 82.5t1.5 75q0 193 -68 256q-54 51 -155 51h-576v98h566q120 0 174 57q23 25 35 66.5t14 74t2 83.5q0 53 -1 79.5t-11.5 72t-32.5 73.5q-45 59 -129 59h-621v99h602q36 0 60.5 -2.5t60 -11t66.5 -30t57 -55.5 q63 -85 63 -284q0 -191 -61 -265q-51 -59 -131 -67v-4q79 -10 129 -68q72 -80 72 -266q0 -210 -80 -301q-43 -49 -96.5 -64.5t-124.5 -15.5h-650z" />
<glyph unicode="4" horiz-adv-x="1249" d="M41 401q0 52 51 109l733 866q19 22 32 34.5t41.5 26t59.5 13.5q46 0 66 -27q14 -21 14 -67v-973h150v-98h-150v-285h-110v285h-729q-81 0 -113 24q-20 13 -32.5 38.5t-12.5 53.5zM152 410q0 -27 43 -27h733v942q0 6 -8 6q-3 0 -21 -18l-717 -854q-30 -35 -30 -49z" />
<glyph unicode="5" horiz-adv-x="1169" d="M102 0v98h652q63 0 101.5 26.5t55.5 57.5q41 68 41 246q0 129 -39 190q-47 68 -139 68h-387q-145 0 -205 45q-78 58 -78 176v379q0 70 39 109q37 39 109 39h760v-99h-742q-11 0 -25 -5t-18 -11q-12 -15 -12 -59v-312q0 -79 21 -112q14 -22 45 -37t69 -15h422 q46 0 76 -3.5t71.5 -23.5t73.5 -57q25 -30 41.5 -66.5t23 -78.5t8 -70.5t1.5 -70.5q0 -248 -96 -342q-46 -44 -100 -58t-121 -14h-648z" />
<glyph unicode="6" horiz-adv-x="1167" d="M102 391v676q0 208 127 303q83 64 217 64h549v-99h-526q-125 0 -190 -69q-66 -69 -66 -193v-217h477q53 0 88 -3.5t84.5 -23t89.5 -55.5q49 -44 76 -110.5t32 -114.5t5 -113q0 -191 -61 -289q-52 -85 -134 -116t-190 -31h-209q-145 0 -233 59q-42 28 -70.5 66.5t-42 84.5 t-18.5 88t-5 93zM213 365q0 -134 57 -197q62 -70 197 -70h213q145 0 209 82q61 79 61 262q0 34 -1.5 57t-7 59t-20.5 67.5t-38 56.5q-31 33 -75 51t-74 21.5t-70 3.5h-451v-393z" />
<glyph unicode="7" horiz-adv-x="952" d="M-41 1335v99h901q27 0 46.5 -3.5t41.5 -13.5t33.5 -33t11.5 -59q0 -63 -41 -129l-757 -1196h-125l780 1239q24 37 24 64q0 21 -9 26.5t-25 5.5h-881z" />
<glyph unicode="8" horiz-adv-x="1208" d="M102 369q0 217 84 297q49 46 129 57v4q-70 15 -112 68q-66 78 -66 245q0 234 90 320q78 74 269 74h217q190 0 268 -74q90 -86 90 -320q0 -169 -65 -245q-42 -53 -113 -68v-4q80 -11 129 -57q84 -80 84 -297q0 -54 -3 -88.5t-17.5 -81.5t-43.5 -84q-53 -67 -123.5 -91 t-156.5 -24h-316q-86 0 -156.5 24t-123.5 91q-41 54 -52.5 112.5t-11.5 141.5zM217 389q0 -156 49 -219q52 -72 180 -72h316q128 0 180 72q49 63 49 219q0 179 -80 242q-27 21 -70.5 33t-86.5 12h-299q-43 0 -87 -12t-71 -33q-80 -63 -80 -242zM252 1044q0 -138 35 -192 q51 -78 192 -78h250q142 0 193 78q34 53 34 192q0 187 -71 248q-24 20 -58.5 30t-57.5 11.5t-62 1.5h-205q-39 0 -62 -1.5t-57.5 -11.5t-58.5 -30q-72 -62 -72 -248z" />
<glyph unicode="9" horiz-adv-x="1167" d="M102 1010q0 247 115 346q56 48 127 63t162 15h158q249 0 340 -131q61 -90 61 -250v-586q0 -201 -49 -299q-85 -168 -318 -168h-512v98h473q158 0 226 70q69 74 69 260v166h-528q-152 0 -238 100q-52 59 -69 137.5t-17 178.5zM217 1012q0 -186 72 -258q28 -28 71 -43 t72.5 -17t77.5 -2h444v359q0 148 -65 215q-67 69 -205 69h-203q-126 0 -190 -71q-74 -80 -74 -252z" />
<glyph unicode=":" horiz-adv-x="368" d="M123 0v166h123v-166h-123zM123 920v165h123v-165h-123z" />
<glyph unicode=";" horiz-adv-x="417" d="M0 -117l197 330l98 -59l-197 -330zM172 920v165h123v-165h-123z" />
<glyph unicode="&#x3c;" horiz-adv-x="1161" d="M143 678l875 440v-110l-678 -330l678 -330v-110z" />
<glyph unicode="=" horiz-adv-x="1159" d="M143 475v98h873v-98h-873zM143 696v99h873v-99h-873z" />
<glyph unicode="&#x3e;" horiz-adv-x="1161" d="M143 238v110l678 330l-678 330v110l875 -440z" />
<glyph unicode="?" horiz-adv-x="894" d="M20 1335v99h474q75 0 130.5 -16t104.5 -66q84 -86 84 -265q0 -75 -14 -130t-43.5 -93.5t-58 -61.5t-74.5 -50l-201 -119q-48 -26 -70 -60q-22 -37 -22 -73v-176h-111v155q0 93 39 148q31 46 119 98l188 111q80 48 106.5 101.5t26.5 135.5q0 144 -49 201q-50 61 -170 61 h-459zM219 0v158h111v-158h-111z" />
<glyph unicode="@" horiz-adv-x="1992" d="M123 586q0 126 3.5 201t16 160.5t41 150.5t74.5 123q55 69 124.5 114t149.5 65.5t147.5 27t156.5 6.5h370q43 0 72 -1t80 -6t89 -14.5t88 -28.5t89 -45t79.5 -67.5t70.5 -93.5q61 -105 78.5 -225t17.5 -291q0 -153 -12.5 -257.5t-49.5 -181.5q-44 -90 -110 -126t-164 -36 q-17 0 -35.5 2t-52.5 12t-60.5 28t-52.5 54.5t-37 86.5q-105 -183 -366 -183q-234 0 -328 168q-28 51 -42.5 118.5t-16.5 108t-2 107.5q0 214 55 326q29 56 70.5 96t88.5 59.5t90 28t89 8.5h266q47 0 78 -7.5t59 -35.5q11 -11 18.5 -23t11 -21t5.5 -23t2.5 -20.5t0 -23 t-0.5 -20.5v-483v-40.5t3 -45.5t8.5 -52t18 -47t30 -43t45.5 -26.5t63 -11.5q133 0 184 145q18 49 23.5 127t5.5 250q0 143 -14 244t-51 178q-30 61 -73.5 105.5t-88.5 69t-102.5 38.5t-104 18t-104.5 4h-392q-45 0 -81 -2t-86 -9t-90.5 -19t-86 -34.5t-80.5 -53.5 t-66.5 -78t-51.5 -105q-45 -133 -45 -448q0 -310 41 -453q22 -77 61 -137t87 -95.5t95.5 -59t101.5 -33.5t89.5 -13.5t74.5 -3.5h594v-96h-620q-345 0 -504 221q-80 111 -107.5 270t-27.5 398zM655 567q0 -166 25 -250q18 -52 45 -85.5t63.5 -48.5t69 -20t78.5 -5 q39 0 69.5 3.5t67.5 14t69 35t58 61.5q68 97 68 283v363q0 29 -17 49q-18 20 -65 20h-211q-43 0 -74.5 -3.5t-71 -15t-71 -38t-53.5 -68.5q-50 -95 -50 -295z" />
<glyph unicode="A" horiz-adv-x="1376" d="M-20 0l548 1298q30 72 66 112t94 40t93.5 -40t66.5 -112l549 -1298h-119l-174 418h-832l-174 -418h-118zM315 516h746l-313 750q-1 1 -4.5 10t-5 12t-5 11.5t-6 12.5t-6.5 11t-7.5 10.5l-7.5 7.5t-8.5 5.5t-9.5 1.5q-6 0 -11.5 -2.5t-11 -9t-9 -11t-8.5 -15t-7 -15 t-6.5 -16.5t-5.5 -13z" />
<glyph unicode="B" d="M143 184v1061q0 89 41 139q43 50 127 50h662q139 0 215 -80q90 -92 90 -307q0 -78 -12.5 -136t-48.5 -106q-52 -67 -132 -76v-8q93 -10 148 -78q22 -26 35 -55.5t17.5 -69t5.5 -61t1 -70.5q0 -55 -1.5 -80.5t-8.5 -70.5t-26 -81t-50 -71q-47 -52 -93.5 -68t-111.5 -16 h-632q-4 0 -23 -0.5t-27 0t-26 1.5t-29.5 4.5t-26.5 8.5t-27.5 13.5t-23.5 19.5q-43 45 -43 137zM254 209q0 -71 14 -88q18 -23 94 -23h572q43 0 67 1.5t64 18t63 48.5q46 61 46 219q0 156 -37 211q-21 32 -63 54t-85 22h-735v-463zM254 770h672q139 0 188 64q45 57 45 227 q0 166 -65 231q-21 20 -48.5 30t-44.5 11.5t-45 1.5h-620q-48 0 -62 -16q-20 -20 -20 -66v-483z" />
<glyph unicode="C" horiz-adv-x="1308" d="M102 696q0 86 5 152t19.5 144.5t47 146t82.5 121.5q67 73 176.5 123.5t263.5 50.5h549v-99h-502q-287 0 -415 -166q-46 -59 -71 -147t-30.5 -159t-5.5 -169q0 -61 2 -99t9.5 -102t28.5 -119.5t54 -101.5q125 -174 398 -174h555v-98h-578q-266 0 -428 162 q-89 89 -124.5 216t-35.5 318z" />
<glyph unicode="D" horiz-adv-x="1490" d="M143 158v1071q0 99 50 151q52 54 135 54h487q248 0 412 -166q45 -45 76.5 -101t48 -105t25.5 -112.5t10.5 -105.5t1.5 -103q0 -76 -4.5 -139t-18 -143.5t-44 -154t-77.5 -132.5q-135 -172 -393 -172h-508q-106 0 -149 35q-52 40 -52 123zM254 188q0 -59 14 -73 q17 -17 66 -17h514q242 0 344 191q78 149 78 461q0 141 -21.5 244t-89.5 188q-59 74 -147.5 113.5t-190.5 39.5h-483q-39 0 -57 -14q-27 -23 -27 -64v-1069z" />
<glyph unicode="E" horiz-adv-x="1269" d="M143 199v1044q0 88 41 137q28 33 64 43.5t86 10.5h846v-99h-830q-51 0 -74 -20q-22 -17 -22 -72v-461h905v-98h-905v-510q0 -40 20 -57q10 -8 40.5 -13.5t52.5 -5.5h821v-98h-850q-36 0 -53 1t-46.5 11t-50.5 31q-29 29 -37 66.5t-8 89.5z" />
<glyph unicode="F" horiz-adv-x="1175" d="M143 0v1288q0 64 39 103q26 28 56 35.5t73 7.5h824v-99h-832q-27 0 -37 -12q-12 -14 -12 -45v-500h643v-98h-643v-680h-111z" />
<glyph unicode="G" horiz-adv-x="1441" d="M102 709q0 69 3 123.5t12 120t27 119.5t45 107t70 97.5t99 77.5q134 80 334 80h615v-99h-645q-129 0 -227.5 -59t-147.5 -156q-66 -133 -66 -403t64 -412q42 -90 126.5 -148.5t202.5 -58.5h529q49 0 67 23q19 22 19 67v469h110v-497q0 -84 -39 -121q-39 -39 -129 -39 h-555q-184 0 -313 104q-66 52 -108.5 125t-61.5 160t-25 157.5t-6 162.5z" />
<glyph unicode="H" horiz-adv-x="1437" d="M143 0v1434h111v-656h930v656h110v-1434h-110v680h-930v-680h-111z" />
<glyph unicode="I" horiz-adv-x="397" d="M143 0v1434h111v-1434h-111z" />
<glyph unicode="J" horiz-adv-x="802" d="M-41 0v98h262q146 0 234 84q94 92 94 297v955h110v-953q0 -234 -110 -350q-126 -131 -305 -131h-285z" />
<glyph unicode="K" horiz-adv-x="1282" d="M143 0v1434h111v-1434h-111zM334 737q0 39 30.5 81.5t71.5 74.5l672 541h160l-733 -594q-2 -1 -11.5 -8t-14 -10.5t-14.5 -12t-15.5 -14l-13.5 -13.5t-12 -15t-7 -15.5t-3 -16.5q0 -42 99 -118q2 -3 4 -4.5t4 -2.5l792 -610h-165l-719 555q-57 44 -91 92t-34 90z" />
<glyph unicode="L" horiz-adv-x="1112" d="M143 131v1303h111v-1266q0 -37 16 -53q19 -17 62 -17h821v-98h-854q-80 0 -117 31q-39 32 -39 100z" />
<glyph unicode="M" horiz-adv-x="1908" d="M143 0v1315q0 59 37.5 97t98.5 38q57 0 90.5 -34t64.5 -107l486 -1168q1 -2 2.5 -6.5t2.5 -7l3 -7.5t3.5 -7.5t4.5 -6t5.5 -5.5t5.5 -3.5t7 -1.5q3 0 6 1t6 3t5 4t4 6t3.5 5.5t3.5 6.5t2.5 6.5l2.5 7.5l2 5l486 1168q31 73 64.5 107t90.5 34q61 0 98 -38t37 -97v-1315 h-110v1315q0 19 -9.5 28t-19.5 9q-9 0 -21.5 -14t-17.5 -27l-487 -1172q-33 -78 -64 -116.5t-82 -38.5q-50 0 -81 38t-64 117l-487 1172q-5 13 -17.5 27t-21.5 14q-10 0 -19.5 -9t-9.5 -28v-1315h-111z" />
<glyph unicode="N" horiz-adv-x="1499" d="M143 0v1305q0 40 12.5 69.5t28 43.5t37.5 22t33.5 9t24.5 1q37 0 65 -15.5t42 -32.5t34 -48l754 -1217q1 -1 4 -6t4 -6.5l4 -6t5 -6t5.5 -4.5t6.5 -4.5t7 -2.5t9 -1q12 0 18.5 7.5t7 13t0.5 16.5v1297h111v-1291q0 -73 -33.5 -116t-97.5 -43q-48 0 -78.5 23t-65.5 81 l-749 1210q-20 35 -47 35q-5 0 -11 -2.5t-13 -12.5t-7 -26v-1292h-111z" />
<glyph unicode="O" horiz-adv-x="1593" d="M102 717q0 81 4.5 141t19.5 145t52 159.5t94 131.5q52 52 118.5 86t142.5 48t132 18t132 4q59 0 103 -2t107 -11t113 -24.5t104.5 -46t96.5 -72.5q57 -57 94 -131.5t52 -159.5t19.5 -145t4.5 -141t-4.5 -141.5t-19.5 -145.5t-52 -159.5t-94 -131.5q-52 -52 -118 -85.5 t-142 -47.5t-132 -18t-132 -4t-132 4t-132 18t-142.5 47.5t-118.5 85.5q-57 57 -94 131.5t-52 159.5t-19.5 145.5t-4.5 141.5zM221 717q0 -80 3 -132.5t13.5 -125.5t37.5 -133t69 -107q44 -48 100 -78.5t125.5 -42t112.5 -14t115 -2.5q57 0 89.5 1t91.5 8t100 20.5t88.5 41 t82.5 66.5q42 47 69 107t37.5 133t13.5 125.5t3 132.5t-3 132.5t-13.5 125t-37.5 132.5t-69 107q-44 48 -100 78.5t-124.5 42t-112.5 14.5t-115 3t-115 -3t-113 -14.5t-125 -42t-100 -78.5q-42 -47 -69 -107t-37.5 -132.5t-13.5 -125t-3 -132.5z" />
<glyph unicode="P" d="M143 0v1264q0 94 39 131q41 39 137 39h592q58 0 95.5 -3.5t88.5 -21t89 -51.5q60 -51 84 -136t24 -229q0 -255 -118 -346q-77 -61 -193 -61h-727v-586h-111zM254 684h664q143 0 200 66q56 67 56 272q0 182 -60 248q-57 65 -192 65h-586q-30 0 -47.5 -6t-24.5 -20.5 t-8.5 -26t-1.5 -35.5v-563z" />
<glyph unicode="Q" horiz-adv-x="1599" d="M102 717q0 81 4.5 141t19.5 145t52 159.5t94 131.5q52 52 118.5 86t142.5 48t132 18t132 4q61 0 105.5 -2t108 -11t113 -24.5t104 -46t97.5 -72.5q78 -78 122 -211t44 -366q0 -330 -90 -479q-54 -87 -137 -134v-6h241v-98h-706q-58 0 -98.5 1.5t-107 9t-117 21t-107 41 t-97.5 66.5q-57 55 -94 130.5t-52 162.5t-19.5 147.5t-4.5 137.5zM221 717q0 -74 3 -126t13.5 -128t37.5 -138.5t69 -105.5q51 -53 134.5 -81.5t151.5 -34t167 -5.5q98 0 166 5.5t151.5 34t134.5 81.5q42 44 69 105.5t37.5 136.5t13.5 127.5t3 128.5q0 81 -3 133 t-13.5 124.5t-37.5 132t-69 107.5q-41 46 -93 75.5t-115.5 42t-115.5 16.5t-128 4t-128 -4t-116 -16.5t-116 -42t-93 -75.5q-42 -48 -69 -107.5t-37.5 -132t-13.5 -124.5t-3 -133z" />
<glyph unicode="R" horiz-adv-x="1435" d="M143 0v1214q0 38 2.5 61.5t16.5 54t41 54.5q57 50 155 50h605q191 0 272 -123q63 -96 63 -307q0 -199 -63 -299q-79 -125 -256 -125h-317v-11l671 -569h-162l-632 541q-3 2 -8 7q-21 18 -26 26t-5 24v33q0 23 13.5 35t35.5 12h444q50 0 89 24t59 56q39 66 39 254 q0 40 -1 63t-6.5 69t-21 81.5t-39.5 58.5q-55 51 -170 51h-586q-49 0 -73 -22q-29 -27 -29 -74v-1239h-111z" />
<glyph unicode="S" horiz-adv-x="1323" d="M102 1114q0 166 97 248q84 72 227 72h727v-99h-739q-41 0 -83 -14.5t-67 -40.5q-43 -47 -43 -170q0 -41 4 -68t17.5 -59.5t44.5 -57t80 -42.5l557 -197q80 -29 128 -51.5t81 -54.5q88 -83 88 -232q0 -165 -70 -254q-24 -31 -52.5 -51t-60.5 -28.5t-57.5 -11.5t-58.5 -3 h-797v98h809q168 0 168 246q0 40 -6 69.5t-23.5 62t-55 58.5t-95.5 46l-572 196q-119 41 -176 107q-72 83 -72 231z" />
<glyph unicode="T" horiz-adv-x="1228" d="M-41 1335v99h1311v-99h-600v-1335h-111v1335h-600z" />
<glyph unicode="U" horiz-adv-x="1384" d="M143 446v988h111v-949q0 -44 1.5 -73t8 -71.5t22.5 -79t42 -66.5q41 -49 108 -75.5t122 -32t134 -5.5t134.5 5.5t122.5 32t108 75.5q33 39 50.5 96t20 95t2.5 99v949h111v-988q0 -203 -102 -317q-132 -145 -447 -145q-314 0 -446 145q-103 115 -103 317z" />
<glyph unicode="V" horiz-adv-x="1245" d="M-41 1434h125l504 -1309q11 -31 35 -31q23 0 34 31l504 1309h125l-538 -1356q-13 -35 -45.5 -64.5t-79.5 -29.5q-11 0 -23 2.5t-32 10.5t-39 29t-31 52z" />
<glyph unicode="W" horiz-adv-x="1843" d="M-41 1434h113l323 -1299q7 -45 35 -45q11 0 23 11t16 26l307 1184q37 139 146 139q108 0 145 -139l307 -1184q4 -15 16 -26t23 -11q27 0 35 45l324 1299h112l-340 -1330q-32 -120 -135 -120q-35 0 -61 11.5t-42 32.5t-24.5 40.5t-15.5 46.5l-312 1177q-8 41 -32 41 q-25 0 -33 -41l-311 -1177q-7 -26 -16 -46t-25 -41t-42 -32.5t-61 -11.5q-103 0 -135 120z" />
<glyph unicode="X" horiz-adv-x="1146" d="M-41 0l555 727l-539 707h131l467 -627l467 627h131l-538 -707l555 -727h-131l-484 647l-483 -647h-131z" />
<glyph unicode="Y" horiz-adv-x="1216" d="M-41 1434h123l526 -863l527 863h122l-593 -963v-471h-111v471z" />
<glyph unicode="Z" horiz-adv-x="1183" d="M20 115q0 54 50 108l952 1028q7 7 14.5 26t7.5 28q0 30 -36 30h-938v99h964q55 0 92 -30t37 -81q0 -60 -49 -113l-956 -1044q-19 -23 -19 -43q0 -25 23 -25h973v-98h-967q-45 0 -76.5 12.5t-45.5 32t-20 36.5t-6 34z" />
<glyph unicode="[" horiz-adv-x="663" d="M143 -315v1757h459v-94h-356v-1569h356v-94h-459z" />
<glyph unicode="\" horiz-adv-x="958" d="M-20 1516h102l897 -1850h-102z" />
<glyph unicode="]" horiz-adv-x="663" d="M61 -221h357v1569h-357v94h459v-1757h-459v94z" />
<glyph unicode="^" horiz-adv-x="925" d="M61 1124l322 275q39 35 80 35t80 -35l321 -275l-57 -71l-301 264q-23 18 -43 18q-21 0 -43 -18l-301 -264z" />
<glyph unicode="_" horiz-adv-x="1212" d="M102 0v119h1008v-119h-1008z" />
<glyph unicode="`" horiz-adv-x="438" d="M61 1352l64 80l252 -205l-64 -80z" />
<glyph unicode="a" horiz-adv-x="1034" d="M61 336q0 179 91 256q69 57 202 57h471v162q0 29 -11 67.5t-30 61.5q-42 49 -114 49h-527v96h533q56 0 107 -20t83 -55q66 -71 66 -217v-650q0 -77 -37 -112q-33 -31 -123 -31h-418q-40 0 -66.5 2t-64.5 13.5t-65 33.5q-97 80 -97 287zM176 332q0 -137 43 -189 q40 -47 107 -47h438q32 0 47 13q14 12 14 36v408h-495q-43 0 -74 -16t-45 -37q-35 -45 -35 -168z" />
<glyph unicode="b" horiz-adv-x="1056" d="M102 170v1264h107v-349h340q267 0 373 -178q32 -54 49.5 -128t20.5 -125t3 -126q0 -65 -3 -111.5t-20 -116.5t-48 -122q-33 -56 -79 -94t-98 -55t-96 -23t-96 -6h-233q-126 0 -168 33q-52 41 -52 137zM209 180q0 -49 12 -65q17 -19 64 -19h247q41 0 73.5 4t79.5 16.5 t86 44t65 79.5q45 83 45 258q0 237 -43 336q-22 49 -57 82t-78.5 48t-80 20t-81.5 5h-332v-809z" />
<glyph unicode="c" horiz-adv-x="974" d="M61 528q0 68 3.5 116.5t14.5 111t37.5 115t67.5 94.5q120 120 338 120h367v-96h-379q-126 0 -206.5 -60t-106.5 -161q-9 -40 -15 -122t-6 -132q0 -65 9.5 -139.5t27.5 -116.5q71 -162 319 -162h381v-96h-434q-205 0 -319 137q-60 71 -79.5 162.5t-19.5 228.5z" />
<glyph unicode="d" horiz-adv-x="1050" d="M61 571q0 112 15.5 195t66.5 158q35 51 80.5 85t97 49.5t95 21t96.5 5.5h330v349h106v-1276q0 -81 -28 -119q-33 -39 -119 -39h-338q-262 0 -352 219q-50 121 -50 352zM176 555q0 -201 31 -291q62 -168 280 -168h273q48 0 65 17q17 20 17 75v801h-355q-185 0 -258 -123 q-53 -87 -53 -311z" />
<glyph unicode="e" horiz-adv-x="1058" d="M61 539q0 70 4 120.5t17 115.5t44.5 119t80.5 95q115 96 340 96q171 0 276 -61q174 -109 174 -344q0 -102 -45 -141q-38 -33 -114 -33h-662q-1 -20 -1 -40q0 -111 20 -181q22 -77 82.5 -133t158.5 -56h533v-96h-533q-185 0 -286 133q-57 74 -73 166.5t-16 239.5zM176 602 h662q45 0 45 72q0 135 -74 221q-28 33 -61.5 53.5t-74.5 28.5t-69.5 10t-75.5 2q-41 0 -66.5 -1.5t-63.5 -8.5t-64.5 -20t-55.5 -38.5t-51 -62.5q-30 -50 -39.5 -107t-11.5 -149z" />
<glyph unicode="f" horiz-adv-x="542" d="M20 989v96h142v13q0 64 17 130q19 72 69 122q54 54 140 76q80 20 160 20h15v-96q-162 0 -225 -56q-37 -33 -54 -92q-16 -53 -16 -105v-12h293v-96h-293v-989h-106v989h-142z" />
<glyph unicode="g" horiz-adv-x="1107" d="M61 569q0 142 25 237.5t96 168.5q63 65 138 87.5t186 22.5h270q115 0 166 -38q64 -48 64 -152v-770q0 -250 -88 -352q-34 -39 -83 -65.5t-102 -37t-89 -14.5t-71 -4h-434v96h434q168 0 244 68q36 32 57.5 83t24.5 101h-420q-43 0 -72.5 2t-70 9.5t-70.5 22t-62 42 t-57 65.5q-86 134 -86 428zM176 549q0 -281 82 -383q15 -18 32 -31t40 -20t35.5 -11.5t41 -6t33 -1.5h33.5h426v805q0 51 -31 72q-26 16 -65 16h-336q-129 0 -201 -76q-39 -41 -60.5 -110.5t-25.5 -124t-4 -129.5z" />
<glyph unicode="h" horiz-adv-x="1054" d="M102 0v1434h107v-349h397q170 0 252 -77q94 -89 94 -287v-721h-106v733q0 129 -53 191q-34 40 -77.5 52.5t-99.5 12.5h-407v-989h-107z" />
<glyph unicode="i" horiz-adv-x="319" d="M102 1282v152h115v-152h-115zM106 0v1085h107v-1085h-107z" />
<glyph unicode="j" horiz-adv-x="528" d="M-20 -268q23 -1 43 -1q69 0 111 11q55 13 97 47q44 35 64 81t20 132v1083h107v-1103q0 -184 -123 -279q-93 -72 -244 -72q-36 0 -75 4v97zM311 1282v152h115v-152h-115z" />
<glyph unicode="k" horiz-adv-x="940" d="M102 0v1434h107v-1434h-107zM289 561q0 42 21.5 78t64.5 78l393 368h143l-471 -442q-37 -37 -37 -78q0 -48 58 -102l500 -463h-148l-440 406q-84 77 -84 155z" />
<glyph unicode="l" horiz-adv-x="311" d="M102 0v1434h107v-1434h-107z" />
<glyph unicode="m" horiz-adv-x="1671" d="M102 0v903q0 79 25 123q39 59 123 59h1007q153 0 228 -67q84 -73 84 -246v-772h-107v780q0 106 -45 156q-49 53 -162 53h-366v-989h-107v989h-508q-37 0 -53 -18q-12 -14 -12 -58v-913h-107z" />
<glyph unicode="n" horiz-adv-x="1060" d="M102 0v944q0 68 25 100q32 41 106 41h390q85 0 145 -16.5t106 -62.5q84 -84 84 -252v-754h-106v727q0 72 -10 116.5t-37 78.5q-31 39 -73.5 53t-102.5 14h-385q-23 0 -29 -8t-6 -33v-948h-107z" />
<glyph unicode="o" horiz-adv-x="1196" d="M61 549q0 296 136 430q72 70 173 94.5t228 24.5t228 -24.5t173 -94.5q136 -134 136 -430q0 -302 -136 -438q-125 -123 -401 -123t-401 123q-136 136 -136 438zM176 539q0 -52 1.5 -82t8.5 -86.5t26.5 -102.5t51.5 -80q58 -63 142.5 -83.5t191.5 -20.5t191.5 20.5 t142.5 83.5q32 34 51.5 80t26.5 102.5t8.5 86.5t1.5 82t-1.5 86t-8.5 91t-26.5 104t-49.5 81q-91 100 -336 100t-336 -100q-30 -34 -49.5 -81t-26.5 -104t-8.5 -91t-1.5 -86z" />
<glyph unicode="p" horiz-adv-x="1048" d="M102 -348v1298q0 64 52 103q42 32 120 32h275q209 0 323 -124q39 -42 64 -91.5t35.5 -107.5t13 -99.5t2.5 -103.5q0 -127 -16.5 -221.5t-69.5 -175.5q-61 -92 -152.5 -127t-232.5 -35h-307v-348h-107zM209 96h350q77 0 144.5 31t107.5 92q61 95 61 326q0 202 -38 286 q-36 80 -108.5 119t-154.5 39h-313q-14 0 -33 -14q-16 -14 -16 -39v-840z" />
<glyph unicode="q" horiz-adv-x="1058" d="M61 530q0 306 111 439q96 116 287 116h344q86 0 127 -53q5 -7 9.5 -15.5t7 -14.5t4.5 -17t3 -15.5t1.5 -17.5t0.5 -15.5v-17.5v-16v-1251h-106v348h-410q-201 0 -297 143q-82 124 -82 387zM176 541q0 -154 25 -254q5 -20 12 -38.5t26.5 -48.5t45 -51t70.5 -37t100 -16 h395v828q0 33 -23 51q-18 14 -57 14h-287q-104 0 -170 -36.5t-100 -125.5q-37 -95 -37 -286z" />
<glyph unicode="r" horiz-adv-x="518" d="M102 0v713q0 94 20 162t77 122q92 88 266 88h74v-96h-66q-145 0 -209 -76q-55 -67 -55 -225v-688h-107z" />
<glyph unicode="s" horiz-adv-x="1032" d="M61 815q0 106 56 176q46 60 107 77t155 17h520v-96h-563q-84 0 -121 -37q-39 -39 -39 -129q0 -96 45 -141q43 -43 187 -74l196 -45q167 -40 218 -61q42 -18 71 -41q47 -36 62.5 -81t15.5 -108q0 -166 -94 -231q-59 -41 -170 -41h-627v96h622q92 0 127 51q27 41 27 125 q0 72 -41 113q-25 23 -75 39t-181 47l-188 43q-183 43 -250 121q-60 68 -60 180z" />
<glyph unicode="t" horiz-adv-x="567" d="M20 989v96h150v349h106v-349h299v-96h-299v-602q0 -126 9 -169q14 -68 53 -95q42 -27 192 -27h58v-96h-82q-117 0 -162 10q-61 14 -100 53q-46 45 -60 115.5t-14 186.5v624h-150z" />
<glyph unicode="u" horiz-adv-x="1069" d="M102 328v757h107v-725q0 -138 43 -192q32 -43 84.5 -57.5t130.5 -14.5h301q49 0 72 23q20 20 20 67v899h107v-913q0 -96 -52 -139q-19 -15 -49.5 -23t-52 -9t-61.5 -1h-295q-95 0 -155 15t-109 59q-40 36 -61.5 87t-25.5 85.5t-4 81.5z" />
<glyph unicode="v" horiz-adv-x="937" d="M-20 1085h108l350 -946q19 -45 31 -45t31 45l350 946h108l-376 -1003q-35 -94 -113 -94t-113 94z" />
<glyph unicode="w" horiz-adv-x="1404" d="M-20 1085h106l244 -958q9 -33 22 -33q11 0 21 31l231 883q24 90 98 90q75 0 99 -90l231 -883q10 -31 21 -31q13 0 22 33l244 958h106l-266 -1007q-23 -90 -104 -90q-87 0 -111 92l-225 848q-6 37 -17 37q-10 0 -16 -37l-225 -848q-24 -92 -111 -92q-81 0 -104 90z" />
<glyph unicode="x" horiz-adv-x="880" d="M-20 0l403 557l-385 528h125l317 -448l318 448h125l-383 -528l401 -557h-129l-332 477l-331 -477h-129z" />
<glyph unicode="y" horiz-adv-x="1017" d="M-20 1085h114l402 -952l428 952h114l-649 -1435h-115l164 356z" />
<glyph unicode="z" horiz-adv-x="903" d="M41 92q0 55 53 113l627 735q2 3 6.5 7t7 7t4.5 7.5t2 9.5q0 18 -24 18h-645v96h694q41 0 65.5 -27t24.5 -61q0 -19 -9.5 -46t-21.5 -42l-653 -774q-16 -21 -16 -29q0 -10 15 -10h3h688v-96h-688q-133 0 -133 92z" />
<glyph unicode="{" horiz-adv-x="606" d="M102 543v78q45 3 76 30t31 76v260q0 68 6 137q17 183 156 271q79 50 174 47v-94q-83 5 -142 -43q-32 -25 -52 -59.5t-28 -75t-10 -67t-2 -63.5v-282q0 -24 -0.5 -39t-5 -37.5t-12.5 -38t-24 -30.5t-38 -23v-17q28 -10 45.5 -28.5t24 -44.5t8.5 -45t2 -49v-283 q0 -37 2 -63.5t10 -66.5t28 -74.5t52 -59.5q59 -48 142 -43v-95q-94 -3 -174 48q-139 88 -156 270q-6 69 -6 137v260q0 49 -31 76.5t-76 30.5z" />
<glyph unicode="|" horiz-adv-x="307" d="M102 -334v1850h103v-1850h-103z" />
<glyph unicode="}" horiz-adv-x="606" d="M61 -184q83 -5 142 43q32 25 52 59.5t28 74.5t10 66.5t2 63.5v283q0 30 2 49t8.5 45t24 44.5t45.5 28.5v17q-28 10 -45.5 28.5t-24 45t-8.5 45.5t-2 49v282q0 37 -2 63.5t-10 67t-28 75t-52 59.5q-59 48 -142 43v94q96 3 175 -47q137 -87 155 -271q6 -69 6 -137v-260 q0 -49 31 -76t76 -30v-78q-45 -3 -76 -30.5t-31 -76.5v-260q0 -68 -6 -137q-17 -183 -155 -270q-80 -51 -175 -48v95z" />
<glyph unicode="~" horiz-adv-x="1091" d="M61 649q52 73 121 121q74 51 168 51q80 0 152 -41l110 -65q83 -45 140 -45q65 0 118 43q50 38 88 102l72 -63q-51 -77 -119 -127q-77 -54 -170 -54q-75 0 -151 43l-92 54q-2 1 -15.5 8.5t-17.5 10t-17 9t-19.5 9t-18.5 7t-21.5 6.5t-21.5 3.5t-23 1.5q-50 0 -100 -29 q-63 -35 -111 -110z" />
<glyph unicode="&#xa9;" horiz-adv-x="1708" d="M102 719q0 73 4.5 134.5t20.5 137.5t42.5 137t75 121t113.5 101q158 100 496 100t496 -100q65 -41 113.5 -101t75 -121t42.5 -137t20.5 -137.5t4.5 -134.5q0 -66 -4 -121.5t-13.5 -117.5t-28 -115t-46 -104.5t-69 -95.5t-95.5 -79q-99 -65 -215 -83.5t-281 -18.5 t-281 18.5t-215 83.5q-54 35 -95.5 79t-69 95.5t-46 104.5t-28 115t-13.5 117.5t-4 121.5zM221 719q0 -57 2.5 -102.5t13.5 -113.5t30 -121.5t56.5 -109.5t88.5 -94q45 -33 102.5 -53.5t123 -29t110.5 -11t106 -2.5t106 2.5t110.5 11t123 29t102.5 53.5q51 38 88.5 94 t56.5 109.5t30 121.5t13.5 113.5t2.5 102.5q0 81 -7 148t-26 142.5t-59 138t-99 105.5q-18 14 -44.5 27t-78 31t-134.5 29.5t-185 11.5t-185 -11.5t-134.5 -29.5t-78 -31t-44.5 -27q-59 -43 -99 -105.5t-59 -138t-26 -142.5t-7 -148zM430 715q0 57 3 98t20 98t49 99 q92 120 278 120h361v-98h-361q-125 0 -188 -106q-43 -76 -43 -238q0 -120 37 -190q30 -55 74 -75t104 -20h401v-98h-407q-80 0 -143.5 26t-114.5 97q-43 60 -56.5 125.5t-13.5 161.5z" />
<glyph unicode="&#xab;" horiz-adv-x="815" d="M102 575q0 43 31 91l268 393l88 -60l-253 -366q-23 -37 -23 -58q0 -20 23 -57l253 -366l-88 -60l-268 393q-31 48 -31 90zM403 575q0 35 37 91l187 272l86 -59l-166 -238q-33 -44 -33 -66q0 -19 33 -65l166 -238l-86 -59l-187 272q-37 55 -37 90z" />
<glyph unicode="&#xad;" horiz-adv-x="819" d="M102 496v118h615v-118h-615z" />
<glyph unicode="&#xae;" horiz-adv-x="1118" d="M102 1014q0 73 7 128t36 119t80 107q19 16 41.5 28.5t40.5 21t45.5 14l42.5 8.5t45.5 4.5t40.5 1.5h42h36h36h42t40.5 -1.5t45.5 -4.5l42.5 -8.5t45.5 -14t40.5 -21t41.5 -28.5q51 -43 80 -107t36 -119t7 -128t-7 -128t-36 -119.5t-80 -107.5q-22 -18 -45 -32t-52 -22 t-47 -13t-53.5 -7t-46 -3t-49.5 -0.5t-41 0.5t-41 -0.5t-49.5 0.5t-46 3t-53.5 7t-47 13t-52 22t-45 32q-51 43 -80 107.5t-36 119.5t-7 128zM184 1014q0 -175 62 -260q12 -17 26.5 -30.5t27 -23.5t31 -18t30.5 -13t34 -8.5t32 -5.5t34.5 -3t32 -1h34h31.5h31.5h34t32 1 t34.5 3t32 5.5t34 8.5t30.5 13t31 18t27 23.5t26.5 30.5q62 85 62 260t-62 260q-13 18 -28 33t-33.5 25.5t-32 18t-37 12.5t-35 8t-39 4t-35.5 1h-38.5h-34.5h-34.5h-38.5t-35.5 -1t-39 -4t-35 -8t-37 -12.5t-32 -18t-33.5 -25.5t-28 -33q-62 -85 -62 -260zM344 764v428 q0 35 14 49q21 21 74 21h203q68 0 96 -21q47 -36 47 -139q0 -150 -108 -150h-52l187 -188h-111l-166 168q-10 10 -13 13.5t-7 13.5t-4 24q0 37 43 37h71q47 0 58 8q16 12 16 33v72q0 21 -12 36q-16 21 -53 21h-166q-21 0 -29 -4q-6 -4 -6 -33v-389h-82z" />
<glyph unicode="&#xbb;" horiz-adv-x="815" d="M102 272l166 238q33 46 33 65q0 22 -33 66l-166 238l86 59l187 -272q37 -56 37 -91t-37 -90l-187 -272zM326 152l254 366q22 35 22 57q0 23 -22 58l-254 366l88 60l268 -393q31 -48 31 -91q0 -42 -31 -90l-268 -393z" />
<glyph unicode="&#x401;" horiz-adv-x="1269" d="M143 199v1044q0 88 41 137q28 33 64 43.5t86 10.5h846v-99h-830q-51 0 -74 -20q-22 -17 -22 -72v-461h905v-98h-905v-510q0 -40 20 -57q10 -8 40.5 -13.5t52.5 -5.5h821v-98h-850q-36 0 -53 1t-46.5 11t-50.5 31q-29 29 -37 66.5t-8 89.5zM424 1612v160h111v-160h-111z M831 1612v160h111v-160h-111z" />
<glyph unicode="&#x404;" horiz-adv-x="1343" d="M102 729q0 66 2.5 116t12 116.5t27 118.5t49.5 107.5t77 98.5q154 148 430 148h521v-99h-570q-95 0 -180 -39t-143 -110q-115 -143 -107 -406h971v-98h-971q-2 -73 2.5 -131t18.5 -123.5t46 -122t81 -100.5q120 -107 311 -107h561v-98h-541q-252 0 -407 129 q-109 91 -150 232.5t-41 367.5z" />
<glyph unicode="&#x406;" horiz-adv-x="397" d="M143 0v1434h111v-1434h-111z" />
<glyph unicode="&#x407;" horiz-adv-x="450" d="M61 1561v161h111v-161h-111zM170 0v1434h111v-1434h-111zM279 1561v161h110v-161h-110z" />
<glyph unicode="&#x410;" horiz-adv-x="1376" d="M-20 0l548 1298q30 72 66 112t94 40t93.5 -40t66.5 -112l549 -1298h-119l-174 418h-832l-174 -418h-118zM315 516h746l-313 750q-1 1 -4.5 10t-5 12t-5 11.5t-6 12.5t-6.5 11t-7.5 10.5l-7.5 7.5t-8.5 5.5t-9.5 1.5q-6 0 -11.5 -2.5t-11 -9t-9 -11t-8.5 -15t-7 -15 t-6.5 -16.5t-5.5 -13z" />
<glyph unicode="&#x411;" d="M143 180v1063q0 98 41 143q43 48 129 48h912v-99h-867q-60 0 -79 -16q-25 -22 -25 -74v-475h729q75 0 136.5 -20t107.5 -80q65 -88 65 -287q0 -206 -80 -297q-75 -86 -225 -86h-676q-103 0 -141 53q-27 36 -27 127zM254 217q0 -68 12 -88q11 -15 33 -22.5t35 -8t45 -0.5 h567q34 0 56 2t55 15t57 37q60 63 60 239q0 165 -60 230q-24 24 -57.5 36.5t-53 13.5t-57.5 1h-692v-455z" />
<glyph unicode="&#x412;" d="M143 184v1061q0 89 41 139q43 50 127 50h662q139 0 215 -80q90 -92 90 -307q0 -78 -12.5 -136t-48.5 -106q-52 -67 -132 -76v-8q93 -10 148 -78q22 -26 35 -55.5t17.5 -69t5.5 -61t1 -70.5q0 -55 -1.5 -80.5t-8.5 -70.5t-26 -81t-50 -71q-47 -52 -93.5 -68t-111.5 -16 h-632q-4 0 -23 -0.5t-27 0t-26 1.5t-29.5 4.5t-26.5 8.5t-27.5 13.5t-23.5 19.5q-43 45 -43 137zM254 209q0 -71 14 -88q18 -23 94 -23h572q43 0 67 1.5t64 18t63 48.5q46 61 46 219q0 156 -37 211q-21 32 -63 54t-85 22h-735v-463zM254 770h672q139 0 188 64q45 57 45 227 q0 166 -65 231q-21 20 -48.5 30t-44.5 11.5t-45 1.5h-620q-48 0 -62 -16q-20 -20 -20 -66v-483z" />
<glyph unicode="&#x413;" horiz-adv-x="1128" d="M143 0v1272q0 76 41 117q45 45 119 45h866v-99h-800h-16h-19.5t-19 -1t-20 -3.5t-15.5 -7t-13 -10.5q-12 -16 -12 -74v-1239h-111z" />
<glyph unicode="&#x414;" horiz-adv-x="1540" d="M-41 0v98h102l562 1209q30 68 64.5 105.5t82.5 37.5q49 0 82.5 -36.5t65.5 -106.5l561 -1209h102v-98h-1622zM184 98h1172l-543 1184q-21 49 -43 49t-43 -49z" />
<glyph unicode="&#x415;" horiz-adv-x="1269" d="M143 199v1044q0 88 41 137q28 33 64 43.5t86 10.5h846v-99h-830q-51 0 -74 -20q-22 -17 -22 -72v-461h905v-98h-905v-510q0 -40 20 -57q11 -8 41 -13.5t52 -5.5h821v-98h-850q-36 0 -53 1t-46.5 11t-50.5 31q-29 29 -37 66.5t-8 89.5z" />
<glyph unicode="&#x416;" horiz-adv-x="1961" d="M-41 0l678 610q71 66 85 87q13 19 13 34q0 30 -82 109l-618 594h160l555 -541q96 -96 96 -158q0 -72 -119 -180l-602 -555h-166zM926 0v1434h110v-1434h-110zM1116 735q0 62 96 158l555 541h160l-618 -594q-82 -79 -82 -109q0 -21 20 -44.5t66 -65.5q8 -7 12 -11 l678 -610h-166l-602 555q-119 110 -119 180z" />
<glyph unicode="&#x417;" horiz-adv-x="1255" d="M82 0v98h670q130 0 192 37q31 18 50 45t27.5 63t10.5 64t2 70q0 54 -2.5 88t-16.5 79t-40 72q-58 58 -180 58h-684v98h630q36 0 57 1.5t55.5 8t62 23.5t49.5 45q21 27 31.5 65.5t12 65t1.5 76.5q0 171 -58 231q-47 47 -123 47h-739v99h719q45 0 76 -3t78 -22t81 -55 q51 -54 67.5 -129.5t16.5 -171.5q0 -85 -15 -148t-62 -110t-113 -64v-8q49 -6 97 -31.5t77 -77.5q41 -74 41 -235q0 -125 -30.5 -204t-104.5 -122q-90 -53 -240 -53h-696z" />
<glyph unicode="&#x418;" horiz-adv-x="1490" d="M143 150v1284h111v-1272q0 -4 -0.5 -12.5t0 -13t1 -11t2 -10.5t4 -8t7.5 -5.5t11 -1.5q8 0 14.5 6t14.5 19.5t9 15.5l727 1157q54 85 73 106q45 46 108 46q123 0 123 -178v-1272h-111v1292q0 41 -20 41q-19 0 -52 -59l-739 -1165q-3 -5 -9 -14q-18 -28 -29 -42.5 t-30 -33.5t-42 -27t-52 -8q-121 0 -121 166z" />
<glyph unicode="&#x419;" horiz-adv-x="1490" d="M143 150v1284h111v-1272q0 -4 -0.5 -12.5t0 -13t1 -11t2 -10.5t4 -8t7.5 -5.5t11 -1.5q8 0 14.5 6t14.5 19.5t9 15.5l727 1157q54 85 73 106q45 46 108 46q123 0 123 -178v-1272h-111v1292q0 41 -20 41q-19 0 -52 -59l-739 -1165q-3 -5 -9 -14q-18 -28 -29 -42.5 t-30 -33.5t-42 -27t-52 -8q-121 0 -121 166zM449 1710h118q7 -49 45 -82q41 -37 133 -37q93 0 134 37q38 33 45 82h118q-20 -105 -104 -168q-67 -49 -193 -49q-125 0 -192 49q-84 63 -104 168z" />
<glyph unicode="&#x41a;" horiz-adv-x="1282" d="M143 0v1434h111v-1434h-111zM334 737q0 39 30.5 81.5t71.5 74.5l672 541h160l-733 -594q-2 -1 -11.5 -8t-14 -10.5t-14.5 -12t-15.5 -14l-13.5 -13.5t-12 -15t-7 -15.5t-3 -16.5q0 -42 99 -118q2 -3 4 -4.5t4 -2.5l792 -610h-165l-719 555q-57 44 -91 92t-34 90z" />
<glyph unicode="&#x41b;" horiz-adv-x="1282" d="M-61 0l557 1325q31 76 63.5 100.5t81.5 24.5t81.5 -24.5t63.5 -100.5l557 -1325h-118l-541 1305q-1 3 -4 11.5t-5.5 13t-7 10.5t-11 9t-15.5 3q-11 0 -19 -5.5t-11 -10t-7.5 -17.5t-5.5 -14l-541 -1305h-118z" />
<glyph unicode="&#x41c;" horiz-adv-x="1908" d="M143 0v1315q0 59 37.5 97t98.5 38q57 0 90.5 -34t64.5 -107l486 -1168q1 -2 2.5 -6.5t2.5 -7l3 -7.5t3.5 -7.5t4.5 -6t5.5 -5.5t5.5 -3.5t7 -1.5q3 0 6 1t6 3t5 4t4 6t3.5 5.5t3.5 6.5t2.5 6.5l2.5 7.5l2 5l486 1168q31 73 64.5 107t90.5 34q61 0 98 -38t37 -97v-1315 h-110v1315q0 19 -9.5 28t-19.5 9q-9 0 -21.5 -14t-17.5 -27l-487 -1172q-33 -78 -64 -116.5t-82 -38.5q-50 0 -81 38t-64 117l-487 1172q-5 13 -17.5 27t-21.5 14q-10 0 -19.5 -9t-9.5 -28v-1315h-111z" />
<glyph unicode="&#x41d;" horiz-adv-x="1437" d="M143 0v1434h111v-656h930v656h110v-1434h-110v680h-930v-680h-111z" />
<glyph unicode="&#x41e;" horiz-adv-x="1593" d="M102 717q0 81 4.5 141t19.5 145t52 159.5t94 131.5q52 52 118.5 86t142.5 48t132 18t132 4q59 0 103 -2t107 -11t113 -24.5t104.5 -46t96.5 -72.5q57 -57 94 -131.5t52 -159.5t19.5 -145t4.5 -141t-4.5 -141.5t-19.5 -145.5t-52 -159.5t-94 -131.5q-52 -52 -118 -85.5 t-142 -47.5t-132 -18t-132 -4t-132 4t-132 18t-142.5 47.5t-118.5 85.5q-57 57 -94 131.5t-52 159.5t-19.5 145.5t-4.5 141.5zM221 717q0 -80 3 -132.5t13.5 -125.5t37.5 -133t69 -107q44 -48 100 -78.5t125.5 -42t112.5 -14t115 -2.5q57 0 89.5 1t91.5 8t100 20.5t88.5 41 t82.5 66.5q42 47 69 107t37.5 133t13.5 125.5t3 132.5t-3 132.5t-13.5 125t-37.5 132.5t-69 107q-44 48 -100 78.5t-124.5 42t-112.5 14.5t-115 3t-115 -3t-113 -14.5t-125 -42t-100 -78.5q-42 -47 -69 -107t-37.5 -132.5t-13.5 -125t-3 -132.5z" />
<glyph unicode="&#x41f;" horiz-adv-x="1421" d="M143 0v1247q0 99 43 144q41 43 121 43h807q80 0 121 -43q43 -45 43 -144v-1247h-111v1257v8v9t-0.5 8t-1 8t-1.5 7t-3 8t-4.5 7t-5.5 7q-16 16 -59 16h-762q-44 0 -60 -16q-3 -3 -5.5 -7t-4.5 -7t-3 -8t-1.5 -7t-1 -8t-0.5 -8v-9v-8v-1257h-111z" />
<glyph unicode="&#x420;" d="M143 0v1264q0 94 39 131q41 39 137 39h592q58 0 95.5 -3.5t88.5 -21t89 -51.5q60 -51 84 -136t24 -229q0 -255 -118 -346q-77 -61 -193 -61h-727v-586h-111zM254 684h664q143 0 200 66q56 67 56 272q0 182 -60 248q-57 65 -192 65h-586q-30 0 -47.5 -6t-24.5 -20.5 t-8.5 -26t-1.5 -35.5v-563z" />
<glyph unicode="&#x421;" horiz-adv-x="1308" d="M102 696q0 86 5 152t19.5 144.5t47 146t82.5 121.5q167 174 440 174h549v-99h-502q-287 0 -415 -166q-46 -59 -71 -147t-30.5 -159t-5.5 -169q0 -138 18 -240t76 -182q21 -29 50 -55.5t76 -55.5t117.5 -46t154.5 -17h555v-98h-578q-266 0 -428 162q-89 89 -124.5 216 t-35.5 318z" />
<glyph unicode="&#x422;" horiz-adv-x="1228" d="M-41 1335v99h1311v-99h-600v-1335h-111v1335h-600z" />
<glyph unicode="&#x423;" horiz-adv-x="1249" d="M-61 1434h122l580 -1080l547 1080h123l-733 -1434h-123l129 244z" />
<glyph unicode="&#x424;" horiz-adv-x="1806" d="M102 735q0 137 22.5 241.5t88.5 190.5q34 44 77.5 75t82.5 47t94.5 24.5t92 10t97.5 1.5h191v109h110v-109h191q61 0 97.5 -1.5t92 -10t94.5 -24.5t82.5 -47t77.5 -75q66 -86 88.5 -190.5t22.5 -241.5q0 -138 -19 -245t-77 -189q-122 -172 -414 -172h-236v-129h-110v129 h-236q-291 0 -413 172q-58 82 -77.5 190t-19.5 244zM221 743q0 -243 43 -337q18 -41 44.5 -71.5t60.5 -49.5t66.5 -31.5t75.5 -18t75.5 -7t77.5 -1.5h184v1000h-244q-47 0 -82 -4t-85.5 -18t-92 -49t-70.5 -89q-33 -62 -43 -139.5t-10 -184.5zM958 227h185q45 0 77.5 1.5 t75 7t75.5 18t66.5 31.5t60 49.5t44.5 71.5q43 94 43 337q0 107 -10 184.5t-43 139.5q-29 54 -70.5 89t-92 49t-85.5 18t-82 4h-244v-1000z" />
<glyph unicode="&#x425;" horiz-adv-x="1146" d="M-41 0l555 727l-539 707h131l467 -627l467 627h131l-538 -707l555 -727h-131l-484 647l-483 -647h-131z" />
<glyph unicode="&#x426;" horiz-adv-x="1454" d="M143 164v1270h111v-1239q0 -2 -0.5 -18t0 -22t3 -17t7.5 -17q16 -23 66 -23h835v1336h111v-1336h199v-98h-1141q-103 0 -141 31q-50 39 -50 133z" />
<glyph unicode="&#x427;" horiz-adv-x="1339" d="M123 971v463h110v-467q0 -35 1.5 -55.5t11.5 -53t30 -55.5q54 -60 168 -60h641v691h111v-1434h-111v645h-663q-68 0 -133.5 26t-108.5 81q-57 75 -57 219z" />
<glyph unicode="&#x428;" horiz-adv-x="1994" d="M143 154v1280h111v-1252q0 -45 10 -61q14 -23 58 -23h620v1336h111v-1336h620q44 0 58 23q10 16 10 61v1252h110v-1280q0 -81 -34 -115q-37 -39 -119 -39h-1401q-82 0 -119 39q-35 35 -35 115z" />
<glyph unicode="&#x429;" horiz-adv-x="2029" d="M143 154v1280h111v-1252q0 -45 10 -61q14 -23 58 -23h620v1336h111v-1336h688v1336h110v-1336h199v-98h-1753q-82 0 -119 39q-35 35 -35 115z" />
<glyph unicode="&#x42a;" horiz-adv-x="1499" d="M-20 1335v99h217q77 0 122 -45q39 -41 39 -144v-465h723q189 0 262 -106q54 -79 54 -281q0 -193 -66 -278q-13 -17 -31.5 -33.5t-51.5 -36.5t-84 -32.5t-111 -12.5h-660q-70 0 -110 47q-35 41 -35 125v1063q0 51 -19 76q-21 24 -55 24h-194zM358 188q0 -46 13 -65 q16 -25 80 -25h596q54 0 103.5 17t76.5 47q24 26 36 68t13.5 72.5t1.5 86.5q0 45 -1 72t-6 68.5t-17.5 71t-32.5 46.5q-39 35 -125 35h-738v-494z" />
<glyph unicode="&#x42b;" horiz-adv-x="1722" d="M143 172v1262h111v-654h723q189 0 262 -106q53 -78 53 -281q0 -194 -65 -278q-13 -17 -32 -33.5t-52 -36.5t-84 -32.5t-111 -12.5h-659q-71 0 -111 47q-35 41 -35 125zM254 188q0 -47 12 -65q16 -25 80 -25h596q54 0 103.5 17t76.5 47q24 26 36 68t14 73.5t2 85.5 q0 60 -2 97.5t-16 87.5t-40 73q-39 35 -125 35h-737v-494zM1468 0v1434h111v-1434h-111z" />
<glyph unicode="&#x42c;" d="M143 172v1262h111v-654h723q189 0 262 -106q53 -78 53 -281q0 -194 -65 -278q-89 -115 -279 -115h-659q-71 0 -111 47q-35 41 -35 125zM254 188q0 -47 12 -65q16 -25 80 -25h596q54 0 103.5 17t76.5 47q19 21 31 51t16 71t4.5 57.5t0.5 55.5q0 55 -2 91.5t-16 86 t-40 72.5q-39 35 -125 35h-737v-494z" />
<glyph unicode="&#x42d;" horiz-adv-x="1343" d="M102 0v98h562q191 0 311 107q49 44 81 100.5t46 122t18 123.5t2 131h-970v98h970q8 264 -106 406q-58 71 -143.5 110t-180.5 39h-569v99h520q276 0 430 -150q56 -54 91.5 -120t51 -143.5t20.5 -140.5t5 -151q0 -225 -41 -366.5t-149 -233.5q-155 -129 -408 -129h-541z " />
<glyph unicode="&#x42e;" horiz-adv-x="1916" d="M143 0v1434h111v-650h170q-5 146 41.5 286t128.5 224q51 52 118 86t143.5 48t133 18t131.5 4q60 0 104 -2t107.5 -11t113 -24.5t104.5 -46t98 -72.5t75 -98t49.5 -111t27.5 -123t13 -122.5t3 -122.5q0 -86 -5.5 -155t-21.5 -150t-51.5 -151t-89.5 -122 q-53 -52 -119.5 -85.5t-142.5 -47.5t-132 -18t-133 -4q-76 0 -132 4t-133 18t-143.5 47.5t-117.5 85.5q-87 87 -133 238.5t-37 308.5h-170v-686h-111zM543 717q0 -80 3 -132.5t13.5 -125.5t37.5 -133t69 -107q35 -39 82.5 -66.5t88.5 -41t100 -20.5t91.5 -8t89.5 -1 q165 0 270.5 26t182.5 111q43 47 70 106.5t38 132.5t14 125.5t3 133.5t-3 133.5t-14 125t-38 132t-70 106.5q-77 85 -183 111.5t-270 26.5q-71 0 -115 -3t-112.5 -14.5t-124.5 -42t-100 -78.5q-42 -47 -69 -107t-37.5 -132.5t-13.5 -125t-3 -132.5z" />
<glyph unicode="&#x42f;" horiz-adv-x="1415" d="M82 0l672 569v11h-318q-172 0 -256 125q-63 98 -63 299q0 211 63 307q81 123 273 123h604q100 0 155 -50q27 -25 41 -57t16.5 -55t2.5 -58v-1214h-111v1239q0 48 -28 74q-24 22 -74 22h-586q-35 0 -58.5 -2t-56 -14t-55.5 -35q-24 -24 -39.5 -59t-20.5 -81t-6 -66.5 t-1 -61.5q0 -193 38 -254q20 -32 59 -56t89 -24h444q22 0 35.5 -12t13.5 -35v-33q0 -15 -6 -27t-12.5 -17.5l-19.5 -16.5l-633 -541h-162z" />
<glyph unicode="&#x430;" horiz-adv-x="1034" d="M61 336q0 179 91 256q69 57 202 57h471v162q0 29 -11 67.5t-30 61.5q-42 49 -114 49h-527v96h533q56 0 107 -20t83 -55q66 -71 66 -217v-650q0 -77 -37 -112q-33 -31 -123 -31h-418q-40 0 -66.5 2t-64.5 13.5t-65 33.5q-97 80 -97 287zM176 332q0 -137 43 -189 q40 -47 107 -47h438q32 0 47 13q14 12 14 36v408h-495q-43 0 -74 -16t-45 -37q-35 -45 -35 -168z" />
<glyph unicode="&#x431;" horiz-adv-x="1087" d="M102 442v570q0 162 56 256q48 82 136 124t185 42h477v-97h-471q-131 0 -202 -71q-33 -33 -52.5 -82t-21.5 -99h381q107 0 206 -39.5t158 -132.5q44 -68 58 -157.5t14 -202.5q0 -270 -76 -393q-34 -55 -82.5 -92t-105.5 -53t-102.5 -21.5t-100.5 -5.5q-44 0 -77.5 2 t-83.5 12.5t-89 29t-79.5 54t-69.5 84.5q-36 62 -47 126.5t-11 145.5zM209 420q0 -139 55 -217q81 -119 291 -119q197 0 276 94q80 95 80 389q0 61 -1.5 94.5t-8.5 86t-25.5 91.5t-48.5 70q-76 80 -231 80h-387v-569z" />
<glyph unicode="&#x432;" horiz-adv-x="1019" d="M102 129v827q0 58 35 93q36 36 92 36h473q138 0 201 -79q55 -67 55 -211q0 -36 -1.5 -57.5t-11 -52.5t-27.5 -54q-39 -54 -109 -64v-4q72 -14 113 -69q17 -23 25.5 -54.5t9.5 -51t1 -58.5q0 -57 -3 -93.5t-19.5 -85t-48.5 -83.5q-63 -68 -164 -68h-504q-59 0 -90 35 q-27 29 -27 94zM209 164q0 -37 12 -51q15 -17 53 -17h388q54 0 86 8t57 39q18 22 27 54.5t10.5 54t1.5 59.5q0 111 -39 158q-42 49 -121 49h-475v-354zM209 614h475q40 0 67.5 8.5t51.5 36.5q41 45 41 148q0 104 -45 145q-39 37 -115 37h-432q-23 0 -33 -10t-10 -29v-336z " />
<glyph unicode="&#x433;" horiz-adv-x="897" d="M102 0v930q0 75 17 104q30 51 106 51h693v-96h-652q-33 0 -45 -16t-12 -62v-911h-107z" />
<glyph unicode="&#x434;" horiz-adv-x="1069" d="M-20 0v96h88l350 908q34 94 117 94q82 0 116 -94l350 -908h89v-96h-1110zM180 96h709l-330 862q-12 31 -24 31q-13 0 -25 -31z" />
<glyph unicode="&#x435;" horiz-adv-x="1058" d="M61 539q0 70 4 120.5t17 115.5t44.5 119t80.5 95q115 96 340 96q171 0 276 -61q174 -109 174 -344q0 -102 -45 -141q-38 -33 -114 -33h-662q-4 -138 19 -221q22 -77 82.5 -133t158.5 -56h533v-96h-533q-185 0 -286 133q-57 74 -73 166.5t-16 239.5zM176 602h662 q45 0 45 72q0 135 -74 221q-28 33 -61.5 53.5t-74.5 28.5t-69.5 10t-75.5 2q-41 0 -66.5 -1.5t-63.5 -8.5t-64.5 -20t-55.5 -38.5t-51 -62.5q-30 -50 -39.5 -107t-11.5 -149z" />
<glyph unicode="&#x436;" horiz-adv-x="1466" d="M-20 0l493 496q39 39 39 65q0 23 -39 62l-463 462h146l385 -383q86 -86 86 -149q0 -23 -12 -47.5t-24 -38.5t-36 -39l-424 -428h-151zM680 0v1085h106v-1085h-106zM840 553q0 63 86 149l385 383h145l-463 -462q-39 -39 -39 -62q0 -26 39 -65l494 -496h-152l-424 428 q-23 24 -35 39t-24 39t-12 47z" />
<glyph unicode="&#x437;" horiz-adv-x="987" d="M82 0v96h567q74 0 107 47q35 48 35 166q0 34 -2.5 57t-15 54t-36.5 53q-45 41 -125 41h-499v96h514q75 0 116 45q41 43 41 146q0 100 -41 145q-39 43 -114 43h-527v96h537q125 0 192 -67q68 -68 68 -209q0 -121 -41 -182q-34 -49 -92 -64v-6q53 -12 90 -61 q49 -66 49 -185q0 -172 -80 -248q-67 -63 -184 -63h-559z" />
<glyph unicode="&#x438;" horiz-adv-x="1112" d="M102 100v985h107v-944q0 -26 12 -26q8 0 23 26l559 891q41 66 112 66q95 0 95 -125v-973h-107v944q0 22 -5 24q-2 1 -5 1q-8 0 -23 -25l-553 -878q-28 -42 -53 -60t-63 -18q-46 0 -72.5 29.5t-26.5 82.5z" />
<glyph unicode="&#x439;" horiz-adv-x="1112" d="M102 100v985h107v-944q0 -26 12 -26q8 0 23 26l559 891q41 66 112 66q95 0 95 -125v-973h-107v944q0 22 -5 24q-2 1 -5 1q-8 0 -23 -25l-553 -878q-28 -42 -53 -60t-63 -18q-46 0 -72.5 29.5t-26.5 82.5zM254 1372h123q17 -55 53 -88q44 -41 133 -41t133 41q38 34 54 88 h122q-32 -105 -100 -162q-75 -65 -209 -65t-209 65q-68 57 -100 162z" />
<glyph unicode="&#x43a;" horiz-adv-x="917" d="M102 0v1085h107v-1085h-107zM260 559q0 62 84 141l414 385h145l-483 -456q-45 -45 -45 -70q0 -26 33 -59l530 -500h-152l-456 430q-70 65 -70 129z" />
<glyph unicode="&#x43b;" horiz-adv-x="987" d="M-20 0l407 1012q35 86 107 86q71 0 106 -86l408 -1012h-121l-373 950q-11 33 -20 33q-10 0 -21 -33l-373 -950h-120z" />
<glyph unicode="&#x43c;" horiz-adv-x="1388" d="M102 0v985q0 54 27 83.5t76 29.5q41 0 64.5 -18t39.5 -56l363 -872q16 -37 22 -37q7 0 23 37l362 872q16 38 40 56t65 18q49 0 75.5 -29.5t26.5 -83.5v-985h-106v952q0 15 -9 15q-8 0 -14 -19l-364 -882q-16 -38 -44.5 -58t-54.5 -20t-54 20t-44 58l-365 882 q-6 19 -14 19t-8 -15v-952h-107z" />
<glyph unicode="&#x43d;" horiz-adv-x="1069" d="M102 0v1085h107v-477h651v477h107v-1085h-107v512h-651v-512h-107z" />
<glyph unicode="&#x43e;" horiz-adv-x="1196" d="M61 549q0 296 136 430q72 70 173 94.5t228 24.5t228 -24.5t173 -94.5q136 -134 136 -430q0 -302 -136 -438q-125 -123 -401 -123t-401 123q-136 136 -136 438zM176 539q0 -52 1.5 -82t8.5 -86.5t26.5 -102.5t51.5 -80q58 -63 142.5 -83.5t191.5 -20.5t191.5 20.5 t142.5 83.5q32 34 51.5 80t26.5 102.5t8.5 86.5t1.5 82t-1.5 86t-8.5 91t-26.5 104t-49.5 81q-91 100 -336 100t-336 -100q-30 -34 -49.5 -81t-26.5 -104t-8.5 -91t-1.5 -86z" />
<glyph unicode="&#x43f;" horiz-adv-x="1064" d="M102 0v928q0 74 23 110q31 47 111 47h593q80 0 111 -47q23 -36 23 -110v-928h-107v928q0 41 -10 51t-35 10h-557q-25 0 -35 -10t-10 -51v-928h-107z" />
<glyph unicode="&#x440;" horiz-adv-x="1048" d="M102 -348v1298q0 64 52 103q42 32 120 32h275q209 0 323 -124q39 -42 64 -91.5t35.5 -107.5t13 -99.5t2.5 -103.5q0 -127 -16.5 -221.5t-69.5 -175.5q-61 -92 -152.5 -127t-232.5 -35h-307v-348h-107zM209 96h350q77 0 144.5 31t107.5 92q61 95 61 326q0 202 -38 286 q-36 80 -108.5 119t-154.5 39h-313q-14 0 -33 -14q-16 -14 -16 -39v-840z" />
<glyph unicode="&#x441;" horiz-adv-x="974" d="M61 528q0 68 3.5 116.5t14.5 111t37.5 115t67.5 94.5q120 120 338 120h367v-96h-379q-126 0 -206.5 -60t-106.5 -161q-9 -40 -15 -122t-6 -132q0 -65 9.5 -139.5t27.5 -116.5q71 -162 319 -162h381v-96h-434q-205 0 -319 137q-60 71 -79.5 162.5t-19.5 228.5z" />
<glyph unicode="&#x442;" horiz-adv-x="884" d="M-20 989v96h925v-96h-409v-989h-107v989h-409z" />
<glyph unicode="&#x443;" horiz-adv-x="1017" d="M-20 1085h114l402 -952l428 952h114l-649 -1435h-115l164 356z" />
<glyph unicode="&#x444;" horiz-adv-x="1466" d="M61 530q0 261 76 381q105 174 352 174h191v349h106v-349h191q247 0 352 -174q76 -120 76 -381q0 -245 -90 -378q-28 -41 -65 -70.5t-70.5 -45t-75.5 -24t-70.5 -10.5t-64.5 -2h-183v-348h-106v348h-182q-36 0 -64.5 2t-70.5 10.5t-75.5 24t-70.5 45t-65 70.5 q-91 134 -91 378zM176 518q0 -94 12.5 -164.5t49.5 -130.5q26 -41 59.5 -68.5t70 -39t64.5 -15.5t62 -4h186v893h-191q-75 0 -137 -30t-100 -85q-76 -105 -76 -356zM786 96h187q34 0 62 4t64.5 15.5t70 39t59.5 68.5q37 60 49 130t12 165q0 251 -76 356q-38 55 -100 85 t-137 30h-191v-893z" />
<glyph unicode="&#x445;" horiz-adv-x="880" d="M-20 0l403 557l-385 528h125l317 -448l318 448h125l-383 -528l401 -557h-129l-332 477l-331 -477h-129z" />
<glyph unicode="&#x446;" horiz-adv-x="1081" d="M102 139v946h107v-915q0 -45 14 -59q15 -15 62 -15h569v989h107v-989h141v-96h-844q-82 0 -117 29q-39 33 -39 110z" />
<glyph unicode="&#x447;" horiz-adv-x="1044" d="M82 801v284h106v-309q0 -90 27 -123q34 -47 127 -47h494v479h106v-1085h-106v510h-478q-35 0 -58.5 1.5t-58.5 8t-63 23t-49 41.5q-30 37 -38.5 89t-8.5 128z" />
<glyph unicode="&#x448;" horiz-adv-x="1597" d="M102 141v944h107v-915q0 -39 10 -53q14 -21 47 -21h479v989h107v-989h479q33 0 47 21q11 15 11 53v915h106v-944q0 -77 -33 -108q-17 -16 -45.5 -24t-44 -8.5t-49.5 -0.5h-1049q-34 0 -49.5 0.5t-44 8.5t-45.5 24q-33 31 -33 108z" />
<glyph unicode="&#x449;" horiz-adv-x="1615" d="M102 141v944h107v-915q0 -39 10 -53q14 -21 47 -21h479v989h107v-989h537v989h106v-989h141v-96h-1362q-34 0 -49.5 0.5t-44 8.5t-45.5 24q-33 31 -33 108z" />
<glyph unicode="&#x44a;" horiz-adv-x="1099" d="M-20 989v96h192q50 0 76 -26q28 -28 28 -92v-346h502q119 0 185 -64q75 -73 75 -235q0 -193 -80 -269q-27 -25 -63.5 -37t-62 -14t-74.5 -2h-471q-65 0 -90 25q-27 27 -27 100v803q0 32 -8 45q-11 16 -47 16h-135zM276 160q0 -37 7 -49q9 -15 45 -15h450q75 0 111 51 q35 49 35 177q0 105 -37 153q-38 47 -109 47h-502v-364z" />
<glyph unicode="&#x44b;" horiz-adv-x="1302" d="M102 125v960h107v-464h502q118 0 184 -64q76 -74 76 -235q0 -193 -80 -269q-27 -25 -63.5 -37t-62.5 -14t-75 -2h-471q-65 0 -90 25q-27 27 -27 100zM209 160q0 -37 6 -49q9 -15 45 -15h451q74 0 110 51q35 49 35 177q0 105 -37 153q-38 47 -108 47h-502v-364zM1094 0 v1085h106v-1085h-106z" />
<glyph unicode="&#x44c;" horiz-adv-x="1032" d="M102 125v960h107v-464h502q118 0 184 -64q76 -74 76 -235q0 -193 -80 -269q-27 -25 -63.5 -37t-62.5 -14t-75 -2h-471q-65 0 -90 25q-27 27 -27 100zM209 160q0 -37 6 -49q9 -15 45 -15h451q74 0 110 51q35 49 35 177q0 105 -37 153q-38 47 -108 47h-502v-364z" />
<glyph unicode="&#x44d;" horiz-adv-x="1011" d="M61 0v96h467q211 0 271 162q16 43 26.5 123.5t10.5 142.5h-746v97h746q2 60 -12.5 129t-41.5 114q-23 41 -55 68.5t-69.5 38.5t-65 14.5t-62.5 3.5h-454v96h456q195 0 306 -118q57 -62 84.5 -152.5t27.5 -247.5q0 -148 -23 -254t-81 -178q-38 -46 -84.5 -75.5 t-101.5 -41.5t-93.5 -15t-95.5 -3h-410z" />
<glyph unicode="&#x44e;" horiz-adv-x="1486" d="M102 0v1085h107v-477h172q10 253 133 371q42 41 93.5 67.5t110 36.5t95.5 12.5t90 2.5q52 0 89 -2.5t95.5 -12.5t110.5 -36.5t94 -67.5q133 -131 133 -430q0 -303 -133 -438q-123 -123 -389 -123q-51 0 -90 3t-95.5 14t-108.5 38t-95 68q-57 56 -89 138.5t-38.5 142 t-5.5 120.5h-172v-512h-107zM496 539q0 -47 1.5 -79.5t8.5 -88.5t26 -102.5t48 -80.5q55 -63 136 -83.5t187 -20.5t187.5 20.5t136.5 83.5q29 34 48 80.5t26 102.5t8.5 88.5t1.5 79.5q0 268 -82 362q-37 43 -99.5 66.5t-112 28.5t-114.5 5t-114 -5t-111.5 -28.5t-99.5 -66.5 q-82 -94 -82 -362z" />
<glyph unicode="&#x44f;" horiz-adv-x="1067" d="M61 0l410 389q18 18 18 25q0 12 -16 12h-117q-66 0 -117.5 18.5t-91.5 75.5q-55 80 -55 244q0 172 72 250q68 71 180 71h459q91 0 125 -32q17 -16 26 -42t10 -43.5t1 -47.5v-920h-107v911q0 46 -12 62q-14 16 -68 16h-436q-69 0 -104 -55q-31 -48 -31 -166 q0 -127 26 -178q23 -40 54.5 -54t74.5 -14h201q82 0 82 -61q0 -41 -29 -70l-411 -391h-144z" />
<glyph unicode="&#x451;" horiz-adv-x="1058" d="M61 539q0 70 4 120.5t17 115.5t44.5 119t80.5 95q115 96 340 96q171 0 276 -61q174 -109 174 -344q0 -102 -45 -141q-38 -33 -114 -33h-662q-4 -138 19 -221q22 -77 82.5 -133t158.5 -56h533v-96h-533q-185 0 -286 133q-57 74 -73 166.5t-16 239.5zM176 602h662 q45 0 45 72q0 135 -74 221q-28 33 -61.5 53.5t-74.5 28.5t-69.5 10t-75.5 2q-41 0 -66.5 -1.5t-63.5 -8.5t-64.5 -20t-55.5 -38.5t-51 -62.5q-30 -50 -39.5 -107t-11.5 -149zM283 1266v168h114v-168h-114zM647 1266v168h115v-168h-115z" />
<glyph unicode="&#x454;" horiz-adv-x="1005" d="M61 567q0 277 107 400q102 118 305 118h457v-96h-455q-34 0 -61.5 -3.5t-65 -14.5t-70 -38.5t-55.5 -68.5q-25 -43 -38 -112t-13 -131h743v-97h-749q0 -66 11 -142t30 -124q64 -162 270 -162h467v-96h-409q-55 0 -93.5 3t-95 15t-104 41.5t-82.5 75.5q-99 126 -99 432z " />
<glyph unicode="&#x456;" horiz-adv-x="319" d="M102 1282v152h115v-152h-115zM106 0v1085h107v-1085h-107z" />
<glyph unicode="&#x457;" horiz-adv-x="319" d="M0 1208v162h106v-162h-106zM106 0v1085h107v-1085h-107zM213 1208v162h106v-162h-106z" />
<glyph unicode="&#x490;" horiz-adv-x="1120" d="M143 0v1276q0 82 27 115q34 43 121 43h700q37 0 49 12q11 15 11 51v193h110v-246q0 -64 -26 -86q-24 -21 -93 -21h-729q-38 0 -49 -18q-10 -13 -10 -74v-1245h-111z" />
<glyph unicode="&#x491;" horiz-adv-x="827" d="M102 0v952q0 27 0.5 37t7.5 29t21 33q32 34 96 34h480q32 0 45 15q10 10 10 35v211h106v-238q0 -62 -28 -90q-31 -29 -97 -29h-483q-33 0 -43 -16q-8 -13 -8 -47v-926h-107z" />
<glyph unicode="&#x2000;" horiz-adv-x="886" />
<glyph unicode="&#x2001;" horiz-adv-x="1772" />
<glyph unicode="&#x2002;" horiz-adv-x="886" />
<glyph unicode="&#x2003;" horiz-adv-x="1772" />
<glyph unicode="&#x2004;" horiz-adv-x="590" />
<glyph unicode="&#x2005;" horiz-adv-x="443" />
<glyph unicode="&#x2006;" horiz-adv-x="295" />
<glyph unicode="&#x2007;" horiz-adv-x="295" />
<glyph unicode="&#x2008;" horiz-adv-x="221" />
<glyph unicode="&#x2009;" horiz-adv-x="354" />
<glyph unicode="&#x200a;" horiz-adv-x="98" />
<glyph unicode="&#x2010;" horiz-adv-x="819" d="M102 496v118h615v-118h-615z" />
<glyph unicode="&#x2011;" horiz-adv-x="819" d="M102 496v118h615v-118h-615z" />
<glyph unicode="&#x2012;" horiz-adv-x="819" d="M102 496v118h615v-118h-615z" />
<glyph unicode="&#x2013;" horiz-adv-x="1212" d="M102 496v118h1008v-118h-1008z" />
<glyph unicode="&#x2014;" horiz-adv-x="2334" d="M143 496v118h2048v-118h-2048z" />
<glyph unicode="&#x2018;" horiz-adv-x="409" d="M0 1372l92 62l215 -320l-92 -61z" />
<glyph unicode="&#x2019;" horiz-adv-x="430" d="M61 1114l215 320l93 -62l-215 -319z" />
<glyph unicode="&#x201a;" horiz-adv-x="409" d="M0 -115l215 320l92 -62l-215 -319z" />
<glyph unicode="&#x201c;" horiz-adv-x="727" d="M61 1372l93 62l215 -320l-93 -61zM358 1372l93 62l215 -320l-93 -61z" />
<glyph unicode="&#x201d;" horiz-adv-x="727" d="M61 1114l215 320l93 -62l-215 -319zM358 1114l215 320l93 -62l-215 -319z" />
<glyph unicode="&#x201e;" horiz-adv-x="706" d="M0 -115l215 320l92 -62l-215 -319zM297 -115l215 320l92 -62l-215 -319z" />
<glyph unicode="&#x2026;" horiz-adv-x="983" d="M143 0v178h123v-178h-123zM430 0v178h123v-178h-123zM717 0v178h123v-178h-123z" />
<glyph unicode="&#x202f;" horiz-adv-x="354" />
<glyph unicode="&#x2039;" horiz-adv-x="591" d="M102 575q0 43 31 91l268 393l88 -60l-253 -366q-23 -37 -23 -58q0 -20 23 -57l253 -366l-88 -60l-268 393q-31 48 -31 90z" />
<glyph unicode="&#x203a;" horiz-adv-x="591" d="M102 152l254 366q23 37 23 57q0 21 -23 58l-254 366l88 60l269 -393q30 -47 30 -91q0 -43 -30 -90l-269 -393z" />
<glyph unicode="&#x205f;" horiz-adv-x="443" />
<glyph unicode="&#x20ac;" horiz-adv-x="1253" d="M49 600l29 59h115q-3 24 -3 70q0 8 1.5 33t1.5 33h-144l29 61h121q13 112 38 199.5t68 162.5t104.5 124t149.5 76.5t201 27.5q150 0 242 -38.5t135 -92.5l12 -156h-35q-16 113 -108.5 168t-231.5 55q-117 0 -202.5 -38t-138 -111t-81.5 -164t-43 -213h717l-29 -61h-694 q0 -9 -1 -33t-1 -33q0 -54 2 -70h633l-27 -59h-602q22 -260 142.5 -401.5t324.5 -141.5q83 0 151.5 20.5t122 74.5t66.5 137h35l-12 -150q-107 -143 -377 -143q-253 0 -394.5 154t-164.5 450h-152z" />
<glyph unicode="&#x2122;" horiz-adv-x="1843" d="M0 1346v90h752v-90h-328v-732h-96v732h-328zM811 614v754q0 25 9.5 42t24.5 24t26 9.5t22 2.5q101 0 129 -82l233 -647q13 -27 21 -27q6 0 20 27l234 647q29 82 129 82q11 0 22 -2.5t26 -9.5t24.5 -24t9.5 -42v-754h-96v721q0 23 -17 23q-12 0 -22 -25l-230 -639 q-31 -90 -100 -90t-100 90l-230 639q-10 25 -22 25q-17 0 -17 -23v-721h-96z" />
<glyph unicode="&#x25fc;" horiz-adv-x="1085" d="M0 0v1085h1085v-1085h-1085z" />
</font>
</defs>
</svg>
